Subcategories

Capricornus Consort Basel, Péter Barczi & Xenia Löffler - Richter: Sinfonias, Sonatas & Oboe Concerto (2017)

Posted By: SERTiL
Capricornus Consort Basel, Péter Barczi & Xenia Löffler - Richter: Sinfonias, Sonatas & Oboe Concerto (2017)

Capricornus Consort Basel, Péter Barczi & Xenia Löffler - Richter: Sinfonias, Sonatas & Oboe Concerto
Classical | WEB FLAC (tracks) & d. booklet | 61:14 min | 322 MB
Label: Christophorus | Tracks: 17 | Rls.date: 2017

The Capricornus Consort Basel, highly praised by critics for their sensible interpretations on their recordings of Erlebach, Graupner and Manfredini, now presents instrumental music of the early Classical period. Franz Xaver Richter 1709-1789 was one of the most important members of the so-called 'Mannheim School', based at the Mannheim court, the orchestra of which was said to be the best of its time. Prince-Elector Charles Theodore gathered the best singers and instrumentalists in his residencies in Mannheim and Schwetzingen. His generosity meant the Stamitz Family, Christian Cannabich, Charles Joseph Toeschi, Ignaz Holzbauer and Franz Xaver Richter all contributed to the development of the Mannheim style and thus exerted considerable influence.

TRACKLIST
01. Sinfonia in B-Flat Major, VB 59: I. Spiritoso
02. Sinfonia in B-Flat Major, VB 59: II. Andante
03. Sinfonia in B-Flat Major, VB 59: III. Largo
04. Sinfonia in B-Flat Major, VB 59: IV. Presto
05. Trio Sonata in A Minor, Op. 4 No. 6: I. Allegro
06. Trio Sonata in A Minor, Op. 4 No. 6: II. Minuetto
07. Trio Sonata in A Minor, Op. 4 No. 6: III. Fugato
08. Sinfonia con fuga in G Minor
09. Oboe Concerto in G Minor: I. Andante allegro
10. Oboe Concerto in G Minor: II. Andante
11. Oboe Concerto in G Minor: III. Allegro
12. Trio Sonata in D Major, Op. 3 No. 3: I. Larghetto
13. Trio Sonata in D Major, Op. 3 No. 3: II. Fugato
14. Trio Sonata in D Major, Op. 3 No. 3: III. Grazioso
15. Sinfonia in G Minor: I. Spiritoso
16. Sinfonia in G Minor: II. Andante
17. Sinfonia in G Minor: III. Presto

PERFORMER: auCDtect Task Manager, ver. 1.6.0 RC1 build 1.6.0.1
Copyright © 2008-2010 y-soft. All rights reserved

ANALYZER: auCDtect: CD records authenticity detector, version 0.8.2
Copyright © 2004 Oleg Berngardt. All rights reserved.
Copyright © 2004 Alexander Djourik. All rights reserved.


FILE: 17. Sinfonia in G Minor III. Presto.flac
Size: 7422827 Hash: 03F1E80E15A5E3B91550365FCF874605 Accuracy: -m0
Conclusion: CDDA 94%
Signature: 843D3C3B81EE2AB885BAD1C22EB00B9DCEFBD08A
FILE: 16. Sinfonia in G Minor II. Andante.flac
Size: 19656364 Hash: 917AEC21EF0806402E930D9CD2A0DBA7 Accuracy: -m0
Conclusion: MPEG 89%
Signature: 2EFCE20B21EFCDA147EE56B2EB8C8F324E64F367
FILE: 15. Sinfonia in G Minor I. Spiritoso.flac
Size: 32876450 Hash: BBD4BDCD842C2C111C53C3AD0F3A2E78 Accuracy: -m0
Conclusion: CDDA 100%
Signature: B21F02414DA0C706C20C2E50D5D36F6D985276B5
FILE: 14. Trio Sonata in D Major, Op. 3 No. 3 III. Grazioso.flac
Size: 27622802 Hash: 23CCB524826CBA76E19DD5626F0D57C1 Accuracy: -m0
Conclusion: CDDA 49%
Signature: 1266E6E14EFCC20077038C2FADA4EC6934C6B8D8
FILE: 13. Trio Sonata in D Major, Op. 3 No. 3 II. Fugato.flac
Size: 21074411 Hash: 9D4BE55E4ABF4015C4DA819E5411BC0C Accuracy: -m0
Conclusion: CDDA 100%
Signature: 1C10445DC3E13777CA75190F1650198B2641AE8B
FILE: 12. Trio Sonata in D Major, Op. 3 No. 3 I. Larghetto.flac
Size: 7183217 Hash: AE5D0780E5BDAE366C17DA7693D0AB27 Accuracy: -m0
Conclusion: CDDA 100%
Signature: 1217FDAA9D2EA75BED6BF2336D5DF57C83261779
FILE: 11. Oboe Concerto in G Minor III. Allegro.flac
Size: 13288213 Hash: 7445DBB0BDD959776B1D5E99A35906D0 Accuracy: -m0
Conclusion: CDDA 100%
Signature: DFD98361FEC95530BE1638F477E11F36492C6D83
FILE: 10. Oboe Concerto in G Minor II. Andante.flac
Size: 15171391 Hash: 0AE03D187D2058FDF5A8C26519A6294D Accuracy: -m0
Conclusion: CDDA 92%
Signature: D3BC811A70E88B9CAEB236C019227931A36844D2
FILE: 09. Oboe Concerto in G Minor I. Andante allegro.flac
Size: 25912179 Hash: E375CB0CD6A991AE032E2E6FFBAFF386 Accuracy: -m0
Conclusion: CDDA 100%
Signature: DED4EA12E187AB1CF080BF153E1C95871484DC53
FILE: 08. Sinfonia con fuga in G Minor.flac
Size: 50551827 Hash: 5147270B8C4CE38B60F62FFBD069F985 Accuracy: -m0
Conclusion: CDDA 76%
Signature: 49A5510675CDA9F97B8C98FFBDEFD301D0F5141E
FILE: 07. Trio Sonata in A Minor, Op. 4 No. 6 III. Fugato.flac
Size: 18302189 Hash: 5679DA02E8B4ACF9FEFBFC3523C97DEA Accuracy: -m0
Conclusion: CDDA 87%
Signature: 12F55A2A99E6A2F2C61EF2DDD75AD56CA51DEC86
FILE: 06. Trio Sonata in A Minor, Op. 4 No. 6 II. Minuetto.flac
Size: 20897275 Hash: 56A864F08D0D100862AD6F8FFAD59E7F Accuracy: -m0
Conclusion: CDDA 58%
Signature: C1E8C022D8018D4416879BB961B3D2EA69A9840A
FILE: 05. Trio Sonata in A Minor, Op. 4 No. 6 I. Allegro.flac
Size: 19768632 Hash: 6AE26C84FE9CB9463AD8D19F88D95954 Accuracy: -m0
Conclusion: CDDA 94%
Signature: D2FC4CBC56CD0CCE5DC800E0FD52CE90961D8F7A
FILE: 04. Sinfonia in B-Flat Major, VB 59 IV. Presto.flac
Size: 15260237 Hash: B976CB8CE6FDF799E3E3880B638C1D57 Accuracy: -m0
Conclusion: CDDA 100%
Signature: 3D552CCC026E187AE9DC436948CA53BA3F0CC230
FILE: 03. Sinfonia in B-Flat Major, VB 59 III. Largo.flac
Size: 6358833 Hash: 5C012280D99A04B8E95F49D007546743 Accuracy: -m0
Conclusion: CDDA 100%
Signature: 77E1C123CF6D31E062A7DE60F55F05E737ED1CE3
FILE: 02. Sinfonia in B-Flat Major, VB 59 II. Andante.flac
Size: 14693221 Hash: B41E29B036F8276597BB949EE7AA80A6 Accuracy: -m0
Conclusion: CDDA 54%
Signature: D3B3EEACA97C0D54A1080FDBCF7F20D48711BE18
FILE: 01. Sinfonia in B-Flat Major, VB 59 I. Spiritoso.flac
Size: 20555863 Hash: B923C7EDD1247023D4A3BC102AB766C6 Accuracy: -m0
Conclusion: CDDA 99%
Signature: ED75B9FBC1D655C0DFFF3DB2819461BFA1613BD8

foobar2000 1.3.7 / Dynamic Range Meter 1.1.1
log date: 2017-09-17 18:43:27

––––––––––––––––––––––––––––––––––––––––
Analyzed: Capricornus Consort Basel / Richter: Sinfonias, Sonatas & Oboe Concerto (1-14)
Xenia Löffler / Richter: Sinfonias, Sonatas & Oboe Concerto (15-17)
––––––––––––––––––––––––––––––––––––––––

DR Peak RMS Duration Track
––––––––––––––––––––––––––––––––––––––––
DR14 -0.97 dB -18.27 dB 3:35 01-Sinfonia in B-Flat Major, VB 59: I. Spiritoso
DR13 -4.48 dB -22.43 dB 2:59 02-Sinfonia in B-Flat Major, VB 59: II. Andante
DR11 -1.18 dB -15.57 dB 1:05 03-Sinfonia in B-Flat Major, VB 59: III. Largo
DR12 -1.14 dB -18.31 dB 2:39 04-Sinfonia in B-Flat Major, VB 59: IV. Presto
DR12 -0.07 dB -16.82 dB 3:25 05-Trio Sonata in A Minor, Op. 4 No. 6: I. Allegro
DR12 -2.46 dB -20.84 dB 3:55 06-Trio Sonata in A Minor, Op. 4 No. 6: II. Minuetto
DR13 -1.21 dB -18.44 dB 3:10 07-Trio Sonata in A Minor, Op. 4 No. 6: III. Fugato
DR13 -0.07 dB -17.40 dB 9:22 08-Sinfonia con fuga in G Minor
DR10 -5.46 dB -20.02 dB 1:18 12-Trio Sonata in D Major, Op. 3 No. 3: I. Larghetto
DR15 -0.32 dB -19.64 dB 3:49 13-Trio Sonata in D Major, Op. 3 No. 3: II. Fugato
DR13 -2.72 dB -19.73 dB 5:17 14-Trio Sonata in D Major, Op. 3 No. 3: III. Grazioso
DR15 -0.09 dB -18.19 dB 5:44 15-Sinfonia in G Minor: I. Spiritoso
DR13 -2.60 dB -20.53 dB 3:55 16-Sinfonia in G Minor: II. Andante
DR13 -0.09 dB -16.80 dB 1:15 17-Sinfonia in G Minor: III. Presto
DR12 -0.65 dB -16.39 dB 4:32 09-Oboe Concerto in G Minor: I. Andante allegro
DR11 -3.40 dB -18.05 dB 2:57 10-Oboe Concerto in G Minor: II. Andante
DR13 -0.96 dB -17.46 dB 2:26 11-Oboe Concerto in G Minor: III. Allegro
––––––––––––––––––––––––––––––––––––––––

Number of tracks: 17
Official DR value: DR13

Samplerate: 44100 Hz
Channels: 2
Bits per sample: 16
Bitrate: 713 kbps
Codec: FLAC
================================================================================


Capricornus Consort Basel, Péter Barczi & Xenia Löffler - Richter: Sinfonias, Sonatas & Oboe Concerto (2017)


Thanks to the Original customer.