Subcategories

Rick Springfield - The Snake King (2018)

Posted By: popsakov
Rick Springfield - The Snake King (2018)

Rick Springfield - The Snake King (2018)
EAC Rip | FLAC (Img) + Cue + Log ~ 492 Mb | Full Scans (JPG, 300 dpi) | RAR 5% Recovery
Rock, Hard Rock, Blues Rock | Frontiers Records #FRCD840 | Unofficial Release

The largely unacknowledged open secret lying at the heart of Rick Springfield's career is how, at his core, he's a serious artist. His gift for power pop and his spell as a television actor obscured this essential fact, but on the many albums he's made since his popular peak during the early '80s, he regularly returns to sober subjects, which means most of his fans may not be surprised that he spends the bulk of his 2018 album The Snake King exploring depression, faith, political confusion, and other weighty ideas. Even so, he hits these subjects hard throughout The Snake King, his lyrical explicitness finding a match in a shift his music: He's moved from arena rock toward heavy blues and folk-rock anthems straight from Bob Dylan in 1965. Given that he's a fine guitarist and craftsman, this isn't quite as startling in sound as it is on paper. Springfield always danced at the edge of guitar heroics – even Working Class Dog, his power pop classic, is filled with muscled six-strings – but he's never taken as much time to shred as he does here. He holds his own as a soloist, but what commands attention on The Snake King is his rococo lyrics, how he chases after Dylan on the opening and closing numbers "Land of the Blind" and "Orpheus in the Underworld" (especially the latter, which is his own spin on "Desolation Row"), while spending time cocking a snook at convention on "Santa Is an Anagram" and "Jesus Was an Atheist." These song titles alone suggest Springfield is trying a little bit too hard on The Snake King, and he is – he's overcompensating by overloading the album with verses and volume – but that's also its charm. He's intent on delivering something bracing, loud and new, and on that front, he not only succeeds but winds up with something idiosyncratic and compelling.
~ Stephen Thomas Erlewine, All Music
Rick Springfield - The Snake King (2018)


***************

Rick Springfield - The Snake King (2018)

Track List:

01. In The Land Of The Blind [4:51]
02. The Devil That You Know [3:03]
03. Little Demon [5:22]
04. Judas Tree [3:21]
05. Esus Was An Atheist [3:14]
06. The Snake King [3:46]
07. God Don’t Care [4:59]
08. The Voodoo House [4:46]
09. Suicide Manifesto [2:19]
10. Blues For The Disillusioned [5:40]
11. Santa Is An Anagram [2:05]
12. Orpheus In The Underworld [14:11]

Exact Audio Copy V1.1 from 23. June 2015

EAC extraction logfile from 10. February 2018, 10:34

Rick Springfield / The Snake King (FRCD840)

Used drive : TSSTcorpDVDWBD SH-B123L Adapter: 0 ID: 4

Read mode : Secure
Utilize accurate stream : Yes
Defeat audio cache : Yes
Make use of C2 pointers : No

Read offset correction : 6
Overread into Lead-In and Lead-Out : No
Fill up missing offset samples with silence : Yes
Delete leading and trailing silent blocks : No
Null samples used in CRC calculations : Yes
Used interface : Installed external ASPI interface

Used output format : User Defined Encoder
Selected bitrate : 768 kBit/s
Quality : High
Add ID3 tag : No
Command line compressor : C:\Program Files (x86)\Exact Audio Copy\FLAC\FLAC.EXE
Additional command line options : -6 -V -T "ARTIST=%artist%" -T "TITLE=%title%" -T "ALBUM=%albumtitle%" -T "DATE=%year%" -T "TRACKNUMBER=%tracknr%" -T "GENRE=%genre%" -T "COMMENT=%comment%" -T "BAND=%albuminterpret%" -T "ALBUMARTIST=%albuminterpret%" -T "COMPOSER=%composer%" %haslyrics%–tag-from-file=LYRICS="%lyricsfile%"%haslyrics% -T "DISCNUMBER=%cdnumber%" -T "TOTALDISCS=%totalcds%" -T "TOTALTRACKS=%numtracks%" %hascover%–picture="%coverfile%"%hascover% %source% -o %dest%


TOC of the extracted CD

Track | Start | Length | Start sector | End sector
––––––––––––––––––––––––––––-
1 | 0:00.00 | 4:51.09 | 0 | 21833
2 | 4:51.09 | 3:02.49 | 21834 | 35532
3 | 7:53.58 | 5:21.49 | 35533 | 59656
4 | 13:15.32 | 3:21.18 | 59657 | 74749
5 | 16:36.50 | 3:14.05 | 74750 | 89304
6 | 19:50.55 | 3:46.28 | 89305 | 106282
7 | 23:37.08 | 4:59.29 | 106283 | 128736
8 | 28:36.37 | 4:45.38 | 128737 | 150149
9 | 33:22.00 | 2:18.54 | 150150 | 160553
10 | 35:40.54 | 5:40.07 | 160554 | 186060
11 | 41:20.61 | 2:05.10 | 186061 | 195445
12 | 43:25.71 | 14:11.19 | 195446 | 259289


Range status and errors

Selected range

Filename E:\MUSIC\Rick Springfield - The Snake King (FRCD840).wav

Peak level 100.0 %
Extraction speed 3.7 X
Range quality 100.0 %
Test CRC 57B704A0
Copy CRC 57B704A0
Copy OK

No errors occurred


AccurateRip summary

Track 1 not present in database
Track 2 not present in database
Track 3 not present in database
Track 4 not present in database
Track 5 not present in database
Track 6 not present in database
Track 7 not present in database
Track 8 not present in database
Track 9 not present in database
Track 10 not present in database
Track 11 not present in database
Track 12 not present in database

None of the tracks are present in the AccurateRip database

End of status report

==== Log checksum 475626D12E0A641EDF23351AD9AC54E9733C0DD3AE23287BEF60523815902AEA ====

foobar2000 1.3.16 / Dynamic Range Meter 1.1.1
log date: 2018-02-16 13:00:08

––––––––––––––––––––––––––––––––––––––––
Analyzed: Rick Springfield / The Snake King (FRCD840)
––––––––––––––––––––––––––––––––––––––––

DR Peak RMS Duration Track
––––––––––––––––––––––––––––––––––––––––
DR5 0.00 dB -5.91 dB 4:51 01-In The Land Of The Blind
DR5 -0.01 dB -5.35 dB 3:03 02-The Devil That You Know
DR5 0.00 dB -6.97 dB 5:22 03-Little Demon
DR5 0.00 dB -5.91 dB 3:21 04-Judas Tree
DR5 0.00 dB -6.23 dB 3:14 05-Esus Was An Atheist
DR6 0.00 dB -6.73 dB 3:46 06-The Snake King
DR5 0.00 dB -5.88 dB 4:59 07-God Don’t Care
DR5 0.00 dB -5.88 dB 4:46 08-The Voodoo House
DR5 0.00 dB -5.77 dB 2:19 09-Suicide Manifesto
DR6 0.00 dB -6.64 dB 5:40 10-Blues For The Disillusioned
DR5 0.00 dB -6.00 dB 2:05 11-Santa Is An Anagram
DR6 0.00 dB -6.85 dB 14:11 12-Orpheus In The Underworld
––––––––––––––––––––––––––––––––––––––––

Number of tracks: 12
Official DR value: DR5

Samplerate: 44100 Hz
Channels: 2
Bits per sample: 16
Bitrate: 1088 kbps
Codec: FLAC
================================================================================

[CUETools log; Date: 16.02.2018 13:18:11; Version: 2.1.5]
[CTDB TOCID: iPpe80KfiAicthB6K7u2Wsry05w-] found.
Track | CTDB Status
1 | (10/10) Accurately ripped
2 | (10/10) Accurately ripped
3 | (10/10) Accurately ripped
4 | (10/10) Accurately ripped
5 | (10/10) Accurately ripped
6 | (10/10) Accurately ripped
7 | (10/10) Accurately ripped
8 | (10/10) Accurately ripped
9 | (10/10) Accurately ripped
10 | (10/10) Accurately ripped
11 | (10/10) Accurately ripped
12 | (10/10) Accurately ripped
[AccurateRip ID: 001664d0-00d27324-ac0d810c] disk not present in database.

Track Peak [ CRC32 ] [W/O NULL] [ LOG ]
– 100,0 [57B704A0] [B06CD800] CRC32
01 100,0 [08FA9442] [C162F4BA]
02 99,8 [7CE6F8A7] [243339C1]
03 100,0 [F16F742D] [38666516]
04 100,0 [26A9F2EF] [714DC128]
05 100,0 [E9963878] [C60248FE]
06 100,0 [63F1A82D] [60BA62AF]
07 100,0 [5A859FAE] [D91925DB]
08 100,0 [4990E05A] [6183C0C9]
09 100,0 [1F3F9A64] [1C13590F]
10 100,0 [437263D7] [6CEB395D]
11 100,0 [F0D1E3FA] [3A1D2503]
12 100,0 [351EF3DD] [E9C584B7]

Rick Springfield - The Snake King (2018)

All thanks go to HaRD

>>> My Blog <<<