Subcategories

Rick Wakeman And The English Rock Ensemble - Out There (2003)

Posted By: popsakov
Rick Wakeman And The English Rock Ensemble - Out There (2003)

Rick Wakeman And The English Rock Ensemble - Out There (2003)
EAC Rip | FLAC (Img) + Cue + Log ~ 369 Mb | MP3 CBR320 ~ 123 Mb
Full Scans ~ 74 Mb | 00:51:00 | RAR 5% Recovery
Progressive Rock | Music Fusion #MFW 6093X

Rick Wakeman spent much of the '80s and '90s recording instrumental albums that veered toward either classical or ambient, so 2003's Out There comes as a bit of a shock: it's an honest to goodness revival of the full-throttle prog rock Wakeman pursued on his solo albums in the '70s. A large part of this is due to his decision to form a full-fledged supporting rock band. Called the New English Rock Ensemble, they're a quintet led by Wakeman and featuring Damian Wilson on vocals, Ant Glynne on guitar, Lee Pomeroy on bass, and Tony Fernandez on drums and percussion. They're a powerful and skilled outfit, able to follow Wakeman's shifting tempos and moods with dexterity without ever losing sight of their forceful rhythmic core, which keeps this rock, not new age. Wilson is a similarly versatile vocalist, as convincing on the surging "Out There" as he is on the contemplative "To Be with You." But the real key to the album's success is Wakeman, who not only reconnects with his classic '70s sound, but sounds reinvigorated as a composer here, as he explores the philosophical questions about where exactly does music come from and what does it mean. In theme and sound it is a bit of a throwback to his 1976 album No Earthly Connection, which Wakeman readily admits in his thorough liner notes, but this doesn't sound like a self-conscious revival, nor does it sound as if it were preserved in amber. It may sound like classic Wakeman on the surface, but it is fresh in spirit, which makes Out There the Rick Wakeman album to get for fans who got off the train in the late '70s and wanted the keyboardist to return to rock.

~ Stephen Thomas Erlewine, All Music

***************

Rick Wakeman And The English Rock Ensemble - Out There (2003)

Rick Wakeman And The English Rock Ensemble - Out There (2003)

Track List:

01. Out There [13:12]
02. The Mission [06:30]
03. To Be with You [06:24]
04. Universe of Sound [07:44]
05. Music of Love [06:48]
06. The Cathedral of the Sky [10:26]

Personnel:
Rick Wakeman - Keyboards
The English Chamber Choir - Choir
Fraser Thorneycroft-Smith - Guitars
Guy Protheroe - Conductor
Tony Fernandez - Drums & Percussion
Damian Wilson - Vocals
Ant Glynne - Guitars
Lee Pomeroy - Bass

Exact Audio Copy V1.0 beta 3 from 29. August 2011

EAC extraction logfile from 21. May 2015, 7:18

Rick Wakeman / Out There

Used drive : PIONEER DVD-RW DVR-221L Adapter: 2 ID: 0

Read mode : Secure
Utilize accurate stream : Yes
Defeat audio cache : Yes
Make use of C2 pointers : No

Read offset correction : 6
Overread into Lead-In and Lead-Out : No
Fill up missing offset samples with silence : Yes
Delete leading and trailing silent blocks : No
Null samples used in CRC calculations : Yes
Used interface : Native Win32 interface for Win NT & 2000

Used output format : Internal WAV Routines
Sample format : 44.100 Hz; 16 Bit; Stereo


TOC of the extracted CD

Track | Start | Length | Start sector | End sector
––––––––––––––––––––––––––––-
1 | 0:00.00 | 13:11.01 | 0 | 59325
2 | 13:11.01 | 6:29.04 | 59326 | 88504
3 | 19:40.05 | 6:23.07 | 88505 | 117236
4 | 26:03.12 | 7:43.29 | 117237 | 151990
5 | 33:46.41 | 6:47.65 | 151991 | 182580
6 | 40:34.31 | 10:25.25 | 182581 | 229480


Range status and errors

Selected range

Filename D:\Свои Рипы…\Rick Wakeman - Out There.wav

Peak level 100.0 %
Extraction speed 2.9 X
Range quality 99.9 %
Copy CRC 52D08601
Copy OK

No errors occurred


AccurateRip summary

Track 1 accurately ripped (confidence 2) [C4C96607] (AR v1)
Track 2 accurately ripped (confidence 2) [27600764] (AR v1)
Track 3 accurately ripped (confidence 2) [8547AA03] (AR v1)
Track 4 accurately ripped (confidence 2) [0F10FCC0] (AR v1)
Track 5 accurately ripped (confidence 2) [E7B8210E] (AR v1)
Track 6 accurately ripped (confidence 2) [CBF22A70] (AR v1)

All tracks accurately ripped

End of status report

[CUETools log; Date: 16.08.2016 0:09:46; Version: 2.1.5]
[CTDB TOCID: zN4OvwgcUp_dc7rkUKFl_0sN1Yc-] found.
Track | CTDB Status
1 | (20/20) Accurately ripped
2 | (20/20) Accurately ripped
3 | (20/20) Accurately ripped
4 | (20/20) Accurately ripped
5 | (20/20) Accurately ripped
6 | (19/20) Accurately ripped
[AccurateRip ID: 000ca6c1-0041d72c-4d0bf306] found.
Track [ CRC | V2 ] Status
01 [c4c96607|78593846] (02+00/31) Accurately ripped
02 [27600764|87f37951] (02+00/31) Accurately ripped
03 [8547aa03|77a70481] (02+00/31) Accurately ripped
04 [0f10fcc0|e0fac1ab] (02+00/31) Accurately ripped
05 [e7b8210e|6b7a82d5] (02+00/31) Accurately ripped
06 [cbf22a70|deee954d] (02+00/31) Accurately ripped
Offsetted by 12:
01 [5b3eca61] (04/31) Accurately ripped
02 [c80690f2] (04/31) Accurately ripped
03 [190dfaf7] (04/31) Accurately ripped
04 [82698ebe] (04/31) Accurately ripped
05 [44e55e04] (04/31) Accurately ripped
06 [d43b8124] (04/31) Accurately ripped
Offsetted by 676:
01 [dcfaead4] (08/31) Accurately ripped
02 [fc9c6867] (08/31) Accurately ripped
03 [09eb7a5f] (08/31) Accurately ripped
04 [1098d6b6] (08/31) Accurately ripped
05 [cdf06f64] (08/31) Accurately ripped
06 [f415940c] (08/31) Accurately ripped
Offsetted by 658:
01 [db399f26] (00/31) No match (V2 was not tested)
02 [9690e651] (00/31) No match (V2 was not tested)
03 [2c4200f1] (00/31) No match (V2 was not tested)
04 [21f24b80] (00/31) No match (V2 was not tested)
05 [c81ab210] (00/31) No match (V2 was not tested)
06 [67a791fe] (00/31) No match (V2 was not tested)

Track Peak [ CRC32 ] [W/O NULL] [ LOG ]
– 100,0 [52D08601] [6B94C4D1] CRC32
01 100,0 [9F64DAC2] [A5AD118E]
02 100,0 [16B094B4] [616DE8B7]
03 90,7 [4611873F] [00C80AE9]
04 100,0 [69B3CF5B] [07BC095C]
05 100,0 [5196350F] [60AA8A9F]
06 100,0 [12F2F4F9] [89CCCFF0]

Rick Wakeman And The English Rock Ensemble - Out There (2003)


All thanks go to the original ripper(s) …

>>> Rick Wakeman in my Blog <<<

DOWNLOAD: