Subcategories

Rick Wakeman: Collection (1973 - 1981) [Vinyl Rip 16/44 & mp3-320]

Posted By: v3122
Rick Wakeman: Collection (1973 - 1981) [Vinyl Rip 16/44 & mp3-320]

Rick Wakeman: Collection (1973 - 1981)
8 x Vinyl Rip 16/44 | Flac(Image + Cue) > 1973 Mb
MP3 CBR 320Kbps > 850 Mb | Artwork(jpg) > 47 Mb
Progressive Rock

Richard Christopher "Rick" Wakeman (born 18 May 1949) is an English keyboardist, songwriter, television and radio presenter, and author. He is best known for being in the progressive rock band Yes across five tenures between 1971 and 2004 and for his solo albums released in the 1970s. He is a current member of Yes Featuring Jon Anderson, Trevor Rabin and Rick Wakeman.

Born and raised in West London, Wakeman intended to be a concert pianist but quit his studies at the Royal College of Music in 1969 to become a full time session musician. His early sessions included playing on "Space Oddity", among others, for David Bowie and songs by Junior's Eyes, T. Rex, Elton John, and Cat Stevens. Wakeman became a member of Strawbs in 1970 before joining Yes a year later, playing on some of their most successful albums across two stints until 1980. Wakeman began his solo career in 1973; his most successful albums are his first three: The Six Wives of Henry VIII (1973), Journey to the Centre of the Earth (1974), and The Myths and Legends of King Arthur and the Knights of the Round Table (1975), all concept albums. He formed his rock band, The English Rock Ensemble, in 1974, with which he continues to perform, and scored his first film, Lisztomania (1975).

Wakeman pursued solo projects in the 1980s that varied in levels of success; his most successful album was 1984, released in 1981, which was followed by his minor pop hit single, "Glory Boys", from Silent Nights (1985). He hosted the television show Gastank, and recorded his first of several New-age, ambient, and Christian music albums with Country Airs (1986) and The Gospels (1987), respectively. From 1988 to 1990, he was a member of Anderson Bruford Wakeman Howe which led to his third Yes stint until 1992. He returned twice more between 1995 and 2004, during which he completed several more solo projects and tours, including his most significant of the decade, Return to the Centre of the Earth (1999). Wakeman continues to record albums and perform concerts worldwide in various capacities; his most recent album is Piano Portraits (2017).

Wakeman's discography includes over 90 solo albums that range from several musical styles. He has made many television and radio appearances; in recent years he became known for his contributions to the BBC comedy series Grumpy Old Men and his radio show on Planet Rock that aired from 2005 to 2010. Wakeman has written three books; an autobiography and two memoirs. In 2017, Wakeman was inducted into the Rock and Roll Hall of Fame as a member of Yes…

~ wiki
Rick Wakeman: Collection (1973 - 1981) [Vinyl Rip 16/44 & mp3-320]


Rick Wakeman: Collection (1973 - 1981):

Rick Wakeman: Collection (1973 - 1981) [Vinyl Rip 16/44 & mp3-320]

Tracklist VNL01 - 1973 The Six Wives of Henry VIII:
US, A&M Records, SP-4361

Side 1
1."Catherine of Aragon" 3:44
2."Anne of Cleves" 7:53
3."Catherine Howard" 6:35

Side 2
1."Jane Seymour" 4:46
2."Anne Boleyn 'The Day Thou Gavest Lord Hath Ended'" 6:32
3."Catherine Parr" 7:06

foobar2000 1.2.9 / Dynamic Range Meter 1.1.1
log date: 2017-12-06 10:22:21

––––––––––––––––––––––––––––––––––––––––
Analyzed: Rick Wakeman / The Six Wives Of Henry VIII
––––––––––––––––––––––––––––––––––––––––

DR Peak RMS Duration Track
––––––––––––––––––––––––––––––––––––––––
DR12 -1.81 dB -19.71 dB 3:46 01-Catherine of Aragon
DR13 -2.66 dB -18.42 dB 7:55 02-Anne of Cleves
DR13 -2.62 dB -19.63 dB 6:43 03-Catherine Howard
DR10 -4.16 dB -19.78 dB 4:52 04-Jane Seymour
DR12 -2.21 dB -19.12 dB 6:37 05-Anne Boleyn
DR12 -1.60 dB -17.53 dB 7:05 06-Catherine Parr
––––––––––––––––––––––––––––––––––––––––

Number of tracks: 6
Official DR value: DR12

Samplerate: 44100 Hz
Channels: 2
Bits per sample: 16
Bitrate: 713 kbps
Codec: FLAC
================================================================================




Original ripper: AlBeOne
Original format: 24/192
Vinyl Condition: Ex
Direct Drive Turntable: ClearAudio
Cartridge: Aurum Alpha Wood mkII
Amplifier: Musical Fidelity V LPS
ADC: E-mu 1212

Downsampled to 16/44

Rick Wakeman: Collection (1973 - 1981) [Vinyl Rip 16/44 & mp3-320]

Tracklist VNL02 - 1974 Journey to the Centre of the Earth:
US, A&M Records, SP-3621

Side 1
"The Journey/Recollection" 21:20

Side 2
"The Battle/The Forest" 18:57

foobar2000 1.2.9 / Dynamic Range Meter 1.1.1
log date: 2017-12-06 10:22:44

––––––––––––––––––––––––––––––––––––––––
Analyzed: Rick Wakeman / Journey To The Centre Of The Earth
––––––––––––––––––––––––––––––––––––––––

DR Peak RMS Duration Track
––––––––––––––––––––––––––––––––––––––––
DR12 -3.87 dB -20.44 dB 20:37 01-The Journey/Recollection
DR13 -2.04 dB -21.31 dB 18:58 02-The Battle/The Forest
––––––––––––––––––––––––––––––––––––––––

Number of tracks: 2
Official DR value: DR13

Samplerate: 44100 Hz
Channels: 2
Bits per sample: 16
Bitrate: 729 kbps
Codec: FLAC
================================================================================




Original ripper: AlBeOne
Original format: 24/192
Vinyl Condition: NrMint
Direct Drive Turntable: ClearAudio
Cartridge: Aurum Alpha Wood mkII
Amplifier: Musical Fidelity V LPS
ADC: E-mu 1212

Downsampled to 16/44

Rick Wakeman: Collection (1973 - 1981) [Vinyl Rip 16/44 & mp3-320]

Tracklist VNL03 - 1975 The Myths and Legends of King Arthur:
US, A&M Records, SP-4515

Side 1
"Arthur" 7:26
"Lady of the Lake" 0:45
"Guinevere" 6:45
"Sir Lancelot and the Black Knight" 5:20

Side 2
"Merlin the Magician" 8:51
"Sir Galahad" 5:51
"The Last Battle" 9:41

foobar2000 1.2.9 / Dynamic Range Meter 1.1.1
log date: 2017-12-06 10:22:59

––––––––––––––––––––––––––––––––––––––––
Analyzed: Rick Wakeman / The Myths And Legends Of King Arthur
––––––––––––––––––––––––––––––––––––––––

DR Peak RMS Duration Track
––––––––––––––––––––––––––––––––––––––––
DR12 -4.28 dB -19.36 dB 7:30 01-Arthur
DR11 -6.49 dB -22.37 dB 0:46 02-Lady of the Lake
DR13 -4.54 dB -22.20 dB 6:48 03-Guinevere
DR12 -1.79 dB -17.47 dB 5:26 04-Sir Lancelot and the Black Knight
DR14 -1.73 dB -19.02 dB 9:36 05-Merlin the Magician
DR14 -1.29 dB -20.48 dB 5:12 06-Sir Galahad
DR14 -2.10 dB -21.46 dB 9:41 07-The Last Battle
––––––––––––––––––––––––––––––––––––––––

Number of tracks: 7
Official DR value: DR13

Samplerate: 44100 Hz
Channels: 2
Bits per sample: 16
Bitrate: 709 kbps
Codec: FLAC
================================================================================




Original ripper: AlBeOne
Original format: 24/192
Vinyl Condition: Ex
Direct Drive Turntable: ClearAudio
Cartridge: Aurum Alpha Wood mkII
Amplifier: Musical Fidelity V LPS
ADC: E-mu 1212

Downsampled to 16/44

Rick Wakeman: Collection (1973 - 1981) [Vinyl Rip 16/44 & mp3-320]

Tracklist VNL04 - 1976 No Earthly Connection:
US, A&M Records, SP-4583

Side 1
"Music Reincarnate" - 28:08
1. "The Warning" - 8:19
2. "The Maker" - 3:34
3. "The Spaceman" - 4:03
4. "The Realisation" - 4:17

Side 2
5. "The Reaper" - 7:55
"The Prisoner" - 7:02
"The Lost Cycle" - 7:03

foobar2000 1.2.9 / Dynamic Range Meter 1.1.1
log date: 2017-12-06 10:23:14

––––––––––––––––––––––––––––––––––––––––
Analyzed: Rick Wakeman / No Earthly Connection
––––––––––––––––––––––––––––––––––––––––

DR Peak RMS Duration Track
––––––––––––––––––––––––––––––––––––––––
DR13 -0.89 dB -18.68 dB 7:57 01-The Warning
DR11 -5.40 dB -21.36 dB 4:11 02-The Maker
DR13 -3.01 dB -18.85 dB 3:56 03-The Spaceman
DR13 -2.62 dB -20.32 dB 4:17 04-The Realisation
DR13 -1.58 dB -20.03 dB 8:02 05-The Reaper
DR13 -1.09 dB -18.82 dB 7:08 06-The Prisoner
DR12 -2.63 dB -19.27 dB 7:06 07-The Lost Cycle
––––––––––––––––––––––––––––––––––––––––

Number of tracks: 7
Official DR value: DR13

Samplerate: 44100 Hz
Channels: 2
Bits per sample: 16
Bitrate: 707 kbps
Codec: FLAC
================================================================================




Original ripper: AlBeOne
Original format: 24/192
Vinyl Condition: NrMint
Direct Drive Turntable: ClearAudio
Cartridge: Aurum Alpha Wood mkII
Amplifier: Musical Fidelity V LPS
ADC: E-mu 1212

Downsampled to 16/44

Rick Wakeman: Collection (1973 - 1981) [Vinyl Rip 16/44 & mp3-320]

Tracklist VNL05 - 1976 White Rock:
Germany, A&M Records, 28 333 XOT

Side 1
"White Rock"
"Searching For Gold"
"The Loser"
"The Shoot"

Side 2
"Lax'x"
"After The Ball"
"Montezuma's Revenge"
"Ice Run"

foobar2000 1.2.9 / Dynamic Range Meter 1.1.1
log date: 2017-12-06 10:23:25

––––––––––––––––––––––––––––––––––––––––
Analyzed: Rick Wakeman / White Rock
––––––––––––––––––––––––––––––––––––––––

DR Peak RMS Duration Track
––––––––––––––––––––––––––––––––––––––––
DR11 -0.88 dB -14.79 dB 3:14 01-White Rock
DR11 -3.92 dB -20.98 dB 4:22 02-Searching For Gold
DR13 -6.81 dB -24.37 dB 5:33 03-The Loser
DR12 -3.06 dB -21.75 dB 4:06 04-The Shoot
DR12 -2.23 dB -20.04 dB 4:57 05-Lax'x
DR10 -6.32 dB -21.32 dB 3:05 06-After The Ball
DR13 0.00 dB -18.05 dB 3:59 07-Montezuma's Revenge
DR13 -0.71 dB -18.70 dB 6:07 08-Ice Run
––––––––––––––––––––––––––––––––––––––––

Number of tracks: 8
Official DR value: DR12

Samplerate: 44100 Hz
Channels: 2
Bits per sample: 16
Bitrate: 640 kbps
Codec: FLAC
================================================================================




Original ripper: AlBeOne
Original format: 24/192
Vinyl Condition: Ex
Direct Drive Turntable: ClearAudio
Cartridge: Aurum Alpha Wood mkII
Amplifier: Musical Fidelity V LPS
ADC: E-mu 1212

Downsampled to 16/44

Rick Wakeman: Collection (1973 - 1981) [Vinyl Rip 16/44 & mp3-320]

Tracklist VNL06 - 1977 Rick Wakeman's Criminal Record:
US, A&M Records, SP-4660

Side one
"Statue of Justice" 6:20
"Crime of Passion" 5:46
"Chamber of Horrors" 6:40

Side two
"Birdman of Alcatraz" 4:12
"The Breathalyser" 3:51
"Judas Iscariot" 12:15

foobar2000 1.2.9 / Dynamic Range Meter 1.1.1
log date: 2017-12-06 10:23:43

––––––––––––––––––––––––––––––––––––––––
Analyzed: Rick Wakeman / Criminal Records
––––––––––––––––––––––––––––––––––––––––

DR Peak RMS Duration Track
––––––––––––––––––––––––––––––––––––––––
DR13 -0.43 dB -18.91 dB 6:24 01-Statue of Justice
DR14 -1.40 dB -20.49 dB 5:51 02-Crime of Passion
DR13 -1.77 dB -18.09 dB 6:42 03-Chamber of Horrors
DR13 -4.94 dB -22.08 dB 4:16 04-Birdman of Alcatraz
DR14 -3.71 dB -21.93 dB 3:56 05-The Breathalyser
DR11 -3.81 dB -20.23 dB 12:18 06-Judas Iscariot
––––––––––––––––––––––––––––––––––––––––

Number of tracks: 6
Official DR value: DR13

Samplerate: 44100 Hz
Channels: 2
Bits per sample: 16
Bitrate: 712 kbps
Codec: FLAC
================================================================================




Original ripper: AlBeOne
Original format: 24/192
Vinyl Condition: Mint
Direct Drive Turntable: ClearAudio
Cartridge: Aurum Alpha Wood mkII
Amplifier: Musical Fidelity V LPS
ADC: E-mu 1212

Downsampled to 16/44

Rick Wakeman: Collection (1973 - 1981) [Vinyl Rip 16/44 & mp3-320]

Tracklist VNL07 - 1979 Rhapsodies:
US, A&M Records, SP-6501

Side one
1. "Pedra de Gavea" – 4:11
2. "Front Line" – 3:42
3. "Bombay Duck" – 3:14
4. "Animal Showdown" (Yes We Have No Bananas) –
2:40 (Wakeman/Silver/Cohn)
5. "Big Ben" – 3:48

Side two
1. "Rhapsody in Blue" – 5:26 (George Gershwin;
arranged Tony Visconti)
2. "Wooly Willy Tango" – 3:24
3. "The Pulse" – 5:21
4. "Swan Lager" – 2:50 (music taken from
Tchaikovsky's "Swan Lake" and Grieg's pianoforte
"Concerto in A Minor"; arranged Rick Wakeman)

Side three
1. "March of the Gladiators" – 4:53
2. "Flacons de Neige" – 5:01
3. "The Flasher" – 5:32
4. "The Palais" – 2:23

Side four
1. "Stand-By" – 3:30
2. "Sea Horses" – 3:52
3. "Half Holiday" – 3:00
4. "Summertime" – 4:27 (George Gershwin; arranged
Rick Wakeman)
5. "Credits" - 2:39

foobar2000 1.2.9 / Dynamic Range Meter 1.1.1
log date: 2017-12-06 10:24:04

––––––––––––––––––––––––––––––––––––––––
Analyzed: Rick Wakeman / Rhapsodies (1979)
––––––––––––––––––––––––––––––––––––––––

DR Peak RMS Duration Track
––––––––––––––––––––––––––––––––––––––––
DR14 -1.90 dB -18.15 dB 4:14 01-Pedra da Gavea
DR13 -0.97 dB -16.84 dB 3:45 02-Front Line
DR13 -2.48 dB -17.96 dB 3:16 03-Bombay Duck
DR13 -0.19 dB -18.26 dB 2:40 04-Animal Showdown (Yes We Have No Bananas)
DR12 -1.71 dB -17.89 dB 3:56 05-Big Ben
DR12 -3.19 dB -17.17 dB 5:31 06-Rhapsody In Blue
DR15 -2.00 dB -19.18 dB 3:24 07-Wooly Willy Tango
DR15 -1.81 dB -19.20 dB 5:24 08-The Pulse
DR15 -1.84 dB -19.41 dB 2:46 09-Swan Lager
DR11 -2.43 dB -16.35 dB 4:56 10-March Of The Gladiators
DR14 -3.31 dB -21.15 dB 5:04 11-Flacons de Neige
DR12 -0.03 dB -17.42 dB 5:35 12-The Flasher
DR13 -9.38 dB -26.59 dB 2:18 13-The Palais
DR14 -1.53 dB -18.01 dB 3:34 14-Stand-By
DR14 -7.50 dB -24.11 dB 3:58 15-Sea Horses
DR14 -3.66 dB -20.46 dB 3:03 16-Half Holiday
DR12 -5.10 dB -22.63 dB 4:28 17-Summertime
––––––––––––––––––––––––––––––––––––––––

Number of tracks: 17
Official DR value: DR13

Samplerate: 44100 Hz
Channels: 2
Bits per sample: 16
Bitrate: 850 kbps
Codec: FLAC
================================================================================




Original ripper: AlBeOne
Original format: 24/192
Vinyl Condition: Ex
Direct Drive Turntable: ClearAudio
Cartridge: Aurum Alpha Wood mkII
Amplifier: Musical Fidelity V LPS
ADC: E-mu 1212

Downsampled to 16/44

Rick Wakeman: Collection (1973 - 1981) [Vinyl Rip 16/44 & mp3-320]

Tracklist VNL08 - 1981 1984:
UK, Charisma, CDS 4022

Side one
1. "1984 Overture / Wargames" – 10:57 (lead vocal :
Chaka Khan)
2. "Julie's Song" – 4:45 (lead vocal : Chaka Khan)
3. "Hymn" – 3:13 (lead vocal : Jon Anderson)
4. "The Room (Brainwash)" – 4:16

Side two
1. "Robot Man" – 3:55 (lead vocal : Chaka Khan &
Kenny Lynch)
2. "Sorry" – 3:18
3. "No Name" – 3:06 (lead vocal : Steve Harley)
4. "Forgotten Memories" – 2:57
5. "Proles" – 3:32 (lead vocal : Tim Rice)
6. "1984" – 6:28

foobar2000 1.2.9 / Dynamic Range Meter 1.1.1
log date: 2017-12-06 10:24:18

––––––––––––––––––––––––––––––––––––––––
Analyzed: Rick Wakeman / 1984
––––––––––––––––––––––––––––––––––––––––

DR Peak RMS Duration Track
––––––––––––––––––––––––––––––––––––––––
DR11 -2.70 dB -16.76 dB 11:01 01-1984 Overture / Wargames – (lead vocal : Chaka Khan)
DR11 -3.98 dB -19.31 dB 4:48 02-Julie's Song – (lead vocal : Chaka Khan)
DR11 -2.25 dB -17.59 dB 3:16 03-Hymn – (lead vocal : Jon Anderson)
DR14 -0.81 dB -18.97 dB 4:14 04-The Room (Brainwash)
DR13 -2.06 dB -17.21 dB 3:59 05-Robot Man – (lead vocal : Chaka Khan & Kenny Lynch)
DR12 -3.15 dB -19.76 dB 3:08 06-Sorry
DR13 -2.64 dB -18.32 dB 3:23 07-No Name – (lead vocal : Steve Harley)
DR12 -4.05 dB -19.07 dB 3:01 08-Forgotten Memories
DR13 -1.78 dB -16.82 dB 3:35 09-Proles – (lead vocal : Tim Rice)
DR13 0.00 dB -16.46 dB 6:29 10-1984
––––––––––––––––––––––––––––––––––––––––

Number of tracks: 10
Official DR value: DR12

Samplerate: 44100 Hz
Channels: 2
Bits per sample: 16
Bitrate: 790 kbps
Codec: FLAC
================================================================================




Original ripper: AlBeOne
Original format: 24/192
Vinyl Condition: NrMint
Direct Drive Turntable: ClearAudio
Cartridge: Aurum Alpha Wood mkII
Amplifier: Musical Fidelity V LPS
ADC: E-mu 1212

Downsampled to 16/44

Space & Didier Marouani: Collection (1977 - 1987) [Vinyl Rip 16/44 & mp3-320]
Rod Stewart: Collection (1969 - 1988) [Vinyl Rip 16/44 & mp3-320]
Kraftwerk: Collection (1974 - 1991) [Vinyl Rip 16/44 & mp3-320]



Jethro Tull - 20 Years Of J. T. The Definitive Collection (1988) [Vinyl Rip 16/44 & mp3-320]
Testament: Discography (1987-2016) [Vinyl Rip 16/44 & mp3-320]
Roger Waters: Vinyl Collection (1970 - 1992) [Vinyl Rip 16/44 & mp3-320]
Rare Earth: Collection (1969 - 1978) [Vinyl Rip 16/44 & mp3-320]
David Gilmour - Rattle That Lock (2015) [Vinyl Rip 16/44 & mp3-320]
Tarja: Collection (2007 - 2016) [Vinyl Rip 16/44 & mp3-320]
Depeche Mode: Collection (1981 - 2013) [Vinyl Rip 16/44 & mp3-320]
Pink Floyd: Remastered Collection (1967 - 2016) [Vinyl Rip 16/44 & mp3-320]
Sade: Discography (1984 - 2010) [Vinyl Rip 16/44 & MP3-320]
Deep Purple: Collection (1968 - 2017) [Vinyl Rip 16/44 & mp3-320]
Queen: Collection (1973 - 1995) [Vinyl Rip 16/44 & MP3-320]
The Cars: Collection (1978 - 1987) [Vinyl Rip 16/44 & mp3-320]
Metallica: Discography (1983 - 2016) [Vinyl Rip 16/44 & mp3-320]
Bon Jovi - The Albums (2017) [Vinyl Rip 16/44 & mp3-320, Limited Edition Box set]
The Doors: Collection (1967 - 1971) [Vinyl Rip 16/44 & mp3-320]
Black Sabbath: Collection (1970 - 2013) [Vinyl Rip 16/44 & mp3-320]
The Beatles: Discography (1963 - 1988) [Vinyl Rip 16/44 & mp3-320]
Joe Cocker: Collection (1969 - 1991) [Vinyl Rip 16/44 & mp3-320]
Frank Zappa: Collection (1969 - 1981) [Vinyl Rip 16/44 & mp3-320]
Ten Years After: Collection (1967 - 1974) [Vinyl Rip 16/44 & mp3-320]
Dire Straits: Discography (1978 - 1991) [Vinyl Rip 16/44 & mp3-320]
Bonnie Tyler: Collection (1977 - 1986) [Vinyl Rip 16/44 & mp3-320]
The Beatles: Stereo Vinyl Box Set (2012) [Vinyl Rip 16/44 & mp3-320]
Wolfgang Amadeus Mozart - Die Violin Konzerte (1968) [Vinyl Rip 16/44 & mp3-320]
Eagles - The Studio Albums 1972-1979 (2013) [Vinyl Rip 16/44 & mp3-320]
Pink Floyd: Discography (1967 - 2014) [Vinyl Rip 16/44 & mp3-320]
Led Zeppelin: Discography (1969 - 1982) [Vinyl Rip 16/44 & mp3-320]
Manowar: Collection (1982 - 2012) [Vinyl Rip 16/44 & mp3-320]
A-HA: Collection (1985-2015) [Vinyl Rip 16/44 & mp3-320]
Decca, Wiener Philharmoniker - 6 Classic Analogue LPs (2014) [Vinyl Rip 16/44]
Beethoven - Chicago Symphony Orchestra / Sir Georg Solti ‎– The Nine Symphonies (1975) [Vinyl Rip 16/44 & mp3-320]
Scorpions: Collection (1974 - 2015) [Vinyl Rip 16/44 & mp3-320]
Pink Floyd - Echoes: The Best Of Pink Floyd (2001) [Vinyl Rip 16/44]
Alice Cooper - Paranormal (2017) [Vinyl Rip 16/44 & mp3-320]
Manfred Mann's Earth Band: Collection (1967 - 2014) [Vinyl Rip 16/44 & mp3-320]
Rainbow: Discography (1975 - 1986) [Vinyl Rip 16/44 & mp3-320]
Amanda Lear: Collection (1978 - 1986) [Vinyl Rip 16/44 & mp3-320]


Rick Wakeman or Rick Wakeman in my Blog

Download Rick Wakeman: Collection (1973 - 1981):