Subcategories

Ringo Starr - VH1 Storytellers (1998)

Posted By: v3122
Ringo Starr - VH1 Storytellers (1998)

Ringo Starr - VH1 Storytellers (1998)
EAC | Flac(Image) + Cue + Log & MP3 CBR 320Kbps
Mercury 314 538 118-2 | ~ 341 or 123 Mb | Scans(jpg) -> 19 Mb
Classic Rock

Just as MTV's Unplugged series started out as a great idea – get musicians to reimagine their material in stripped-down arrangements – then was reduced by the record business to a gimmick for a new kind of live album, which is to say, yet another way to re-sell the same material, VH1's Storytellers series has quickly traced the same decline. After all, not everybody is as eloquent, or as well-prepared, as Ray Davies, who did the first show. And as any music journalist can tell you, a musician's idea of a great story about how he came to write a song may not be anybody else's. But the format would seem perfect for bon vivant Ringo Starr, and even if he has been as guilty of padding his catalog as any veteran, he does tell short, entertaining anecdotes about the collection of Beatles favorites and solo hits included (most of which haven't been circulated widely before), which makes it forgivable that he also sneaks in four Beatlesque songs from his recently released Vertical Man album. His backup band, the Roundheads, is actually more supportive than the various editions of the All-Starr Band he used to tour with, and it's good to have a Ringo Starr live album with so much Ringo on it.

by William Ruhlmann, allmusic
Ringo Starr - VH1 Storytellers (1998):

Ringo Starr - VH1 Storytellers (1998)

Tracklist:

01. With A Little Help From My Friends 4:18
02. It Don't Come Easy 3:18
03. I Was Walkin' 4:21
04. Don't Pass Me By 5:40
05. Back Off Boogaloo 3:40
06. King Of Broken Hearts 7:43
07. Octopus's Garden 2:51
08. Photograph 4:10
09. La De Da 5:04
10. What In The … World 5:31
11. Love Me Do 3:42
12. With A Little Help From My Friends (Reprise) 1:20
13. I've Got Blisters… 0:16
14. The End 0:05

Exact Audio Copy V1.2 from 12. August 2016

EAC extraction logfile from 30. March 2017, 18:44

Ringo Starr / VH1 Storytellers

Used drive : ASUS SDRW-08D1S-U Adapter: 1 ID: 2

Read mode : Secure
Utilize accurate stream : Yes
Defeat audio cache : Yes
Make use of C2 pointers : No

Read offset correction : 667
Overread into Lead-In and Lead-Out : No
Fill up missing offset samples with silence : Yes
Delete leading and trailing silent blocks : No
Null samples used in CRC calculations : Yes
Used interface : Native Win32 interface for Win NT & 2000

Used output format : User Defined Encoder
Selected bitrate : 128 kBit/s
Quality : High
Add ID3 tag : No
Command line compressor : C:\Program Files (x86)\Exact Audio Copy\Flac\flac.exe
Additional command line options : -V -8 -T "Date=%year%" -T "Genre=%genre%" %source%


TOC of the extracted CD

Track | Start | Length | Start sector | End sector
––––––––––––––––––––––––––––-
1 | 0:00.32 | 4:18.08 | 32 | 19389
2 | 4:18.40 | 3:17.72 | 19390 | 34236
3 | 7:36.37 | 4:20.65 | 34237 | 53801
4 | 11:57.27 | 5:39.68 | 53802 | 79294
5 | 17:37.20 | 3:40.20 | 79295 | 95814
6 | 21:17.40 | 7:42.40 | 95815 | 130504
7 | 29:00.05 | 2:51.02 | 130505 | 143331
8 | 31:51.07 | 4:10.05 | 143332 | 162086
9 | 36:01.12 | 5:04.23 | 162087 | 184909
10 | 41:05.35 | 5:31.22 | 184910 | 209756
11 | 46:36.57 | 3:41.65 | 209757 | 226396
12 | 50:18.47 | 1:19.53 | 226397 | 232374
13 | 51:38.25 | 0:15.65 | 232375 | 233564
14 | 51:54.15 | 0:04.67 | 233565 | 233931


Range status and errors

Selected range

Filename C:\Users\Олег\Desktop\VH1 Storytellers\Ringo Starr - VH1 Storytellers.wav

Peak level 99.8 %
Extraction speed 3.9 X
Range quality 100.0 %
Test CRC 82FF271C
Copy CRC 82FF271C
Copy OK

No errors occurred


AccurateRip summary

Track 1 accurately ripped (confidence 13) [004ED621] (AR v2)
Track 2 accurately ripped (confidence 13) [7FF5F742] (AR v2)
Track 3 accurately ripped (confidence 13) [6FCD5074] (AR v2)
Track 4 accurately ripped (confidence 13) [85CC39FB] (AR v2)
Track 5 accurately ripped (confidence 13) [BA405EB4] (AR v2)
Track 6 accurately ripped (confidence 13) [050C5F00] (AR v2)
Track 7 accurately ripped (confidence 13) [4F09AC1E] (AR v2)
Track 8 accurately ripped (confidence 13) [253AE8FF] (AR v2)
Track 9 accurately ripped (confidence 13) [FED4B230] (AR v2)
Track 10 accurately ripped (confidence 13) [DA5A6A96] (AR v2)
Track 11 accurately ripped (confidence 13) [E0F4A6D4] (AR v2)
Track 12 accurately ripped (confidence 13) [F38EC843] (AR v2)
Track 13 accurately ripped (confidence 13) [9012E097] (AR v2)
Track 14 accurately ripped (confidence 9) [B3BF2C4A] (AR v2)

All tracks accurately ripped

End of status report

–– CUETools DB Plugin V2.1.6

[CTDB TOCID: MxsFAbl8qPb86MOMtcQnU10M_LQ-] found
Submit result: MxsFAbl8qPb86MOMtcQnU10M_LQ- has been confirmed
Track | CTDB Status
1 | (17/17) Accurately ripped
2 | (17/17) Accurately ripped
3 | (17/17) Accurately ripped
4 | (17/17) Accurately ripped
5 | (17/17) Accurately ripped
6 | (17/17) Accurately ripped
7 | (17/17) Accurately ripped
8 | (17/17) Accurately ripped
9 | (17/17) Accurately ripped
10 | (17/17) Accurately ripped
11 | (17/17) Accurately ripped
12 | (17/17) Accurately ripped
13 | (17/17) Accurately ripped
14 | (17/17) Accurately ripped


==== Log checksum 5ACAFE01C3E94CA3C57A3A28C7D1239AA2DD0D30477FBF5DAFEE6A191D41B507 ====

foobar2000 1.2.9 / Dynamic Range Meter 1.1.1
log date: 2017-06-13 12:51:58

––––––––––––––––––––––––––––––––––––––––
Analyzed: Ringo Starr / VH1 Storytellers
––––––––––––––––––––––––––––––––––––––––

DR Peak RMS Duration Track
––––––––––––––––––––––––––––––––––––––––
DR11 -0.01 dB -13.29 dB 4:18 01-With A Little Help From My Friends
DR9 -0.01 dB -11.14 dB 3:18 02-It Don't Come Easy
DR10 -0.01 dB -12.80 dB 4:21 03-I Was Walkin'
DR10 -0.18 dB -13.65 dB 5:40 04-Don't Pass Me By
DR9 -0.10 dB -10.08 dB 3:40 05-Back Off Boogaloo
DR9 -0.01 dB -13.01 dB 7:43 06-King Of Broken Hearts
DR10 -0.01 dB -11.52 dB 2:51 07-Octopus's Garden
DR10 -0.01 dB -11.23 dB 4:10 08-Photograph
DR10 -0.01 dB -12.02 dB 5:04 09-La De Da
DR10 -0.01 dB -13.34 dB 5:31 10-What In The … World
DR9 -0.01 dB -10.20 dB 3:42 11-Love Me Do
DR10 -0.01 dB -12.16 dB 1:20 12-With A Little Help From My Friends (Reprise)
DR8 -0.01 dB -17.67 dB 0:16 13-I've Got Blisters…
DR17 -32.60 dB -50.06 dB 0:05 14-The End
––––––––––––––––––––––––––––––––––––––––

Number of tracks: 14
Official DR value: DR10

Samplerate: 44100 Hz
Channels: 2
Bits per sample: 16
Bitrate: 891 kbps
Codec: FLAC

[CUETools log; Date: 13.06.2017 12:45:46; Version: 2.1.4]
Pregap length 00:00:32.
[CTDB TOCID: MxsFAbl8qPb86MOMtcQnU10M_LQ-] found.
Track | CTDB Status
1 | (19/19) Accurately ripped
2 | (19/19) Accurately ripped
3 | (19/19) Accurately ripped
4 | (19/19) Accurately ripped
5 | (19/19) Accurately ripped
6 | (19/19) Accurately ripped
7 | (19/19) Accurately ripped
8 | (19/19) Accurately ripped
9 | (19/19) Accurately ripped
10 | (19/19) Accurately ripped
11 | (19/19) Accurately ripped
12 | (19/19) Accurately ripped
13 | (19/19) Accurately ripped
14 | (19/19) Accurately ripped
[AccurateRip ID: 001f1e87-01485e9a-b70c2f0e] found.
Track [ CRC | V2 ] Status
01 [5cb59d75|004ed621] (11+13/35) Accurately ripped
02 [40b8597c|7ff5f742] (13+13/35) Accurately ripped
03 [18db28d8|6fcd5074] (13+13/35) Accurately ripped
04 [0c9f7102|85cc39fb] (12+13/34) Accurately ripped
05 [37814100|ba405eb4] (12+13/34) Accurately ripped
06 [61981eaa|050c5f00] (12+13/34) Accurately ripped
07 [9dd22fa7|4f09ac1e] (13+13/35) Accurately ripped
08 [49c51b86|253ae8ff] (13+13/35) Accurately ripped
09 [59d2a71d|fed4b230] (13+13/35) Accurately ripped
10 [5f6aaf98|da5a6a96] (13+13/35) Accurately ripped
11 [bae45a47|e0f4a6d4] (13+13/34) Accurately ripped
12 [54f73f17|f38ec843] (11+13/35) Accurately ripped
13 [8c693388|9012e097] (11+13/35) Accurately ripped
14 [105d58bf|b3bf2c4a] (04+09/15) Accurately ripped
Offsetted by 1038:
01 [8e28ad75] (04/35) Accurately ripped
02 [1e548d8e] (04/35) Accurately ripped
03 [2ee1d338] (04/35) Accurately ripped
04 [96e1b4d9] (04/34) Accurately ripped
05 [6f96eaf1] (04/34) Accurately ripped
06 [3e3b4744] (04/34) Accurately ripped
07 [b0cf7ca6] (04/35) Accurately ripped
08 [3989a477] (04/35) Accurately ripped
09 [b7275dbc] (04/35) Accurately ripped
10 [36b0f514] (04/35) Accurately ripped
11 [a64ef095] (03/34) Accurately ripped
12 [1985d937] (04/35) Accurately ripped
13 [f83d0a91] (04/35) Accurately ripped
14 [fe57e0ea] (02/15) Accurately ripped
Offsetted by -681:
01 [5d10bc1f] (02/35) Accurately ripped
02 [2a465624] (02/35) Accurately ripped
03 [fb89544f] (02/35) Accurately ripped
04 [5c635c3c] (02/34) Accurately ripped
05 [5bfe4881] (02/34) Accurately ripped
06 [9047ed03] (02/34) Accurately ripped
07 [1e405b22] (02/35) Accurately ripped
08 [d821f900] (02/35) Accurately ripped
09 [b143e6b1] (02/35) Accurately ripped
10 [9aa92790] (02/35) Accurately ripped
11 [17ecaf25] (02/34) Accurately ripped
12 [a2782dc7] (02/35) Accurately ripped
13 [05c64101] (02/35) Accurately ripped
14 [05f80700] (00/15) No match

Track Peak [ CRC32 ] [W/O NULL] [ LOG ]
– 99,8 [82FF271C] [BA232265] CRC32
01 99,8 [9ACFC71F] [DE2C58CB]
02 99,8 [54F06488] [7829AE7A]
03 99,8 [507461E8] [7499C3FA]
04 98,0 [5BB7D756] [7B3BF8DC]
05 98,8 [CD6D4B1A] [120EFCC6]
06 99,8 [43D0F170] [64D02D23]
07 99,8 [60772D11] [606CD5AB]
08 99,8 [23BDCC9B] [D3DC7FAE]
09 99,8 [304AD724] [97471F62]
10 99,8 [7B69B40E] [AF033D5F]
11 99,8 [8F6F398C] [3F47E3D6]
12 99,8 [24573462] [E103FCB3]
13 99,8 [75CD49A0] [1A628BF2]
14 2,3 [4F9BD65E] [59E56B1A]

Ringo Starr - VH1 Storytellers (1998)

All thanks go to the original releaser

Ringo Starr in my Blog

Download Ringo Starr - VH1 Storytellers (1998):