Subcategories

Ringo Starr - Give More Love (2017)

Posted By: SERTiL
Ringo Starr - Give More Love (2017)

Ringo Starr - Give More Love
Classic Rock, Pop | WEB FLAC (tracks) & front cover | 52:38 min | 350 MB
Label: Universal Music / Roccabella | Tracks: 14 | Rls.date: 2017

Give More Love, Ringo's 19th studio album features all new recordings with special guests Paul McCartney, Peter Frampton, Joe Walsh, Don Was, Richard Marx, Steve Lukather and more, plus new renditions of previously released tracks like 'Photograph' and 'You Can't Fight Lightning.'

TRACKLIST
1. Ringo Starr – We’re On the Road Again (04:20)
2. Ringo Starr – Laughable (02:57)
3. Ringo Starr – Show Me the Way (04:41)
4. Ringo Starr – Speed of Sound (03:44)
5. Ringo Starr – Standing Still (03:05)
6. Ringo Starr – King of the Kingdom (04:35)
7. Ringo Starr – Electricity (03:36)
8. Ringo Starr – So Wrong For So Long (04:02)
9. Ringo Starr – Shake It Up (03:00)
10. Ringo Starr – Give More Love (04:00)
11. Ringo Starr – Back Off Boogaloo (Re-do) (02:53)
12. Ringo Starr – Don't Pass Me By (Re-do) (03:36)
13. Ringo Starr & Alberta Cross – You Can’t Fight Lighting (Re-do) (04:20)
14. Ringo Starr & Vandaveer – Photograph (03:35)

PERFORMER: auCDtect Task Manager, ver. 1.6.0 RC1 build 1.6.0.1
Copyright © 2008-2010 y-soft. All rights reserved

ANALYZER: auCDtect: CD records authenticity detector, version 0.8.2
Copyright © 2004 Oleg Berngardt. All rights reserved.
Copyright © 2004 Alexander Djourik. All rights reserved.


FILE: 14 - Photograph.flac
Size: 22421675 Hash: 4840AF623613EA9E84BAD61D67B8E13C Accuracy: -m0
Conclusion: CDDA 100%
Signature: 85CD678ED9E11C2FCD980D71BCC859095948AF61
FILE: 13 - You Can’t Fight Lighting (Re-do).flac
Size: 27960882 Hash: FD38938CB5F3D5E4405FE8741586104F Accuracy: -m0
Conclusion: CDDA 100%
Signature: 8C8D2E9222B6040D732A4682ED54F22B493F5A0C
FILE: 12 - Don't Pass Me By (Re-do).flac
Size: 22304753 Hash: A3A1A711A50CD7C2E2B63109C77C91C4 Accuracy: -m0
Conclusion: CDDA 100%
Signature: 89CF9A202E6A7B78F5183CA72E3115C2394E4269
FILE: 11 - Back Off Boogaloo (Re-do).flac
Size: 20805761 Hash: 7909EFB09C814EF5D074EA6329C5036F Accuracy: -m0
Conclusion: CDDA 100%
Signature: 9CA33F173F4657C6FEE543B1572A7C00D67AFAD4
FILE: 10 - Give More Love.flac
Size: 28595858 Hash: A7F8C59D298EFFF7F288E7C802196B7F Accuracy: -m0
Conclusion: CDDA 100%
Signature: 07385B01EEDE28213CE6539ABA8FBF05D88838A8
FILE: 09 - Shake It Up.flac
Size: 22661319 Hash: EE4566ED38C4F864F05488D835DA5007 Accuracy: -m0
Conclusion: CDDA 100%
Signature: ACD99A3CA7F4F3F10AC3B471A84788151FF2D21B
FILE: 08 - So Wrong For So Long.flac
Size: 24686115 Hash: 524176FCB442F99DDCA25756ED959212 Accuracy: -m0
Conclusion: CDDA 100%
Signature: 5F513E41EC008828A7D1A4B1E818D211B52D9040
FILE: 07 - Electricity.flac
Size: 25967657 Hash: 9002D15A92B95814C406992DBAA28AD0 Accuracy: -m0
Conclusion: CDDA 100%
Signature: 6BBFCC5A1C9D246351A0FE694412F86581C59621
FILE: 06 - King Of The Kingdom.flac
Size: 34434485 Hash: 24B3626B4EF68995A9FD60A6941693DA Accuracy: -m0
Conclusion: CDDA 100%
Signature: 584ABA3C0AB82FAE2DC7A18DEC3A92FDA39622F1
FILE: 05 - Standing Still.flac
Size: 23352864 Hash: 41A67E67E602BE439C7FE2DF06207D8F Accuracy: -m0
Conclusion: CDDA 100%
Signature: 561DE64D214C424189BBE2D077C19B63165F11DB
FILE: 04 - Speed Of Sound.flac
Size: 27625295 Hash: 75062DC204DC9A58A52EBAE246018CE0 Accuracy: -m0
Conclusion: CDDA 100%
Signature: B52C3693668282F3933CAA38994A8A75EBDD5538
FILE: 03 - Show Me The Way.flac
Size: 32027051 Hash: F64C02125F32A441BF87B5396F20F5A0 Accuracy: -m0
Conclusion: CDDA 99%
Signature: A1CCF99817C0C03AB471E6C88ED09AB7D1370AB1
FILE: 02 - Laughable.flac
Size: 21268571 Hash: 7B2D74F73BB0991F69ED2EBA402BCC56 Accuracy: -m0
Conclusion: CDDA 100%
Signature: A2A0AA6060C5FD1CDAC355CDBFAA71DA901B8BAD
FILE: 01 - We’re On The Road Again.flac
Size: 32908929 Hash: 67BA1CBAFFA3EEE4DA0014082BE3CD86 Accuracy: -m0
Conclusion: CDDA 100%
Signature: AE9D46CDBB7312E4C58EA5F8E9C20F2C20EBCEE8

foobar2000 1.3.7 / Dynamic Range Meter 1.1.1
log date: 2017-09-14 16:16:03

––––––––––––––––––––––––––––––––––––––––
Analyzed: Ringo Starr & Alberta Cross / Give More Love (1)
Ringo Starr & Vandaveer / Give More Love (2)
Ringo Starr / Give More Love (3-14)
––––––––––––––––––––––––––––––––––––––––

DR Peak RMS Duration Track
––––––––––––––––––––––––––––––––––––––––
DR9 0.00 dB -10.72 dB 4:21 13-You Can’t Fight Lighting (Re-do)
DR9 0.00 dB -10.61 dB 3:35 14-Photograph
DR6 0.00 dB -7.05 dB 4:24 01-We’re On The Road Again
DR8 0.00 dB -9.31 dB 2:58 02-Laughable
DR7 0.00 dB -8.83 dB 4:42 03-Show Me The Way
DR8 0.00 dB -9.14 dB 3:46 04-Speed Of Sound
DR8 0.00 dB -9.39 dB 3:06 05-Standing Still
DR9 0.00 dB -10.32 dB 4:36 06-King Of The Kingdom
DR8 0.00 dB -8.92 dB 3:38 07-Electricity
DR8 0.00 dB -9.64 dB 4:03 08-So Wrong For So Long
DR8 0.00 dB -9.34 dB 3:02 09-Shake It Up
DR8 0.00 dB -9.06 dB 4:01 10-Give More Love
DR9 0.00 dB -10.12 dB 2:55 11-Back Off Boogaloo (Re-do)
DR9 0.00 dB -10.69 dB 3:38 12-Don't Pass Me By (Re-do)
––––––––––––––––––––––––––––––––––––––––

Number of tracks: 14
Official DR value: DR8

Samplerate: 44100 Hz
Channels: 2
Bits per sample: 16
Bitrate: 819 kbps
Codec: FLAC
================================================================================


Thanks to the Original customer.