Subcategories
Tags
Language
Tags

Rita Marcotulli - A Pino (2016) {Casa del Jazz}

Posted By: tiburon
Rita Marcotulli - A Pino (2016) {Casa del Jazz}

Rita Marcotulli - A Pino (2016) {Casa del Jazz}
EAC 1.1 | FLAC tracks level 8 | Cue+Log+M3U | Full Scans 300dpi | 414MB + 5% Recovery
MP3 CBR 320 Kbps | 154MB + 5% Recovery
Genre: Jazz, Post-Bop, Fusion

Lunedì 4 aprile, il concerto di Rita Marcotulli "A Pino", un omaggio a Pino Daniele, con il quale ha collaborato a lungo, da parte della pianista Rita Marcotulli. Con lei sul palco alcuni dei più prestigiosi musicisti del panorama musicale nazionale ed internazionale: Tore Brunborg, sax, Luca Aquino, tromba, Nguyên Lê, chitarra, Matthew Garrison, basso, Alessandro Paternesi, batteria, Michele Rabbia, percussioni, e Maria Pia De Vito, voce. Un omaggio alla musica di Pino Daniele, soprattutto alla sua musica, il concerto sarà quasi esclusivamente strumentale, Maria Pia De Vito improvviserà con la sua straordinaria voce su alcuni brani.
Track List
01. Alleria
02. Nordie Light
03. Naoule è
04. Desert Dream
05. Desert In My Head
06. Anna Verrà
07. Interludio
08. Bella 'mbriana
09. Lazzari Felici
10. Terra Mia
11. Cammina Cammina
12. Deserto Di Parole
13. 'E Ceveze
14. Donna Cuncetta

musicians
Rita Marcotulli - piano
Luca Aquino - trombone
Tore Brunborg - sax
Nguyên Lê - guitar
Matthew Garrison - electric bass
Alessandro Paternesi - drums
Michele Rabbia - percussions
Maria Pia De Vito - vocals


Exact Audio Copy V1.1 from 23. June 2015

EAC extraction logfile from 4. May 2016, 20:51

Rita Marcotulli / A Pino

Used drive : hp CDDVDW TS-H653R Adapter: 1 ID: 0

Read mode : Secure
Utilize accurate stream : Yes
Defeat audio cache : Yes
Make use of C2 pointers : No

Read offset correction : 6
Overread into Lead-In and Lead-Out : No
Fill up missing offset samples with silence : Yes
Delete leading and trailing silent blocks : No
Null samples used in CRC calculations : Yes
Used interface : Native Win32 interface for Win NT & 2000
Gap handling : Appended to previous track

Used output format : User Defined Encoder
Selected bitrate : 320 kBit/s
Quality : High
Add ID3 tag : No
Command line compressor : C:\flac-1.2.1b\flac.exe
Additional command line options : -8 -V -T "ARTIST=%artist%" -T "TITLE=%title%" -T "ALBUM=%albumtitle%" -T "DATE=%year%" -T "TRACKNUMBER=%tracknr%" -T "TOTALTRACKS=%numtracks%" -T "GENRE=%genre%" -T "ALBUMARTIST=%albumartist%" -T "ALBUM ARTIST=%albumartist%" -T "COMMENT=EAC Secure Mode, Test & Copy, AccurateRip, FLAC -8" %source%


TOC of the extracted CD

Track | Start | Length | Start sector | End sector
––––––––––––––––––––––––––––-
1 | 0:00.00 | 4:56.58 | 0 | 22257
2 | 4:56.58 | 1:48.72 | 22258 | 30429
3 | 6:45.55 | 7:07.73 | 30430 | 62527
4 | 13:53.53 | 1:17.56 | 62528 | 68358
5 | 15:11.34 | 7:24.44 | 68359 | 101702
6 | 22:36.03 | 4:52.11 | 101703 | 123613
7 | 27:28.14 | 3:48.29 | 123614 | 140742
8 | 31:16.43 | 5:21.74 | 140743 | 164891
9 | 36:38.42 | 3:13.55 | 164892 | 179421
10 | 39:52.22 | 6:05.55 | 179422 | 206851
11 | 45:58.02 | 5:06.20 | 206852 | 229821
12 | 51:04.22 | 7:15.66 | 229822 | 262512
13 | 58:20.13 | 1:54.04 | 262513 | 271066
14 | 60:14.17 | 7:09.58 | 271067 | 303299


Track 1

Filename C:\Estratti con EAC\01 - Alleria.wav

Pre-gap length 0:00:02.00

Peak level 94.9 %
Extraction speed 2.1 X
Track quality 99.9 %
Test CRC 148F5591
Copy CRC 148F5591
Track not present in AccurateRip database
Copy OK

Track 2

Filename C:\Estratti con EAC\02 - Nordic Light.wav

Pre-gap length 0:00:00.02

Peak level 86.6 %
Extraction speed 2.4 X
Track quality 100.0 %
Test CRC 2465EF2D
Copy CRC 2465EF2D
Track not present in AccurateRip database
Copy OK

Track 3

Filename C:\Estratti con EAC\03 - Napule e'.wav

Pre-gap length 0:00:00.02

Peak level 97.5 %
Extraction speed 3.2 X
Track quality 100.0 %
Test CRC C5D0EFBA
Copy CRC C5D0EFBA
Track not present in AccurateRip database
Copy OK

Track 4

Filename C:\Estratti con EAC\04 - Desert Dream.wav

Pre-gap length 0:00:00.02

Peak level 63.2 %
Extraction speed 2.5 X
Track quality 100.0 %
Test CRC 155BE32D
Copy CRC 155BE32D
Track not present in AccurateRip database
Copy OK

Track 5

Filename C:\Estratti con EAC\05 - Desert In My Head.wav

Pre-gap length 0:00:00.02

Peak level 95.7 %
Extraction speed 3.7 X
Track quality 100.0 %
Test CRC D81AB5DC
Copy CRC D81AB5DC
Track not present in AccurateRip database
Copy OK

Track 6

Filename C:\Estratti con EAC\06 - Anna verra'.wav

Peak level 95.6 %
Extraction speed 3.1 X
Track quality 99.9 %
Test CRC 1ECF4C40
Copy CRC 1ECF4C40
Track not present in AccurateRip database
Copy OK

Track 7

Filename C:\Estratti con EAC\07 - Interludio.wav

Pre-gap length 0:00:00.02

Peak level 94.4 %
Extraction speed 3.0 X
Track quality 99.9 %
Test CRC DF94390C
Copy CRC DF94390C
Track not present in AccurateRip database
Copy OK

Track 8

Filename C:\Estratti con EAC\08 - Bella 'mbriana.wav

Pre-gap length 0:00:00.02

Peak level 95.0 %
Extraction speed 4.3 X
Track quality 100.0 %
Test CRC B256C257
Copy CRC B256C257
Track not present in AccurateRip database
Copy OK

Track 9

Filename C:\Estratti con EAC\09 - Lazzari felici.wav

Peak level 94.6 %
Extraction speed 4.2 X
Track quality 100.0 %
Test CRC DBA64B06
Copy CRC DBA64B06
Track not present in AccurateRip database
Copy OK

Track 10

Filename C:\Estratti con EAC\10 - Terra mia.wav

Peak level 95.4 %
Extraction speed 4.7 X
Track quality 100.0 %
Test CRC 90C728AD
Copy CRC 90C728AD
Track not present in AccurateRip database
Copy OK

Track 11

Filename C:\Estratti con EAC\11 - Cammina cammina.wav

Pre-gap length 0:00:00.02

Peak level 94.7 %
Extraction speed 4.8 X
Track quality 100.0 %
Test CRC 818D21ED
Copy CRC 818D21ED
Track not present in AccurateRip database
Copy OK

Track 12

Filename C:\Estratti con EAC\12 - Deserto di parole.wav

Pre-gap length 0:00:00.01

Peak level 95.5 %
Extraction speed 4.4 X
Track quality 99.9 %
Test CRC 1C4C1D1F
Copy CRC 1C4C1D1F
Track not present in AccurateRip database
Copy OK

Track 13

Filename C:\Estratti con EAC\13 - 'E ceveze.wav

Pre-gap length 0:00:00.02

Peak level 87.6 %
Extraction speed 4.3 X
Track quality 100.0 %
Test CRC DF58FEE9
Copy CRC DF58FEE9
Track not present in AccurateRip database
Copy OK

Track 14

Filename C:\Estratti con EAC\14 - Donna Cuncetta.wav

Peak level 95.2 %
Extraction speed 5.5 X
Track quality 100.0 %
Test CRC 47F7D5A7
Copy CRC 47F7D5A7
Track not present in AccurateRip database
Copy OK


None of the tracks are present in the AccurateRip database

No errors occurred

End of status report

–– CUETools DB Plugin V2.1.6

[CTDB TOCID: r251qxZo4W0iMGjBe56Da6mAXn4-] found
Submit result: r251qxZo4W0iMGjBe56Da6mAXn4- has been confirmed
Track | CTDB Status
1 | (1/1) Accurately ripped
2 | (1/1) Accurately ripped
3 | (1/1) Accurately ripped
4 | (1/1) Accurately ripped
5 | (1/1) Accurately ripped
6 | (1/1) Accurately ripped
7 | (1/1) Accurately ripped
8 | (1/1) Accurately ripped
9 | (1/1) Accurately ripped
10 | (1/1) Accurately ripped
11 | (1/1) Accurately ripped
12 | (1/1) Accurately ripped
13 | (1/1) Accurately ripped
14 | (1/1) Accurately ripped


==== Log checksum E6F16409CB6A7B125520CF43DCB16883114E9A4AF3F91EF2FCE607796219BA72 ====


––––––––––––––––––––––––––––––––––––––––
Analyzed: Rita Marcotulli / A Pino
––––––––––––––––––––––––––––––––––––––––

DR Peak RMS Duration Track
––––––––––––––––––––––––––––––––––––––––
DR7 -0.45 dB -9.80 dB 4:57 01-Alleria
DR14 -1.24 dB -20.82 dB 1:49 02-Nordic Light
DR7 -0.22 dB -10.05 dB 7:08 03-Napule e'
DR8 -3.99 dB -16.93 dB 1:18 04-Desert Dream
DR7 -0.37 dB -9.96 dB 7:25 05-Desert In My Head
DR8 -0.38 dB -10.50 dB 4:52 06-Anna verra'
DR10 -0.50 dB -15.02 dB 3:48 07-Interludio
DR6 -0.44 dB -9.58 dB 5:22 08-Bella 'mbriana
DR8 -0.48 dB -11.93 dB 3:14 09-Lazzari felici
DR8 -0.40 dB -11.72 dB 6:06 10-Terra mia
DR9 -0.47 dB -12.58 dB 5:06 11-Cammina cammina
DR8 -0.40 dB -11.13 dB 7:16 12-Deserto di parole
DR13 -1.15 dB -21.31 dB 1:54 13-'E ceveze
DR8 -0.43 dB -11.75 dB 7:10 14-Donna Cuncetta
––––––––––––––––––––––––––––––––––––––––

Number of tracks: 14
Official DR value: DR9

Samplerate: 44100 Hz
Channels: 2
Bits per sample: 16
Bitrate: 836 kbps
Codec: FLAC
================================================================================

Rita Marcotulli - A Pino (2016) {Casa del Jazz}
Rita Marcotulli - A Pino (2016) {Casa del Jazz}
Rita Marcotulli - A Pino (2016) {Casa del Jazz}


Thanks to the original ripper