Subcategories

Rob Rock - Eyes Of Eternity (2003) [Japanese Ed.] Repost

Posted By: Andi_Deris
Rob Rock - Eyes Of Eternity (2003) [Japanese Ed.] Repost

Rob Rock - Eyes Of Eternity (2003) [Japanese Ed.]
EAC Rip | FLAC: Image+Cue+Log | 480 Mb | MP3 CBR 320 kbps | 143 Mb | Scans | 43 Mb | 59:08
Victor Entertainment | VICP-62372
Heavy Metal, Melodic Power Metal

For many metal fans out there, Rob Rock is a man that needs no introduction. He has performed for numerous metal acts dating back to the mid 1980's. Actually, the list is quite long: M.A.R.S., Angelica, Driver, Joshua, Axel Rudi Pell, Impellitteri, Warrior, and Avantasia. Eyes of Eternity is another quality album to add to Rob's discography. This is Rob's second solo album, the follow up to the 2000 release Rage of Creation. Eyes of Eternity sees Rob Rock kicking up the intensity of the music, while not forgetting his melodic roots.

Rob Rock - Eyes Of Eternity (2003) [Japanese Ed.] Repost




Track Listing

01. Bridge To Infinity (Japan Bonus Track) (01:43)
02. Rock The Earth (05:00)
03. Stranglehold (04:35)
04. Eyes Of Eternity (04:10)
05. The Everlasting (04:36)
06. Rage Of Creation (05:22)
07. Conqueror's Hymn (04:48)
08. Fields Of Fire (05:35)
09. You Know (05:34)
10. The Hour Of Dawn (12:28)
11. Children Of The Wasteland (Japan Bonus Track) (05:17)

Produced by Roy Z

Musicians

• Rob Rock - Lead and Backing Vocals
• Roy Z - Guitars, Bass Guitar
• Reynold “Butch” Carlson - Drums
• Ray "Geezer" Burke - Bass Guitar
• Mistheria - Keyboards
• Rick Renstrom - Guitar
• Bob Rossi - Guitar
• Stephen Elder - Bass Guitar, Backing Vocals
• Tracy Shell - Drums

Exact Audio Copy V0.99 prebeta 5 from 4. May 2009

Отчёт EAC об извлечении, выполненном 15. февраля 2011, 13:16

Bob Rock / Eyes OF Eternity (Japan)

Дисковод: ASUS DRW-1814BL Adapter: 4 ID: 1

Режим чтения : Достоверность
Использование точного потока : Да
Отключение кэша аудио : Да
Использование указателей C2 : Нет

Коррекция смещения при чтении : 6
Способность читать области Lead-in и Lead-out : Нет
Заполнение пропущенных сэмплов тишиной : Да
Удаление блоков с тишиной в начале и конце : Нет
При вычислениях CRC использовались нулевые сэмплы : Да
Интерфейс : Установленный внешний ASPI-интерфейс

Выходной формат : Пользовательский кодировщик
Выбранный битрейт : 1024 kBit/s
Качество : Высокий
Добавление ID3-тэга : Нет
Утилита сжатия : C:\Program Files\Exact Audio Copy\FLAC\FLAC.EXE
Дополнительные параметры : -6 -V -T "ARTIST=%a" -T "TITLE=%t" -T "ALBUM=%g" -T "DATE=%y" -T "TRACKNUMBER=%n" -T "GENRE=%m" -T "COMMENT=%e" %s -o %d


TOC извлечённого CD

Трек | Старт | Длительность | Начальный сектор | Конечный сектор
––––––––––––––––––––––––––––––––––-
1 | 0:00.00 | 1:43.00 | 0 | 7724
2 | 1:43.00 | 5:00.13 | 7725 | 30237
3 | 6:43.13 | 4:34.55 | 30238 | 50842
4 | 11:17.68 | 4:10.25 | 50843 | 69617
5 | 15:28.18 | 4:35.35 | 69618 | 90277
6 | 20:03.53 | 5:22.20 | 90278 | 114447
7 | 25:25.73 | 4:47.70 | 114448 | 136042
8 | 30:13.68 | 5:34.42 | 136043 | 161134
9 | 35:48.35 | 5:33.63 | 161135 | 186172
10 | 41:22.23 | 12:27.57 | 186173 | 242254
11 | 53:50.05 | 5:16.63 | 242255 | 266017


Характеристики диапазона извлечения и сообщения об ошибках

Выбранный диапазон

Имя файла G:\Program files\Рипаные файлы\Rob Rock - Eyes of Eternity (Japan)\Bob Rock - Eyes OF Eternity.wav

Пиковый уровень 99.9 %
Качество диапазона 100.0 %
CRC копии 3A9087FF
Копирование… OK

Ошибок не произошло

Конец отчёта


Many thanks to the original uploader: wings71





Password: pass