Subcategories

Rob Tognoni - Boogie Like You Never Did (2012) RE-UP

Posted By: popsakov
Rob Tognoni - Boogie Like You Never Did (2012) RE-UP

Rob Tognoni - Boogie Like You Never Did (2012)
EAC Rip | FLAC (Img) + Cue + Log ~ 485 Mb | MP3 CBR320 ~ 156 Mb
Scans Included | RAR 5% Recovery
Heavy Blues Rock | Blues Boulevard #250301

From Tasmania, Australia & introduced to Europe by blues master Dave Hole in 1994, Rob Tognoni delivers a 100% powerfully charged experience with every performance. There is simply no compromise, which is strongly evident in his music. After 40 years his explosive guitar playing and unique songs are now being compared with the greats of his genre and have firmly established him in the European venues & festivals as well as gaining many fans of hard blues rock worldwide.
Rob Tognoni - Boogie Like You Never Did (2012) RE-UP

Track List:

01. Reboot [02:20]
02. Spaceman [05:45]
03. The Broken String [03:24]
04. Boogie Like You Never Did [03:13]
05. Can`t See The Smoke [04:34]
06. Light Of Day [03:35]
07. The Rain [04:13]
08. Isolate [04:06]
09. Shoot To Kill [04:45]
10. God Bless America [03:06]
11. Words Of A Desperate Man [05:56]
12. No Guarantee [04:16]
13. Hoot, Shoot Electrocute [04:33]
14. The Real Thing [04:36]
15. Devil Outta Me [03:42]

Exact Audio Copy V0.99 prebeta 4 from 23. January 2008

Отчёт EAC об извлечении, выполненном 10. апреля 2012, 19:44

Rob Tognoni / Boogie Like You Never Did

Дисковод: PLEXTOR DVDR PX-880SA Adapter: 1 ID: 1

Режим чтения : Достоверность
Использование точного потока : Да
Отключение кэша аудио : Да
Использование указателей C2 : Нет

Коррекция смещения при чтении : 6
Способность читать области Lead-in и Lead-out : Нет
Заполнение пропущенных сэмплов тишиной : Да
Удаление блоков с тишиной в начале и конце : Нет
При вычислениях CRC использовались нулевые сэмплы : Да
Интерфейс : Встроенный Win32-интерфейс для Win NT/2000

Выходной формат : Пользовательский кодировщик
Выбранный битрейт : 1024 kBit/s
Качество : Высокий
Добавление ID3-тэга : Нет
Утилита сжатия : C:\Program Files\Exact Audio Copy\FLAC\FLAC.EXE
Дополнительные параметры : -6 -V -T "ARTIST=%a" -T "TITLE=%t" -T "ALBUM=%g" -T "DATE=%y" -T "TRACKNUMBER=%n" -T "GENRE=%m" -T "COMMENT=%e" %s -o %d


TOC извлечённого CD

Трек | Старт | Длительность | Начальный сектор | Конечный сектор
––––––––––––––––––––––––––––––––––-
1 | 0:00.00 | 2:19.62 | 0 | 10486
2 | 2:19.62 | 5:44.72 | 10487 | 36358
3 | 8:04.59 | 3:24.00 | 36359 | 51658
4 | 11:28.59 | 3:12.73 | 51659 | 66131
5 | 14:41.57 | 4:33.37 | 66132 | 86643
6 | 19:15.19 | 3:34.40 | 86644 | 102733
7 | 22:49.59 | 4:12.03 | 102734 | 121636
8 | 27:01.62 | 4:05.02 | 121637 | 140013
9 | 31:06.64 | 4:45.00 | 140014 | 161388
10 | 35:51.64 | 3:05.64 | 161389 | 175327
11 | 38:57.53 | 5:55.36 | 175328 | 201988
12 | 44:53.14 | 4:16.00 | 201989 | 221188
13 | 49:09.14 | 4:32.73 | 221189 | 241661
14 | 53:42.12 | 4:35.73 | 241662 | 262359
15 | 58:18.10 | 3:41.36 | 262360 | 278970


Характеристики диапазона извлечения и сообщения об ошибках

Выбранный диапазон

Имя файла J:\BitComet\Rob Tognoni(flac)\2012 - Boogie Like You Never Did\Rob Tognoni - Boogie Like You Never Did.wav

Пиковый уровень 100.0 %
Качество диапазона 100.0 %
CRC теста 125928F9
CRC копии 125928F9
Копирование… OK

Ошибок не произошло


AccurateRip: сводка

Трек 1 нет в базе данных
Трек 2 нет в базе данных
Трек 3 нет в базе данных
Трек 4 нет в базе данных
Трек 5 нет в базе данных
Трек 6 нет в базе данных
Трек 7 нет в базе данных
Трек 8 нет в базе данных
Трек 9 нет в базе данных
Трек 10 нет в базе данных
Трек 11 нет в базе данных
Трек 12 нет в базе данных
Трек 13 нет в базе данных
Трек 14 нет в базе данных
Трек 15 нет в базе данных

Ни одного трека нет в базе AccurateRip

Конец отчёта

Rob Tognoni - Boogie Like You Never Did (2012) RE-UP

All thanks go to izia1956

>>> My Blog <<<

Download from icerbox.com: