Tags
Language
Tags

Rob Wasserman - Duets (1988) [Re-Up]

Posted By: Designol
Rob Wasserman - Duets (1988) [Re-Up]

Rob Wasserman - Duets (1988)
EAC | FLAC | Image (Cue&Log) ~ 220 Mb | Mp3 (CBR320) ~ 133 Mb | Scans included
Jazz, Neo-Bop, Fusion | Label: MCA | # MCAD-42131 | Time: 00:47:21

This charming collection of duets features the bass of Rob Wasserman in a variety of different roles, from supportive to lead to orchestral. With the exception of Stephane Grappelli's violin, Lou Reed's guitar and Rickie Lee Jones' guitar and bells/percussion, every sound on this album is bass and voice, demonstrating that these two musical forces can be everything by themselves.

My favorites include the joyful Brothers (with Bobby McFerrin), the weighty One For My Baby And One More For The Road (with Lou Reed), the poignant Leonard Cohen song Ballad Of The Runaway Horse (with Jennifer Warnes) and the moving Over The Rainbow (with the violin of Grappelli), quite spectacular instrumental.

Stardust (with Aaron Neville) and Gone With The Wind (with Dan Hicks) are quite listenable too, but I don't enjoy Rickie Lee Jones' The Moon Is Made Of Gold, since her nasal whine is too pronounced and her delivery sounds affected and over the top. This is a successful experiment combining the human voice with the bass guitar and it delivers some very soulful sounds. It should appeal to fans of these featured artists and to everyone who loves the bass guitar.

Review by Pieter Uys

Rob Wasserman - Duets (1988) [Re-Up]



Tracklist:

01. Rob Wasserman & Aaron Neville - Stardust (04:35)
02. Rob Wasserman & Rickie Lee Jones - The Moon is Made of Gold (03:40)
03.Rob Wasserman & Bobby McFerrin - Brothers (04:47)
04. Rob Wasserman - Duet (03:28)
05. Rob Wasserman & Lou Reed - One for My Baby (and One More for the Road) (04:07)
06. Rob Wasserman & Jennifer Warnes - Ballad of the Runaway Horse (06:49)
07. Rob Wasserman & Dan Hicks - Gone with the Wind (05:10)
08. Rob Wasserman & Cheryl Bentyne - Angel Eyes (04:17)
09. Rob Wasserman & Stephane Grapelli - Over the Rainbow (05:59)
10. Rob Wasserman & Rickie Lee Jones - Autumn Leaves (04:18)


Exact Audio Copy V0.99 prebeta 5 from 4. May 2009

Отчёт EAC об извлечении, выполненном 29. ноября 2010, 22:58

Rob Wasserman / Duets - MCA 1995

Дисковод: PIONEER DVD-RW DVR-217F Adapter: 0 ID: 1

Режим чтения : Достоверность
Использование точного потока : Да
Отключение кэша аудио : Да
Использование указателей C2 : Нет

Коррекция смещения при чтении : 96
Способность читать области Lead-in и Lead-out : Нет
Заполнение пропущенных сэмплов тишиной : Да
Удаление блоков с тишиной в начале и конце : Нет
При вычислениях CRC использовались нулевые сэмплы : Да
Интерфейс : Установленный внешний ASPI-интерфейс

Выходной формат : Пользовательский кодировщик
Выбранный битрейт : 128 kBit/s
Качество : Высокий
Добавление ID3-тэга : Нет
Утилита сжатия : C:\Program Files\FLAC\FLAC frontend.exe
Дополнительные параметры : -8 -V %s


TOC извлечённого CD

Трек | Старт | Длительность | Начальный сектор | Конечный сектор
––––––––––––––––––––––––––––––––––-
1 | 0:00.37 | 4:36.38 | 37 | 20774
2 | 4:37.00 | 3:40.35 | 20775 | 37309
3 | 8:17.35 | 4:47.30 | 37310 | 58864
4 | 13:04.65 | 3:28.60 | 58865 | 74524
5 | 16:33.50 | 4:07.02 | 74525 | 93051
6 | 20:40.52 | 6:52.20 | 93052 | 123971
7 | 27:32.72 | 5:11.23 | 123972 | 147319
8 | 32:44.20 | 4:17.65 | 147320 | 166659
9 | 37:02.10 | 6:01.50 | 166660 | 193784
10 | 43:03.60 | 4:18.00 | 193785 | 213134


Характеристики диапазона извлечения и сообщения об ошибках

Выбранный диапазон

Имя файла C:\Torrent\Rob Wasserman - Duets\Rob Wasserman - Duets - MCA 1995.wav

Пиковый уровень 91.6 %
Качество диапазона 99.9 %
CRC теста EDDA155D
CRC копии EDDA155D
Копирование… OK

Ошибок не произошло


AccurateRip: сводка

Трек 1 точное извлечение (доверие 12) [9F4A4886]
Трек 2 точное извлечение (доверие 11) [290A97A6]
Трек 3 точное извлечение (доверие 11) [CA2FE433]
Трек 4 точное извлечение (доверие 10) [8E8C4A80]
Трек 5 точное извлечение (доверие 11) [18E00B9E]
Трек 6 точное извлечение (доверие 11) [78CCF605]
Трек 7 точное извлечение (доверие 10) [D559B517]
Трек 8 точное извлечение (доверие 11) [A211F060]
Трек 9 точное извлечение (доверие 11) [F46D0B42]
Трек 10 точное извлечение (доверие 11) [71B970DD]

Все треки извлечены точно

Конец отчёта

foobar2000 1.2 / Dynamic Range Meter 1.1.1
log date: 2014-09-26 15:41:29

––––––––––––––––––––––––––––––––––––––––
Analyzed: Rob Wasserman / Duets - MCA 1995
––––––––––––––––––––––––––––––––––––––––

DR Peak RMS Duration Track
––––––––––––––––––––––––––––––––––––––––
DR13 -1.87 dB -17.96 dB 4:37 01-& Aaron Neville - Stardust
DR13 -4.83 dB -21.31 dB 3:40 02-& Rickie Lee Jones - The Moon is Made of Gold
DR11 -4.51 dB -20.90 dB 4:47 03-& Bobby McFerrin - Brothers
DR11 -4.77 dB -20.06 dB 3:29 04-Duet
DR11 -0.75 dB -15.66 dB 4:07 05-& Lou Reed - One for My Baby (and One More for the Road)
DR15 -2.36 dB -21.37 dB 6:52 06-& Jennifer Warnes - Ballad of the Runaway Horse
DR15 -2.08 dB -22.28 dB 5:11 07-& Dan Hicks - Gone with the Wind
DR12 -1.56 dB -21.26 dB 4:18 08-& Cheryl Bentyne - Angel Eyes
DR14 -4.93 dB -21.67 dB 6:02 09-& Stephane Grapelli - Over the Rainbow
DR14 -6.34 dB -25.90 dB 4:18 10-& Rickie Lee Jones - Autumn Leaves
––––––––––––––––––––––––––––––––––––––––

Number of tracks: 10
Official DR value: DR13

Samplerate: 44100 Hz
Channels: 2
Bits per sample: 16
Bitrate: 578 kbps
Codec: FLAC
================================================================================

Rob Wasserman - Duets (1988) [Re-Up]

Rob Wasserman - Duets (1988) [Re-Up]

All thanks to original releaser - alexkhaa

More interesting music in My Blog