Subcategories

Robben Ford - Blue Moon (2002) [Re-Up]

Posted By: Designol
Robben Ford - Blue Moon (2002) [Re-Up]

Robben Ford - Blue Moon (2002)
EAC | FLAC | Image (Cue&Log) ~ 426 Mb | Mp3 (CBR320) ~ 136 Mb | Scans ~ 62 Mb | 00:59:04
Modern Electric Blues, Blues Rock, Jazz Blues, Soul Blues | Label: Concord | # CCD-2112-2

Over the years many people have asked, "Will the real Robben Ford please stand up?" Those are the people who wonder if the singer/guitarist is really a blues-rock vocalist or a jazz fusion instrumentalist at heart. But truth be told, Ford is many different things. He is genuinely eclectic, which is why one never really knows from one album to the next what direction he will take. Blue Moon, Ford's first album for Concord Jazz, is primarily a vocal date. Ford gets in his share of inspired guitar solos, and he provides one instrumental: the gutsy "Indianola." But most of the time he sings. And as a vocalist, he favors an exciting blend of blues, rock, and soul on tracks like "Something for the Pain," "Don't Deny Your Love," and "The Way You Treated Me (You're Gonna Be Sorry)." Meanwhile, "It Don't Make Sense (You Can't Make Peace)" and the moody "Make Me Your Only One" are among the CD's more jazz-tinged vocal offerings. Ford does not embrace a standard 12-bar blues format on all of the material, but then, he never claimed to be a blues purist. Ford isn't a blues purist any more than he is a rock purist, a jazz purist, or an R&B purist – he is much too restless and broad-minded to be any type of purist. That isn't good news if you only like one type of music, but it is very good news if you share Ford's eclectic outlook and have admired his diversity over the years. Ford was in his late forties when he recorded Blue Moon in the early 2000s, and this pleasing CD is the work of a musician who is still very much on top of his game.

Review by Alex Henderson, Allmusic.com

Robben Ford - Blue Moon (2002) [Re-Up]



Tracklist:

01. Up The Line (03:50)
02. Hard To Please (04:13)
03. Don't Deny Your Love (05:03)
04. Make Me Your Only One (05:12)
05. Indianola (05:21)
06. My Everything (04:42)
07. The Way You Treated Me (You're Gonna Be Sorry) (06:45)
08. Sometime Love (03:59)
09. Good To Love (03:43)
10. Something For The Pain (04:59)
11. It Don't Make Sense (You Can't Make Peace) (06:16)
12. Remix: Don't Deny Your Love (04:56)


Exact Audio Copy V0.99 prebeta 5 from 4. May 2009

Отчёт EAC об извлечении, выполненном 20. декабря 2010, 11:54

Robben Ford / Blue Moon

Дисковод: TEAC CD-W552G Adapter: 1 ID: 1

Режим чтения : Достоверность
Использование точного потока : Да
Отключение кэша аудио : Да
Использование указателей C2 : Нет

Коррекция смещения при чтении : 6
Способность читать области Lead-in и Lead-out : Нет
Заполнение пропущенных сэмплов тишиной : Да
Удаление блоков с тишиной в начале и конце : Нет
При вычислениях CRC использовались нулевые сэмплы : Да
Интерфейс : Установленный внешний ASPI-интерфейс

Выходной формат : Внутренние WAV-операции
Формат сэмплов : 44.100 Гц; 16 бит; стерео


TOC извлечённого CD

Трек | Старт | Длительность | Начальный сектор | Конечный сектор
––––––––––––––––––––––––––––––––––-
1 | 0:00.00 | 3:50.12 | 0 | 17261
2 | 3:50.12 | 4:13.38 | 17262 | 36274
3 | 8:03.50 | 5:03.30 | 36275 | 59029
4 | 13:07.05 | 5:12.07 | 59030 | 82436
5 | 18:19.12 | 5:21.10 | 82437 | 106521
6 | 23:40.22 | 4:42.73 | 106522 | 127744
7 | 28:23.20 | 6:45.42 | 127745 | 158161
8 | 35:08.62 | 3:59.20 | 158162 | 176106
9 | 39:08.07 | 3:43.18 | 176107 | 192849
10 | 42:51.25 | 4:59.15 | 192850 | 215289
11 | 47:50.40 | 6:16.40 | 215290 | 243529
12 | 54:07.05 | 4:56.67 | 243530 | 265796


Характеристики диапазона извлечения и сообщения об ошибках

Выбранный диапазон

Имя файла D:\MusicCD\Torrent\Robben Ford - Blue Moon\Robben Ford - Blue Moon.wav

Пиковый уровень 98.8 %
Качество диапазона 100.0 %
CRC теста 6D170A9C
CRC копии 6D170A9C
Копирование… OK

Ошибок не произошло


AccurateRip: сводка

Трек 1 точное извлечение (доверие 20) [E3BC1C0E]
Трек 2 точное извлечение (доверие 20) [63DFE683]
Трек 3 точное извлечение (доверие 20) [746DCAA7]
Трек 4 точное извлечение (доверие 20) [298BF7AA]
Трек 5 точное извлечение (доверие 20) [CFA66813]
Трек 6 точное извлечение (доверие 20) [7DF10CAF]
Трек 7 точное извлечение (доверие 20) [793BFDE1]
Трек 8 точное извлечение (доверие 20) [73E31E7A]
Трек 9 точное извлечение (доверие 20) [2FB0C1B3]
Трек 10 точное извлечение (доверие 20) [DC492C3F]
Трек 11 точное извлечение (доверие 20) [3E810FD6]
Трек 12 точное извлечение (доверие 20) [F2031FD2]

Все треки извлечены точно

Конец отчёта

[CUETools log; Date: 26.12.2014 21:31:42; Version: 2.1.4]
[CTDB TOCID: nMFiUkjQUj2wgy4F4ZKIKJZMhbA-] found.
Track | CTDB Status
1 | (12/13) Accurately ripped
2 | (13/13) Accurately ripped
3 | (12/13) Accurately ripped
4 | (12/13) Accurately ripped
5 | (13/13) Accurately ripped
6 | (13/13) Accurately ripped
7 | (12/13) Accurately ripped
8 | (12/13) Accurately ripped
9 | (12/13) Accurately ripped
10 | (13/13) Accurately ripped
11 | (13/13) Accurately ripped
12 | (12/13) Accurately ripped
[AccurateRip ID: 0019a66f-00f1d8c8-8f0dd70c] found.
Track [ CRC | V2 ] Status
01 [e3bc1c0e|0190ae3e] (23+21/72) Accurately ripped
02 [63dfe683|b1f1d94f] (23+21/72) Accurately ripped
03 [746dcaa7|2cc2867f] (23+21/71) Accurately ripped
04 [298bf7aa|82b99c09] (23+21/71) Accurately ripped
05 [cfa66813|6f432cc9] (23+21/71) Accurately ripped
06 [7df10caf|de329b8a] (23+21/71) Accurately ripped
07 [793bfde1|ead11c82] (23+21/71) Accurately ripped
08 [73e31e7a|d9ed2de2] (23+20/70) Accurately ripped
09 [2fb0c1b3|3a8bedf0] (23+20/71) Accurately ripped
10 [dc492c3f|a9a8ac6e] (23+21/71) Accurately ripped
11 [3e810fd6|64626aa6] (23+21/69) Accurately ripped
12 [f2031fd2|9177c39c] (23+20/69) Accurately ripped
Offsetted by -674:
01 [5af7f5ff] (13/72) Accurately ripped
02 [2ccf4518] (13/72) Accurately ripped
03 [d00239eb] (13/71) Accurately ripped
04 [39a76f2c] (13/71) Accurately ripped
05 [b9fd877d] (13/71) Accurately ripped
06 [f7823719] (13/71) Accurately ripped
07 [559f1b83] (13/71) Accurately ripped
08 [6bf38072] (13/70) Accurately ripped
09 [dacca8c5] (13/71) Accurately ripped
10 [8909a266] (13/71) Accurately ripped
11 [1b50af52] (12/69) Accurately ripped
12 [e2d976cf] (13/69) Accurately ripped
Offsetted by -122:
01 [5505974f] (00/72) No match (V2 was not tested)
02 [ebd07928] (00/72) No match (V2 was not tested)
03 [0b766d9b] (00/71) No match (V2 was not tested)
04 [cc52f1cf] (00/71) No match (V2 was not tested)
05 [6f4c1cb8] (00/71) No match
06 [5d158e03] (00/71) No match
07 [f93ebd5b] (00/71) No match
08 [3a3caf12] (00/70) No match
09 [a54319dd] (00/71) No match
10 [ef8d2562] (00/71) No match
11 [22c71f3f] (00/69) No match
12 [926b6c35] (00/69) No match
Offsetted by -10:
01 [439b5be7] (00/72) No match (V2 was not tested)
02 [2581edf0] (00/72) No match (V2 was not tested)
03 [d4be3cbb] (00/71) No match (V2 was not tested)
04 [9ffacb8a] (00/71) No match (V2 was not tested)
05 [1c8bca94] (00/71) No match (V2 was not tested)
06 [6ee81bf4] (00/71) No match (V2 was not tested)
07 [d7a954eb] (00/71) No match (V2 was not tested)
08 [cfafb4d2] (00/70) No match (V2 was not tested)
09 [fe92c8ed] (00/71) No match (V2 was not tested)
10 [d0706cf8] (00/71) No match (V2 was not tested)
11 [bd20e409] (00/69) No match (V2 was not tested)
12 [de717cbd] (00/69) No match (V2 was not tested)

Track Peak [ CRC32 ] [W/O NULL] [ LOG ]
– 98,8 [6D170A9C] [093F3D3D] CRC32
01 98,8 [870EDB8D] [885AE063]
02 98,8 [EEFDFD7D] [37566B8B]
03 98,8 [1A0C44BF] [40A4F2C7]
04 98,8 [B499322B] [0A6092FD]
05 98,8 [9940A04D] [C3EB5B20]
06 98,8 [B316C642] [5D370224]
07 98,8 [CA2BD084] [646CC33C]
08 98,8 [88F6E075] [0EACA2AA]
09 98,8 [E8AD8609] [72A34776]
10 98,8 [D4C7DAD8] [42196CD5]
11 98,8 [47340C18] [80F4453E]
12 98,8 [E322C823] [60E3F73E]

foobar2000 1.2 / Dynamic Range Meter 1.1.1
log date: 2014-12-26 21:13:42

––––––––––––––––––––––––––––––––––––––––
Analyzed: Robben Ford / Blue Moon
––––––––––––––––––––––––––––––––––––––––

DR Peak RMS Duration Track
––––––––––––––––––––––––––––––––––––––––
DR6 -0.10 dB -7.33 dB 3:50 01-Up The Line
DR8 -0.10 dB -8.82 dB 4:14 02-Hard To Please
DR7 -0.10 dB -8.34 dB 5:03 03-Don't Deny Your Love
DR7 -0.10 dB -8.85 dB 5:12 04-Make Me Your Only One
DR7 -0.10 dB -8.23 dB 5:21 05-Indianola
DR8 -0.10 dB -10.00 dB 4:43 06-My Everything
DR7 -0.10 dB -8.36 dB 6:46 07-The Way You Treated Me (You're Gonna Be Sorry)
DR8 -0.10 dB -9.24 dB 3:59 08-Sometime Love
DR9 -0.10 dB -10.47 dB 3:43 09-Good To Love
DR7 -0.10 dB -8.40 dB 4:59 10-Something For The Pain
DR10 -0.10 dB -11.28 dB 6:17 11-It Don't Make Sense (You Can't Make Peace)
DR8 -0.10 dB -8.72 dB 4:57 12-Remix: Don't Deny Your Love
––––––––––––––––––––––––––––––––––––––––

Number of tracks: 12
Official DR value: DR8

Samplerate: 44100 Hz
Channels: 2
Bits per sample: 16
Bitrate: 1008 kbps
Codec: FLAC
================================================================================

Robben Ford - Blue Moon (2002) [Re-Up]

Robben Ford - Blue Moon (2002) [Re-Up]