Subcategories

Robben Ford - Discovering The Blues: Live (1972) Reissue 1997 [Re-Up]

Posted By: Designol
Robben Ford - Discovering The Blues: Live (1972) Reissue 1997 [Re-Up]

Robben Ford - Discovering The Blues: Live (1972) Reissue 1997
EAC | FLAC | Image (Cue&Log) ~ 381 Mb | Mp3 (CBR320) ~ 138 Mb | Scans ~ 52 Mb
Modern Electric Blues, Jazz-Blues | Label: Avenue Jazz | # 74321 47421 2 | 01:00:18

This powerhouse set of live recordings from early in Robben Ford's distinguished career boasts solo-laden 10-minute-plus versions of B.B. King's "Sweet Sixteen" and John Lee Hooker's "It's My Own Fault." Ford, who has worked with Joni Mitchell, Miles Davis, and George Harrison, plays surprisingly sweet, agile saxophone on Don Raye's jazz ballad "You Don't Know What Love Is." His voice–if still that of a very young man–is throaty and melodic on the King and Hooker cuts. But it's his guitar that takes centerstage. Owing heaps to electric bluesmen B.B., Otis Rush, Buddy Guy, Albert King, and Mike Bloomfield, Ford's rich tone, deliberate lines, and tuneful bends were world-class even in 1972.

Review by James Rotondi

Discovering the Blues is culled from a series of concerts Robben Ford gave in the early '70s at Huntington Beach's Golden Bear and Ash Grove in Hollywood. At the time, Ford was just beginning his career, and his style wasn't nearly as accomplished as it would later be. Instead, he simply burns, tearing through blues classics with a passion and vigor – there is a joy of discovery in his playing which makes the music nearly transcendent, even with its flaws. Discovering the Blues is rawer than most records in Ford's catalog, but any serious fan will find it a necessary addition to their collection.

Review by Thom Owens, Allmusic.com

Robben Ford at Allmusic
Robben Ford Website
Robben Ford at Wiki

Tracklist:

01. Sweet Sixteen (12:37)
02. You Drive A Hard Bargain (05:45)
03. It's My Own Fault (10:29)
04. You Don't Know What Love Is (08:51)
05. My Time After Awhile (03:35)
06. Raining In My Heart (10:34)
07. Blue & Lonesome (08:24)


Exact Audio Copy V0.99 prebeta 5 from 4. May 2009

Отчёт EAC об извлечении, выполненном 20. декабря 2010, 20:17

Robben Ford / Discovering The Blues

Дисковод: TEAC CD-W552G Adapter: 1 ID: 1

Режим чтения : Достоверность
Использование точного потока : Да
Отключение кэша аудио : Да
Использование указателей C2 : Нет

Коррекция смещения при чтении : 6
Способность читать области Lead-in и Lead-out : Нет
Заполнение пропущенных сэмплов тишиной : Да
Удаление блоков с тишиной в начале и конце : Нет
При вычислениях CRC использовались нулевые сэмплы : Да
Интерфейс : Установленный внешний ASPI-интерфейс

Выходной формат : Внутренние WAV-операции
Формат сэмплов : 44.100 Гц; 16 бит; стерео


TOC извлечённого CD

Трек | Старт | Длительность | Начальный сектор | Конечный сектор
––––––––––––––––––––––––––––––––––-
1 | 0:00.32 | 12:37.10 | 32 | 56816
2 | 12:37.42 | 5:45.18 | 56817 | 82709
3 | 18:22.60 | 10:29.70 | 82710 | 129954
4 | 28:52.55 | 8:51.05 | 129955 | 169784
5 | 37:43.60 | 3:35.50 | 169785 | 185959
6 | 41:19.35 | 10:34.42 | 185960 | 233551
7 | 51:54.02 | 8:24.73 | 233552 | 271424


Характеристики диапазона извлечения и сообщения об ошибках

Выбранный диапазон

Имя файла D:\MusicCD\Torrent\Robben Ford - Discovering The Blues\Robben Ford - Discovering The Blues.wav

Пиковый уровень 99.4 %
Качество диапазона 100.0 %
CRC теста 407C03C1
CRC копии 407C03C1
Копирование… OK

Ошибок не произошло


AccurateRip: сводка

Трек 1 точное извлечение (доверие 6) [775420C9]
Трек 2 точное извлечение (доверие 6) [17160C55]
Трек 3 точное извлечение (доверие 6) [C680D8E2]
Трек 4 точное извлечение (доверие 6) [9D74AA10]
Трек 5 точное извлечение (доверие 6) [A4E24A4F]
Трек 6 точное извлечение (доверие 6) [94AF19E6]
Трек 7 точное извлечение (доверие 6) [71AB0FAA]

Все треки извлечены точно

Конец отчёта

foobar2000 1.2 / Dynamic Range Meter 1.1.1
log date: 2014-12-18 20:29:48

––––––––––––––––––––––––––––––––––––––––
Analyzed: Robben Ford / Discovering The Blues
––––––––––––––––––––––––––––––––––––––––

DR Peak RMS Duration Track
––––––––––––––––––––––––––––––––––––––––
DR11 -0.37 dB -15.43 dB 12:37 01-Sweet Sixteen
DR11 -0.05 dB -13.02 dB 5:45 02-You Drive A Hard Bargain
DR11 -0.28 dB -14.67 dB 10:30 03-It's My Own Fault
DR12 -0.39 dB -15.55 dB 8:51 04-You Don't Know What Love Is
DR9 -0.09 dB -10.60 dB 3:36 05-My Time After Awhile
DR11 -0.08 dB -14.47 dB 10:35 06-Raining In My Heart
DR13 -0.17 dB -18.71 dB 8:25 07-Blue & Lonesome
––––––––––––––––––––––––––––––––––––––––

Number of tracks: 7
Official DR value: DR11

Samplerate: 44100 Hz
Channels: 2
Bits per sample: 16
Bitrate: 881 kbps
Codec: FLAC
================================================================================

Robben Ford - Discovering The Blues: Live (1972) Reissue 1997 [Re-Up]

Robben Ford - Discovering The Blues: Live (1972) Reissue 1997 [Re-Up]