Subcategories

Robbie Nevil - A Place Like This (1988) [1989, Japan]

Posted By: BlondStyle
Robbie Nevil - A Place Like This (1988) [1989, Japan]

Robbie Nevil - A Place Like This (1988) [1989, Japan]
Pop/Rock, Soul/Funk, Dance-Pop | EAC Rip | FLAC, Img+CUE+LOG+Full Scans (JPEG) | 43:35 Min. | 272,31 Mb
Label: Toshiba-EMI Ltd. (Japan) | Cat.# CP25-5695 | Released: 1989-11-08 (1988-11-09)
Robbie Nevil - A Place Like This (1988) [1989, Japan]

"A Place Like This" is Robbie Nevil's second album, released in November 1988. Nevil's work is strong, with poppy hooks and bluesy rhythms. The songs tend to be more mellow than one would expect of a long-haired guy wearing leather, but while Nevil is an accomplished guitarist, his songs tend to smoother, more laid-back grooves. "Back on Holiday" stands out for both its strong melodies and funky vibe. While the themes of the album tend towards romance ("Mary Lou" is about a shy librarian who shows up at a party in unexpected style; "Love and Money" suggests that the subject of the song get their priorities straight), that shouldn't deter the listener.
~Review by Pamela J. Thalner

Robbie Nevil - A Place Like This (1988) [1989, Japan]

Robbie Nevil - A Place Like This (1988) [1989, Japan]


Release of the album: 1988, November, 9 [LP EMI-Manhattan Records, Cat.# E1 48359, USA]
Release of this CD: 1986 [CD Toshiba-EMI Ltd. (Japan), Cat.# CP25-5695 / EAN: 4988006627192]
©℗ 1988 EMI-Manhattan Records, a division of Capitol Records, Inc.
Manufactured by Toshiba-EMI Ltd. in Japan

Credits:

Art Direction – Henry Marquez
Design – Carol Chen
Engineer [Additional Assistant] – Chris Fuhrman, Will Rogers
Engineer [Assistant] – Claudio Ordenes
Lead Vocals, Guitar – Robbie Nevil
Management – Ron Weisner Entertainment
Mastered By – Brian Gardner
Mixed By – Chris Porter
Photography – Steve Danelian
Producer – Chris Porter (tracks: 1, 3, 5 to 10), Robbie Nevil, Tom Lord Alge (tracks: 4)
Producer [Production Assistance, Coordinator [Project Coordinator] – Lisa Marie
Recorded By – Alan Meyerson (tracks: 2), Chris Porter (tracks: 1, 3, 5 to 11), Ernie Sheesley (tracks: 5), Tom Lord Alge (tracks: 4)


Tracklist:

01. Somebody Like You (04:16)
02. Back On Holiday (04:00)
03. Mary Lou (04:12)
04. Getting Better (03:54)
05. Love And Money (02:55)
06. Love Is Only Love (04:44)
07. Here I Go Again (03:50)
08. Holding On (03:10)
09. Too Soon (03:07)
10. Can I Count On You (04:51)
11. Dreams (04:36)

Exact Audio Copy V1.1 from 23. June 2015

Отчёт EAC об извлечении, выполненном 12. ноября 2017, 18:59

Robbie Nevil / A Place Like This (CP25-5695)

Дисковод: PLEXTOR BD-R PX-B950SA Adapter: 1 ID: 0

Режим чтения : Достоверность
Использование точного потока : Да
Отключение кэша аудио : Да
Использование указателей C2 : Нет

Коррекция смещения при чтении : 6
Способность читать области Lead-in и Lead-out : Нет
Заполнение пропущенных сэмплов тишиной : Да
Удаление блоков с тишиной в начале и конце : Нет
При вычислениях CRC использовались нулевые сэмплы : Да
Интерфейс : Встроенный Win32-интерфейс для Win NT/2000

Выходной формат : Пользовательский кодировщик
Выбранный битрейт : 1024 kBit/s
Качество : Высокий
Добавление ID3-тега : Нет
Утилита сжатия : C:\Program Files (x86)\Exact Audio Copy\FLAC\FLAC.EXE
Дополнительные параметры : -6 -V -T "ARTIST=%artist%" -T "TITLE=%title%" -T "ALBUM=%albumtitle%" -T "DATE=%year%" -T "TRACKNUMBER=%tracknr%" -T "GENRE=%genre%" -T "COMMENT=%comment%" -T "BAND=%albuminterpret%" -T "ALBUMARTIST=%albuminterpret%" -T "COMPOSER=%composer%" %haslyrics%–tag-from-file=LYRICS="%lyricsfile%"%haslyrics% -T "DISCNUMBER=%cdnumber%" -T "TOTALDISCS=%totalcds%" -T "TOTALTRACKS=%numtracks%" %hascover%–picture="%coverfile%"%hascover% %source% -o %dest%


TOC извлечённого CD

Трек | Старт | Длительность | Начальный сектор | Конечный сектор
––––––––––––––––––––––––––––––––––-
1 | 0:00.00 | 4:16.37 | 0 | 19236
2 | 4:16.37 | 3:59.68 | 19237 | 37229
3 | 8:16.30 | 4:11.45 | 37230 | 56099
4 | 12:28.00 | 3:53.72 | 56100 | 73646
5 | 16:21.72 | 2:55.00 | 73647 | 86771
6 | 19:16.72 | 4:44.03 | 86772 | 108074
7 | 24:01.00 | 3:49.60 | 108075 | 125309
8 | 27:50.60 | 3:09.60 | 125310 | 139544
9 | 31:00.45 | 3:07.02 | 139545 | 153571
10 | 34:07.47 | 4:51.30 | 153572 | 175426
11 | 38:59.02 | 4:36.10 | 175427 | 196136


Характеристики диапазона извлечения и сообщения об ошибках

Выбранный диапазон

Имя файла G:\RIP\Robbie Nevil 1988 Japanese Pressing FLAC by alzal\Robbie Nevil - A Place Like This (CP25-5695).wav

Пиковый уровень 99.9 %
Скорость извлечения 8.0 X
Качество диапазона 99.9 %
CRC теста 72274541
CRC копии 72274541
Копирование… OK

Ошибок не произошло


AccurateRip: сводка

Трек 1 : извлечено точно (доверие 2) [029D8FA6] (AR v2)
Трек 2 : извлечено точно (доверие 2) [EB60D8B2] (AR v2)
Трек 3 : извлечено точно (доверие 2) [E245C97A] (AR v2)
Трек 4 : извлечено точно (доверие 2) [93C25F35] (AR v2)
Трек 5 : извлечено точно (доверие 2) [EC3B41A9] (AR v2)
Трек 6 : извлечено точно (доверие 2) [D8F7AB52] (AR v2)
Трек 7 : извлечено точно (доверие 2) [21F52008] (AR v2)
Трек 8 : извлечено точно (доверие 2) [0212E9F3] (AR v2)
Трек 9 : извлечено точно (доверие 2) [C80C798C] (AR v2)
Трек 10 : извлечено точно (доверие 2) [2F137800] (AR v2)
Трек 11 : извлечено точно (доверие 2) [8EABE2FB] (AR v2)

Все треки извлечены точно

Конец отчёта

–– CUETools DB Plugin V2.1.6

[CTDB TOCID: c1AUbNeXxrukuLtizPYGKmNhBfk-] found
Submit result: c1AUbNeXxrukuLtizPYGKmNhBfk- has been confirmed
Track | CTDB Status
1 | (5/5) Accurately ripped
2 | (5/5) Accurately ripped
3 | (5/5) Accurately ripped
4 | (5/5) Accurately ripped
5 | (5/5) Accurately ripped
6 | (5/5) Accurately ripped
7 | (5/5) Accurately ripped
8 | (5/5) Accurately ripped
9 | (5/5) Accurately ripped
10 | (5/5) Accurately ripped
11 | (5/5) Accurately ripped


==== Контрольная сумма отчёта F8214E5AFF74214BEE6A42338E294B9310D05A6E3CD5D8E735428C667FB99309 ====

––––––––––––––––––––––––––––––––––––––––
Analyzed: Robbie Nevil / A Place Like This (CP25-5695)
––––––––––––––––––––––––––––––––––––––––

DR Peak RMS Duration Track
––––––––––––––––––––––––––––––––––––––––
DR14 -1.89 dB -17.63 dB 4:16 01-Somebody Like You
DR16 -0.05 dB -19.59 dB 4:00 02-Back On Holiday
DR15 -2.35 dB -19.99 dB 4:12 03-Mary Lou
DR14 -3.63 dB -19.94 dB 3:54 04-Getting Better
DR13 -4.18 dB -19.89 dB 2:55 05-Love And Money
DR15 -0.01 dB -17.62 dB 4:44 06-Love Is Only Love
DR15 -3.19 dB -21.94 dB 3:50 07-Here I Go Again
DR14 -0.08 dB -18.32 dB 3:10 08-Holding On
DR13 -2.84 dB -20.55 dB 3:07 09-Too Soon
DR12 -2.96 dB -17.25 dB 4:51 10-Can I Count On You
DR16 -1.00 dB -20.19 dB 4:36 11-Dreams
––––––––––––––––––––––––––––––––––––––––

Number of tracks: 11
Official DR value: DR14

Samplerate: 44100 Hz
Channels: 2
Bits per sample: 16
Bitrate: 779 kbps
Codec: FLAC
================================================================================

Thanks to alzal

password: BlondStyle