Subcategories

Robert Palmer - The Very Best Of Robert Palmer (1995)

Posted By: Designol
Robert Palmer - The Very Best Of Robert Palmer (1995)

Robert Palmer - The Very Best Of Robert Palmer (1995)
EAC | FLAC | Image (Cue&Log) ~ 470 Mb | Mp3 (CBR320) ~ 158 Mb | Scans ~ 73 Mb | 01:08:20
Dance Rock, Pop/Rock, Blue-Eyed Soul, New Wave | Label: EMI | # 7243-835822-2

This generous 16-song collection provides a comprehensive overview of Robert Palmer's many fine songs, from his early work as an eclectic white soul singer working in a number of styles, to his reign as MTV icon and rock's most sophisticated dresser.

The career of blue-eyed soul singer Robert Palmer was a study in style versus substance. While the performer's earliest work won praise for its skillful assimilation of rock, R&B, and reggae sounds, his records typically sold poorly, and he achieved his greatest notoriety as an impeccably dressed lounge lizard. By the mid-'80s, however, Palmer became a star, although his popularity owed less to the strength of his material than to his infamous music videos: taking their cue from the singer's suave presence, Palmer's clips established him as a dapper, suit-and-tie lady's man who performed his songs backed by a band comprised of leggy models, much to the delight of viewers who made him one of MTV's biggest success stories.

Born Alan Palmer on January 19, 1949, in Batley, England, he spent much of his childhood living on the island of Malta before permanently returning to Britain at the age of 19 to sing with the Alan Bown Set. A year later he joined Dada, a 12-piece, Stax-influenced soul group which soon changed its name to Vinegar Joe; after three LPs with the band – a self-titled effort and Rock'n'Roll Gypsies, both issued in 1972, and 1973's Six Star General – Palmer exited to mount a solo career, and debuted in 1974 with Sneakin' Sally Through the Alley, recorded with members of Little Feat and the Meters.

With 1975's Pressure Drop, he tackled reggae, a trend furthered following a move to Nassau prior to 1978's Double Fun, which featured Palmer's first hit, "Every Kinda People." With 1979's self-produced Secrets, his music moved into more rock-oriented territory, as typified by the single "Bad Case of Loving You (Doctor, Doctor)." Palmer's stylistic experimentation continued with 1980's Clues, a foray into synth-pop aided by Gary Numan and Talking Heads' Chris Frantz which yielded the club hit "Looking for Clues."

After 1983's Pride, Palmer teamed with the Duran Duran side project Power Station, scoring hits with the singles "Some Like It Hot" and "Get It On" (a T. Rex cover), which returned the singer to overt rock territory.

After exiting the band prior to a planned tour, Palmer recorded the 1985 solo album Riptide, a sleek collection of guitar rock which scored a number one hit with "Addicted to Love," the first in a string of videos which offered him in front of a bevy of beautiful women.

The follow-up, "I Didn't Mean to Turn You On," continued to play with the sex symbol image and hit number two, as did "Simply Irresistible," the first single from 1988's Heavy Nova. By 1990's Don't Explain, Palmer returned to the eclecticism of his earliest material; without any attendant soft-core videos, sales plummeted, but he stuck to his guns for 1992's Ridin' High, a collection of Tin Pan Alley and cabaret chestnuts. Two years later, Palmer's wide array of worldbeat influences cropped up again on Honey, which also featured guitar work from Extreme axeman Nino Bettencourt. Woke Up Laughing followed in 1998, it was an adventurous, if somewhat odd, collection of non-hit album tracks remixed and in some cases re-recorded.Rhythm & Blues, a slick set of adult contemporary pop, came out in 1999 to lukewarm sales and reviews. After a live album in 2001, Palmer bounced back with the future blues of 2003's Drive. However, Palmer had little time to enjoy it's release. On September 26, 2003 he died suddenly after suffering a heart attack. He was 54.

Review by Jason Ankeny, Allmusic.com

Robert Palmer - The Very Best Of Robert Palmer (1995)



Tracklist:

01. Addicted To Love (4:25)
02. Bad Case Of Loving You (Doctor, Doctor) (3:10)
03. Simply Irresistible (4:12)
04. Get It On (5:30)
05. Some Guys Have All The Luck (3:09)
06. I Didn't Mean To Turn You On (3:37)
07. Looking For Clues (4:58)
08. You Are In My System (4:59)
09. Some Like It Hot (5:06)
10. Respect Yourself (4:06)
11. I'll Be Your Baby Tonight (3:24)
12. Johnny & Mary (4:00)
13. She Makes My Day (4:22)
14. Know By Now (4:10)
15. Every Kinda People (3:22)
16. Mercy Mercy Me / I Want You (5:51)


Exact Audio Copy V0.99 prebeta 5 from 4. May 2009

Отчёт EAC об извлечении, выполненном 16. июля 2011, 23:51

Robert Palmer / The Very Best Of Robert Palmer

Дисковод: PIONEER DVD-RW DVR-215D Adapter: 1 ID: 1

Режим чтения : Достоверность
Использование точного потока : Да
Отключение кэша аудио : Да
Использование указателей C2 : Нет

Коррекция смещения при чтении : 48
Способность читать области Lead-in и Lead-out : Нет
Заполнение пропущенных сэмплов тишиной : Да
Удаление блоков с тишиной в начале и конце : Нет
При вычислениях CRC использовались нулевые сэмплы : Да
Интерфейс : Встроенный Win32-интерфейс для Win NT/2000

Выходной формат : Пользовательский кодировщик
Выбранный битрейт : 1024 kBit/s
Качество : Высокий
Добавление ID3-тэга : Нет
Утилита сжатия : H:\Program Files\Exact Audio Copy\FLAC\FLAC.EXE
Дополнительные параметры : -6 -V -T "ARTIST=%a" -T "TITLE=%t" -T "ALBUM=%g" -T "DATE=%y" -T "TRACKNUMBER=%n" -T "GENRE=%m" -T "COMMENT=%e" %s -o %d


TOC извлечённого CD

Трек | Старт | Длительность | Начальный сектор | Конечный сектор
––––––––––––––––––––––––––––––––––-
1 | 0:00.33 | 4:24.62 | 33 | 19894
2 | 4:25.20 | 3:10.18 | 19895 | 34162
3 | 7:35.38 | 4:12.17 | 34163 | 53079
4 | 11:47.55 | 5:30.00 | 53080 | 77829
5 | 17:17.55 | 3:08.73 | 77830 | 92002
6 | 20:26.53 | 3:36.60 | 92003 | 108262
7 | 24:03.38 | 4:58.25 | 108263 | 130637
8 | 29:01.63 | 4:58.52 | 130638 | 153039
9 | 34:00.40 | 5:06.10 | 153040 | 175999
10 | 39:06.50 | 4:06.08 | 176000 | 194457
11 | 43:12.58 | 3:23.40 | 194458 | 209722
12 | 46:36.23 | 4:00.12 | 209723 | 227734
13 | 50:36.35 | 4:21.40 | 227735 | 247349
14 | 54:58.00 | 4:09.45 | 247350 | 266069
15 | 59:07.45 | 3:21.40 | 266070 | 281184
16 | 62:29.10 | 5:51.25 | 281185 | 307534


Характеристики диапазона извлечения и сообщения об ошибках

Выбранный диапазон

Имя файла L:\Audio Lossless\Robert Palmer. 1995 The Very Best Of Robert Palmer\Robert Palmer - The Very Best Of Robert Palmer.wav

Пиковый уровень 99.4 %
Качество диапазона 99.9 %
CRC теста C4D6FEC4
CRC копии C4D6FEC4
Копирование… OK

Ошибок не произошло


AccurateRip: сводка

Трек 1 точное извлечение (доверие 112) [ED062ABD]
Трек 2 точное извлечение (доверие 111) [905528A9]
Трек 3 точное извлечение (доверие 109) [44C222F5]
Трек 4 точное извлечение (доверие 109) [02E74C5E]
Трек 5 точное извлечение (доверие 111) [224F10BB]
Трек 6 точное извлечение (доверие 111) [DC64093B]
Трек 7 точное извлечение (доверие 109) [DDBF42F7]
Трек 8 точное извлечение (доверие 109) [711A2419]
Трек 9 точное извлечение (доверие 109) [7A21DA85]
Трек 10 точное извлечение (доверие 108) [944906DE]
Трек 11 точное извлечение (доверие 108) [A4B45EED]
Трек 12 точное извлечение (доверие 108) [A86FBDBE]
Трек 13 точное извлечение (доверие 108) [6B0D6216]
Трек 14 точное извлечение (доверие 107) [A2C7779F]
Трек 15 точное извлечение (доверие 108) [2913746E]
Трек 16 точное извлечение (доверие 110) [8DED860C]

Все треки извлечены точно

Конец отчёта

[CUETools log; Date: 01.03.2018 23:27:02; Version: 2.1.4]
Pregap length 00:00:33.
[CTDB TOCID: G3afCx7wp0x.mFU75Cd9ilO4NtA-] found.
Track | CTDB Status
1 | (360/366) Accurately ripped
2 | (361/366) Accurately ripped
3 | (361/366) Accurately ripped, or (1/366) differs in 2 samples @00:00:31
4 | (358/366) Accurately ripped
5 | (360/366) Accurately ripped
6 | (358/366) Accurately ripped
7 | (356/366) Accurately ripped, or (1/366) differs in 21 samples @00:00:30, or (1/366) differs in 21 samples @00:00:30
8 | (358/366) Accurately ripped
9 | (361/366) Accurately ripped
10 | (361/366) Accurately ripped
11 | (354/366) Accurately ripped
12 | (358/366) Accurately ripped, or (1/366) differs in 331 samples @00:00:29-00:00:31, or (1/366) differs in 331 samples @00:00:29-00:00:31
13 | (354/366) Accurately ripped, or (2/366) differs in 7 samples @02:15:35,02:17:01,02:22:74,02:30:38, or (1/366) differs in 2 samples @01:12:14
14 | (353/366) Accurately ripped, or (1/366) differs in 734 samples @00:00:29-00:00:31, or (1/366) differs in 731 samples @00:00:29-00:00:31
15 | (355/366) Accurately ripped, or (1/366) differs in 25 samples @01:10:51-01:10:52
16 | (351/366) Accurately ripped, or (1/366) differs in 3 samples @05:51:20
[AccurateRip ID: 00275a39-01d98823-e8100410] found.
Track [ CRC | V2 ] Status
01 [ed062abd|90c707d9] (128+158/416) Accurately ripped
02 [905528a9|26f2c89d] (127+155/412) Accurately ripped
03 [44c222f5|bf265240] (126+154/410) Accurately ripped
04 [02e74c5e|ab47e3c4] (125+155/407) Accurately ripped
05 [224f10bb|b6f56090] (127+152/409) Accurately ripped
06 [dc64093b|22aac040] (127+154/408) Accurately ripped
07 [ddbf42f7|de9ecdcc] (125+154/408) Accurately ripped
08 [711a2419|19f9109d] (125+151/403) Accurately ripped
09 [7a21da85|61e76539] (124+154/405) Accurately ripped
10 [944906de|c13e611a] (124+154/408) Accurately ripped
11 [a4b45eed|b75d23c8] (124+154/406) Accurately ripped
12 [a86fbdbe|e0c95a81] (123+150/402) Accurately ripped
13 [6b0d6216|641b0ed9] (123+148/400) Accurately ripped
14 [a2c7779f|448c2b2f] (122+148/396) Accurately ripped
15 [2913746e|949bed91] (123+150/400) Accurately ripped
16 [8ded860c|de1bb849] (124+149/397) Accurately ripped
Offsetted by -286:
01 [5ea2b135] (048/416) Accurately ripped
02 [a30b46ff] (048/412) Accurately ripped
03 [c1274c2b] (048/410) Accurately ripped
04 [b3a69a5c] (046/407) Accurately ripped
05 [677bb171] (048/409) Accurately ripped
06 [23b2f57d] (045/408) Accurately ripped
07 [98c54d11] (048/408) Accurately ripped
08 [b880c113] (045/403) Accurately ripped
09 [5488fd01] (046/405) Accurately ripped
10 [35116d58] (048/408) Accurately ripped
11 [64e9bc75] (048/406) Accurately ripped
12 [8e4b4a0c] (047/402) Accurately ripped
13 [17f61afc] (048/400) Accurately ripped
14 [16b573a7] (045/396) Accurately ripped
15 [625c3cce] (046/400) Accurately ripped
16 [40131ee4] (045/397) Accurately ripped

Track Peak [ CRC32 ] [W/O NULL] [ LOG ]
– 99,4 [C4D6FEC4] [FE79A5F8] CRC32
01 99,4 [1A2DA1D2] [0315565D]
02 99,4 [9D81AA44] [813CCB17]
03 99,4 [C2465297] [C4223ED8]
04 99,4 [8B3C05A6] [0070B17E]
05 99,4 [731CC17C] [390F07B8]
06 99,4 [75F4FE39] [0BE777B1]
07 99,4 [E7473EF7] [669EFB73]
08 99,4 [23648512] [BBA74030]
09 99,4 [4B7EA0D2] [F77B6241]
10 99,4 [A4B18C59] [AD75DF4E]
11 99,4 [1A1F4D0F] [6312B4E6]
12 99,4 [B52CA5C3] [807D133C]
13 99,4 [7465730E] [A1EB5EB0]
14 99,4 [32270FC5] [6C859320]
15 99,4 [26094528] [89FAB3C3]
16 99,4 [001C01B9] [4BA58F32]

foobar2000 1.2 / Dynamic Range Meter 1.1.1
log date: 2018-03-01 23:26:05

––––––––––––––––––––––––––––––––––––––––
Analyzed: Robert Palmer / The Very Best Of Robert Palmer
––––––––––––––––––––––––––––––––––––––––

DR Peak RMS Duration Track
––––––––––––––––––––––––––––––––––––––––
DR10 -0.05 dB -11.49 dB 4:25 01-Addicted To Love
DR10 -0.05 dB -11.41 dB 3:10 02-Bad Case Of Loving You (Doctor, Doctor)
DR9 -0.05 dB -11.30 dB 4:12 03-Simply Irresistible
DR10 -0.05 dB -11.43 dB 5:30 04-Get It On
DR10 -0.05 dB -11.66 dB 3:09 05-Some Guys Have All The Luck
DR11 -0.05 dB -12.39 dB 3:37 06-I Didn't Mean To Turn You On
DR13 -0.05 dB -14.43 dB 4:58 07-Looking For Clues
DR11 -0.05 dB -12.62 dB 4:59 08-You Are In My System
DR11 -0.05 dB -12.54 dB 5:06 09-Some Like It Hot
DR12 -0.05 dB -13.88 dB 4:06 10-Respect Yourself
DR13 -0.05 dB -14.94 dB 3:24 11-I'll Be Your Baby Tonight
DR11 -0.05 dB -12.86 dB 4:00 12-Johnny & Mary
DR11 -0.05 dB -13.35 dB 4:22 13-She Makes My Day
DR10 -0.05 dB -11.96 dB 4:10 14-Know By Now
DR10 -0.05 dB -12.91 dB 3:22 15-Every Kinda People
DR13 -0.05 dB -14.25 dB 5:51 16-Mercy Mercy Me / I Want You
––––––––––––––––––––––––––––––––––––––––

Number of tracks: 16
Official DR value: DR11

Samplerate: 44100 Hz
Channels: 2
Bits per sample: 16
Bitrate: 957 kbps
Codec: FLAC
================================================================================

Robert Palmer - The Very Best Of Robert Palmer (1995)

Robert Palmer - The Very Best Of Robert Palmer (1995)