Subcategories

Robert Plant and The Senational Space Shifters - Live at David Lynch's Festival of Disrupt (2018) [Blu-ray 1080i & BDRip 720p]

Posted By: v3122
Robert Plant and The Senational Space Shifters - Live at David Lynch's Festival of Disrupt (2018) [Blu-ray 1080i & BDRip 720p]

Robert Plant and The Senational Space Shifters - Live at David Lynch's Festival of Disrupt (2018)
Blu-ray: MPEG-4 AVC 1080i, 29.970 fps, 16:9, High Profile 4.1
LPCM 2.0, 48 kHz, 2304 kbps, 24-bit & 1536 kbps, 16-bit
DTS-HD Master Audio 5.1, 48 kHz, 4688 kbps, 24-bit
BDRip: MKV, AVC, 1280x720 (16:9), 29.970 fps, 6 300 Kbps
DTS, 48.0 KHz, 6 ch, 1 510 Kbps / FLAC, 48.0 KHz, 2 ch, 1 774 kbps
Blues Rock, Folk Rock | Scans Included | 01:19:05 | ~ 18.22 or 4.06 Gb

Robert Plant formed his current band The Sensational Space Shifters in 2012 and has been recording and touring with them ever since. Robert Plant has always introduced music from many cultures into his work and the Sensational Space Shifters blend of African rhythms and melodies, rock music, and folk roots is his latest incarnation. In October 2016 they took part in David Lynch's inaugural Festival of Disruption at the Ace Hotel Theater in Los Angeles, an event that raised funds for The David Lynch Foundation. The set featured tracks from the band's 2014 album Lullaby and…The Ceaseless Roar alongside fascinating Space Shifters re-workings of Led Zeppelin classics…
Robert Plant and The Senational Space Shifters - Live at David Lynch's Festival of Disrupt (2018):

Robert Plant and The Senational Space Shifters - Live at David Lynch's Festival of Disrupt (2018) [Blu-ray 1080i & BDRip 720p]

Tracklist:

1. Poor Howard
2. Turn It Up
3. Black Dog
4. Medley: The Enchanter / Rainbow
5. Babe, I'm Gonna Leave You
6. Little Maggie
7. Medley: Hoochie Coochie Man / Whole Lotta Love / Mona
8. Going To California

Bonus Feature
-David Lynch On Creativity
-David Lynch On Meditation
-David Lynch On Music

Disc Title: ROBERTPLANT_BD
Disc Size: 18 558 373 794 bytes
Protection: AACS
BD-Java: No
BDInfo: 0.5.8

Notes:

BDINFO HOME:
Cinema Squid
http://www.cinemasquid.com/blu-ray/tools/bdinfo

INCLUDES FORUMS REPORT FOR:
AVS Forum Blu-ray Audio and Video Specifications Thread
http://www.avsforum.com/avs-vb/showthread.php?t=1155731

WARNING: Report is incomplete because: Scan has not been run.

********************
PLAYLIST: 00002.MPLS
********************

<–- BEGIN FORUMS PASTE –->
                                                                                                                Total   Video                                             
Title                                                           Codec   Length  Movie Size      Disc Size       Bitrate Bitrate Main Audio Track                          Secondary Audio Track
-----                                                           ------  ------- --------------  --------------  ------- ------- ------------------                        ---------------------
00002.MPLS                                                      AVC     0:56:27 0               18 558 373 794  0,00    0,00    LPCM 2.0 2304Kbps (48kHz/24-bit)          DTS-HD Master 5.1 (48kHz/24-bit)


DISC INFO:

Disc Title:     ROBERTPLANT_BD
Disc Size:      18 558 373 794 bytes
Protection:     AACS
BD-Java:        No
BDInfo:         0.5.8

PLAYLIST REPORT:

Name:                   00002.MPLS
Length:                 0:56:27.117 (h:m:s.ms)
Size:                   0 bytes
Total Bitrate:          0,00 Mbps

VIDEO:

Codec                   Bitrate             Description     
-----                   -------             -----------     
MPEG-4 AVC Video        0 kbps              1080i / 29,970 fps / 16:9 / High Profile 4.1

AUDIO:

Codec                           Language        Bitrate         Description     
-----                           --------        -------         -----------     
LPCM Audio                      English         2304 kbps       2.0 / 48 kHz / 2304 kbps / 24-bit
DTS-HD Master Audio             English         0 kbps          5.1 / 48 kHz / 24-bit (DTS Core: 5.1 / 48 kHz / 1509 kbps / 24-bit)

SUBTITLES:

Codec                           Language        Bitrate         Description     
-----                           --------        -------         -----------     
Presentation Graphics           Japanese        0,000 kbps                      

FILES:

Name            Time In         Length          Size            Total Bitrate   
----            -------         ------          ----            -------------   
00002.M2TS      0:00:00.000     0:56:27.117     0               0               

CHAPTERS:

Number          Time In         Length          Avg Video Rate  Max 1-Sec Rate  Max 1-Sec Time  Max 5-Sec Rate  Max 5-Sec Time  Max 10Sec Rate  Max 10Sec Time  Avg Frame Size  Max Frame Size  Max Frame Time  
------          -------         ------          --------------  --------------  --------------  --------------  --------------  --------------  --------------  --------------  --------------  --------------  
1               0:00:00.000     0:04:58.431     0 kbps          0 kbps          00:00:00.000    0 kbps          00:00:00.000    0 kbps          00:00:00.000    0 bytes         0 bytes         00:00:00.000    
2               0:04:58.431     0:05:18.351     0 kbps          0 kbps          00:00:00.000    0 kbps          00:00:00.000    0 kbps          00:00:00.000    0 bytes         0 bytes         00:00:00.000    
3               0:10:16.782     0:06:13.172     0 kbps          0 kbps          00:00:00.000    0 kbps          00:00:00.000    0 kbps          00:00:00.000    0 bytes         0 bytes         00:00:00.000    
4               0:16:29.955     0:02:13.466     0 kbps          0 kbps          00:00:00.000    0 kbps          00:00:00.000    0 kbps          00:00:00.000    0 bytes         0 bytes         00:00:00.000    
5               0:18:43.422     0:04:23.730     0 kbps          0 kbps          00:00:00.000    0 kbps          00:00:00.000    0 kbps          00:00:00.000    0 bytes         0 bytes         00:00:00.000    
6               0:23:07.152     0:10:05.204     0 kbps          0 kbps          00:00:00.000    0 kbps          00:00:00.000    0 kbps          00:00:00.000    0 bytes         0 bytes         00:00:00.000    
7               0:33:12.357     0:05:30.630     0 kbps          0 kbps          00:00:00.000    0 kbps          00:00:00.000    0 kbps          00:00:00.000    0 bytes         0 bytes         00:00:00.000    
8               0:38:42.987     0:09:51.557     0 kbps          0 kbps          00:00:00.000    0 kbps          00:00:00.000    0 kbps          00:00:00.000    0 bytes         0 bytes         00:00:00.000    
9               0:48:34.544     0:07:52.572     0 kbps          0 kbps          00:00:00.000    0 kbps          00:00:00.000    0 kbps          00:00:00.000    0 bytes         0 bytes         00:00:00.000    

STREAM DIAGNOSTICS:

File            PID             Type            Codec           Language                Seconds                 Bitrate                 Bytes           Packets         
----            ---             ----            -----           --------                --------------          --------------          -------------   -----           
00002.M2TS      4113 (0x1011)   0x1B            AVC                                     0                       0                       0               0               
00002.M2TS      4352 (0x1100)   0x80            LPCM            eng (English)           0                       0                       0               0               
00002.M2TS      4353 (0x1101)   0x86            DTS-HD MA       eng (English)           0                       0                       0               0               
00002.M2TS      4608 (0x1200)   0x90            PGS             jpn (Japanese)          0                       0                       0               0               

<–– END FORUMS PASTE ––>

QUICK SUMMARY:

Disc Title: ROBERTPLANT_BD
Disc Size: 18 558 373 794 bytes
Protection: AACS
BD-Java: No
Playlist: 00002.MPLS
Size: 0 bytes
Length: 0:56:27.117
Total Bitrate: 0,00 Mbps
Video: MPEG-4 AVC Video / 0 kbps / 1080i / 29,970 fps / 16:9 / High Profile 4.1
Audio: English / LPCM Audio / 2.0 / 48 kHz / 2304 kbps / 24-bit
Audio: English / DTS-HD Master Audio / 5.1 / 48 kHz / 24-bit (DTS Core: 5.1 / 48 kHz / 1509 kbps / 24-bit)
Subtitle: Japanese / 0,000 kbps


********************
PLAYLIST: 00003.MPLS
********************

<–- BEGIN FORUMS PASTE –->
                                                                                                                Total   Video                                             
Title                                                           Codec   Length  Movie Size      Disc Size       Bitrate Bitrate Main Audio Track                          Secondary Audio Track
-----                                                           ------  ------- --------------  --------------  ------- ------- ------------------                        ---------------------
00003.MPLS                                                      MPEG-2  0:08:56 0               18 558 373 794  0,00    0,00    LPCM 2.0 1536Kbps (48kHz/16-bit)          


DISC INFO:

Disc Title:     ROBERTPLANT_BD
Disc Size:      18 558 373 794 bytes
Protection:     AACS
BD-Java:        No
BDInfo:         0.5.8

PLAYLIST REPORT:

Name:                   00003.MPLS
Length:                 0:08:56.569 (h:m:s.ms)
Size:                   0 bytes
Total Bitrate:          0,00 Mbps

VIDEO:

Codec                   Bitrate             Description     
-----                   -------             -----------     
MPEG-2 Video            0 kbps              480i / 29,970 fps / 16:9

AUDIO:

Codec                           Language        Bitrate         Description     
-----                           --------        -------         -----------     
LPCM Audio                      English         1536 kbps       2.0 / 48 kHz / 1536 kbps / 16-bit

SUBTITLES:

Codec                           Language        Bitrate         Description     
-----                           --------        -------         -----------     
Presentation Graphics           Japanese        0,000 kbps                      

FILES:

Name            Time In         Length          Size            Total Bitrate   
----            -------         ------          ----            -------------   
00007.M2TS      0:00:00.000     0:00:52.285     0               0               
00008.M2TS      0:00:52.285     0:00:56.489     0               0               
00009.M2TS      0:01:48.775     0:03:42.755     0               0               
00010.M2TS      0:05:31.531     0:00:53.820     0               0               
00011.M2TS      0:06:25.351     0:02:31.217     0               0               

CHAPTERS:

Number          Time In         Length          Avg Video Rate  Max 1-Sec Rate  Max 1-Sec Time  Max 5-Sec Rate  Max 5-Sec Time  Max 10Sec Rate  Max 10Sec Time  Avg Frame Size  Max Frame Size  Max Frame Time  
------          -------         ------          --------------  --------------  --------------  --------------  --------------  --------------  --------------  --------------  --------------  --------------  
1               0:00:00.000     0:00:52.285     0 kbps          0 kbps          00:00:00.000    0 kbps          00:00:00.000    0 kbps          00:00:00.000    0 bytes         0 bytes         00:00:00.000    
2               0:00:52.285     0:00:56.489     0 kbps          0 kbps          00:00:00.000    0 kbps          00:00:00.000    0 kbps          00:00:00.000    0 bytes         0 bytes         00:00:00.000    
3               0:01:48.775     0:03:42.755     0 kbps          0 kbps          00:00:00.000    0 kbps          00:00:00.000    0 kbps          00:00:00.000    0 bytes         0 bytes         00:00:00.000    
4               0:05:31.531     0:00:53.820     0 kbps          0 kbps          00:00:00.000    0 kbps          00:00:00.000    0 kbps          00:00:00.000    0 bytes         0 bytes         00:00:00.000    
5               0:06:25.351     0:02:31.217     0 kbps          0 kbps          00:00:00.000    0 kbps          00:00:00.000    0 kbps          00:00:00.000    0 bytes         0 bytes         00:00:00.000    

STREAM DIAGNOSTICS:

File            PID             Type            Codec           Language                Seconds                 Bitrate                 Bytes           Packets         
----            ---             ----            -----           --------                --------------          --------------          -------------   -----           
00007.M2TS      4113 (0x1011)   0x02            MPEG-2                                  0                       0                       0               0               
00007.M2TS      4352 (0x1100)   0x80            LPCM            eng (English)           0                       0                       0               0               
00007.M2TS      4608 (0x1200)   0x90            PGS             jpn (Japanese)          0                       0                       0               0               
00008.M2TS      4113 (0x1011)   0x02            MPEG-2                                  0                       0                       0               0               
00008.M2TS      4352 (0x1100)   0x80            LPCM            eng (English)           0                       0                       0               0               
00008.M2TS      4608 (0x1200)   0x90            PGS             jpn (Japanese)          0                       0                       0               0               
00009.M2TS      4113 (0x1011)   0x02            MPEG-2                                  0                       0                       0               0               
00009.M2TS      4352 (0x1100)   0x80            LPCM            eng (English)           0                       0                       0               0               
00009.M2TS      4608 (0x1200)   0x90            PGS             jpn (Japanese)          0                       0                       0               0               
00010.M2TS      4113 (0x1011)   0x02            MPEG-2                                  0                       0                       0               0               
00010.M2TS      4352 (0x1100)   0x80            LPCM            eng (English)           0                       0                       0               0               
00010.M2TS      4608 (0x1200)   0x90            PGS             jpn (Japanese)          0                       0                       0               0               
00011.M2TS      4113 (0x1011)   0x02            MPEG-2                                  0                       0                       0               0               
00011.M2TS      4352 (0x1100)   0x80            LPCM            eng (English)           0                       0                       0               0               
00011.M2TS      4608 (0x1200)   0x90            PGS             jpn (Japanese)          0                       0                       0               0               

<–– END FORUMS PASTE ––>

QUICK SUMMARY:

Disc Title: ROBERTPLANT_BD
Disc Size: 18 558 373 794 bytes
Protection: AACS
BD-Java: No
Playlist: 00003.MPLS
Size: 0 bytes
Length: 0:08:56.569
Total Bitrate: 0,00 Mbps
Video: MPEG-2 Video / 0 kbps / 480i / 29,970 fps / 16:9
Audio: English / LPCM Audio / 2.0 / 48 kHz / 1536 kbps / 16-bit
Subtitle: Japanese / 0,000 kbps


********************
PLAYLIST: 00005.MPLS
********************

<–- BEGIN FORUMS PASTE –->
                                                                                                                Total   Video                                             
Title                                                           Codec   Length  Movie Size      Disc Size       Bitrate Bitrate Main Audio Track                          Secondary Audio Track
-----                                                           ------  ------- --------------  --------------  ------- ------- ------------------                        ---------------------
00005.MPLS                                                      MPEG-2  0:08:49 0               18 558 373 794  0,00    0,00    LPCM 2.0 1536Kbps (48kHz/16-bit)          


DISC INFO:

Disc Title:     ROBERTPLANT_BD
Disc Size:      18 558 373 794 bytes
Protection:     AACS
BD-Java:        No
BDInfo:         0.5.8

PLAYLIST REPORT:

Name:                   00005.MPLS
Length:                 0:08:49.762 (h:m:s.ms)
Size:                   0 bytes
Total Bitrate:          0,00 Mbps

VIDEO:

Codec                   Bitrate             Description     
-----                   -------             -----------     
MPEG-2 Video            0 kbps              480i / 29,970 fps / 16:9

AUDIO:

Codec                           Language        Bitrate         Description     
-----                           --------        -------         -----------     
LPCM Audio                      English         1536 kbps       2.0 / 48 kHz / 1536 kbps / 16-bit

SUBTITLES:

Codec                           Language        Bitrate         Description     
-----                           --------        -------         -----------     
Presentation Graphics           Japanese        0,000 kbps                      

FILES:

Name            Time In         Length          Size            Total Bitrate   
----            -------         ------          ----            -------------   
00012.M2TS      0:00:00.000     0:01:02.429     0               0               
00013.M2TS      0:01:02.429     0:00:59.726     0               0               
00014.M2TS      0:02:02.155     0:01:00.760     0               0               
00015.M2TS      0:03:02.916     0:00:57.624     0               0               
00016.M2TS      0:04:00.540     0:01:11.538     0               0               
00017.M2TS      0:05:12.078     0:01:13.106     0               0               
00018.M2TS      0:06:25.184     0:01:25.452     0               0               
00019.M2TS      0:07:50.636     0:00:59.125     0               0               

CHAPTERS:

Number          Time In         Length          Avg Video Rate  Max 1-Sec Rate  Max 1-Sec Time  Max 5-Sec Rate  Max 5-Sec Time  Max 10Sec Rate  Max 10Sec Time  Avg Frame Size  Max Frame Size  Max Frame Time  
------          -------         ------          --------------  --------------  --------------  --------------  --------------  --------------  --------------  --------------  --------------  --------------  
1               0:00:00.000     0:01:02.429     0 kbps          0 kbps          00:00:00.000    0 kbps          00:00:00.000    0 kbps          00:00:00.000    0 bytes         0 bytes         00:00:00.000    
2               0:01:02.429     0:00:59.726     0 kbps          0 kbps          00:00:00.000    0 kbps          00:00:00.000    0 kbps          00:00:00.000    0 bytes         0 bytes         00:00:00.000    
3               0:02:02.155     0:01:00.760     0 kbps          0 kbps          00:00:00.000    0 kbps          00:00:00.000    0 kbps          00:00:00.000    0 bytes         0 bytes         00:00:00.000    
4               0:03:02.916     0:00:57.624     0 kbps          0 kbps          00:00:00.000    0 kbps          00:00:00.000    0 kbps          00:00:00.000    0 bytes         0 bytes         00:00:00.000    
5               0:04:00.540     0:01:11.538     0 kbps          0 kbps          00:00:00.000    0 kbps          00:00:00.000    0 kbps          00:00:00.000    0 bytes         0 bytes         00:00:00.000    
6               0:05:12.078     0:01:13.106     0 kbps          0 kbps          00:00:00.000    0 kbps          00:00:00.000    0 kbps          00:00:00.000    0 bytes         0 bytes         00:00:00.000    
7               0:06:25.184     0:01:25.452     0 kbps          0 kbps          00:00:00.000    0 kbps          00:00:00.000    0 kbps          00:00:00.000    0 bytes         0 bytes         00:00:00.000    
8               0:07:50.636     0:00:59.125     0 kbps          0 kbps          00:00:00.000    0 kbps          00:00:00.000    0 kbps          00:00:00.000    0 bytes         0 bytes         00:00:00.000    

STREAM DIAGNOSTICS:

File            PID             Type            Codec           Language                Seconds                 Bitrate                 Bytes           Packets         
----            ---             ----            -----           --------                --------------          --------------          -------------   -----           
00012.M2TS      4113 (0x1011)   0x02            MPEG-2                                  0                       0                       0               0               
00012.M2TS      4352 (0x1100)   0x80            LPCM            eng (English)           0                       0                       0               0               
00012.M2TS      4608 (0x1200)   0x90            PGS             jpn (Japanese)          0                       0                       0               0               
00013.M2TS      4113 (0x1011)   0x02            MPEG-2                                  0                       0                       0               0               
00013.M2TS      4352 (0x1100)   0x80            LPCM            eng (English)           0                       0                       0               0               
00013.M2TS      4608 (0x1200)   0x90            PGS             jpn (Japanese)          0                       0                       0               0               
00014.M2TS      4113 (0x1011)   0x02            MPEG-2                                  0                       0                       0               0               
00014.M2TS      4352 (0x1100)   0x80            LPCM            eng (English)           0                       0                       0               0               
00014.M2TS      4608 (0x1200)   0x90            PGS             jpn (Japanese)          0                       0                       0               0               
00015.M2TS      4113 (0x1011)   0x02            MPEG-2                                  0                       0                       0               0               
00015.M2TS      4352 (0x1100)   0x80            LPCM            eng (English)           0                       0                       0               0               
00015.M2TS      4608 (0x1200)   0x90            PGS             jpn (Japanese)          0                       0                       0               0               
00016.M2TS      4113 (0x1011)   0x02            MPEG-2                                  0                       0                       0               0               
00016.M2TS      4352 (0x1100)   0x80            LPCM            eng (English)           0                       0                       0               0               
00016.M2TS      4608 (0x1200)   0x90            PGS             jpn (Japanese)          0                       0                       0               0               
00017.M2TS      4113 (0x1011)   0x02            MPEG-2                                  0                       0                       0               0               
00017.M2TS      4352 (0x1100)   0x80            LPCM            eng (English)           0                       0                       0               0               
00017.M2TS      4608 (0x1200)   0x90            PGS             jpn (Japanese)          0                       0                       0               0               
00018.M2TS      4113 (0x1011)   0x02            MPEG-2                                  0                       0                       0               0               
00018.M2TS      4352 (0x1100)   0x80            LPCM            eng (English)           0                       0                       0               0               
00018.M2TS      4608 (0x1200)   0x90            PGS             jpn (Japanese)          0                       0                       0               0               
00019.M2TS      4113 (0x1011)   0x02            MPEG-2                                  0                       0                       0               0               
00019.M2TS      4352 (0x1100)   0x80            LPCM            eng (English)           0                       0                       0               0               
00019.M2TS      4608 (0x1200)   0x90            PGS             jpn (Japanese)          0                       0                       0               0               

<–– END FORUMS PASTE ––>

QUICK SUMMARY:

Disc Title: ROBERTPLANT_BD
Disc Size: 18 558 373 794 bytes
Protection: AACS
BD-Java: No
Playlist: 00005.MPLS
Size: 0 bytes
Length: 0:08:49.762
Total Bitrate: 0,00 Mbps
Video: MPEG-2 Video / 0 kbps / 480i / 29,970 fps / 16:9
Audio: English / LPCM Audio / 2.0 / 48 kHz / 1536 kbps / 16-bit
Subtitle: Japanese / 0,000 kbps


********************
PLAYLIST: 00006.MPLS
********************

<–- BEGIN FORUMS PASTE –->
                                                                                                                Total   Video                                             
Title                                                           Codec   Length  Movie Size      Disc Size       Bitrate Bitrate Main Audio Track                          Secondary Audio Track
-----                                                           ------  ------- --------------  --------------  ------- ------- ------------------                        ---------------------
00006.MPLS                                                      MPEG-2  0:04:53 0               18 558 373 794  0,00    0,00    LPCM 2.0 1536Kbps (48kHz/16-bit)          


DISC INFO:

Disc Title:     ROBERTPLANT_BD
Disc Size:      18 558 373 794 bytes
Protection:     AACS
BD-Java:        No
BDInfo:         0.5.8

PLAYLIST REPORT:

Name:                   00006.MPLS
Length:                 0:04:53.226 (h:m:s.ms)
Size:                   0 bytes
Total Bitrate:          0,00 Mbps

VIDEO:

Codec                   Bitrate             Description     
-----                   -------             -----------     
MPEG-2 Video            0 kbps              480i / 29,970 fps / 16:9

AUDIO:

Codec                           Language        Bitrate         Description     
-----                           --------        -------         -----------     
LPCM Audio                      English         1536 kbps       2.0 / 48 kHz / 1536 kbps / 16-bit

SUBTITLES:

Codec                           Language        Bitrate         Description     
-----                           --------        -------         -----------     
Presentation Graphics           Japanese        0,000 kbps                      

FILES:

Name            Time In         Length          Size            Total Bitrate   
----            -------         ------          ----            -------------   
00020.M2TS      0:00:00.000     0:01:01.061     0               0               
00021.M2TS      0:01:01.061     0:00:49.416     0               0               
00022.M2TS      0:01:50.477     0:01:18.945     0               0               
00023.M2TS      0:03:09.422     0:01:43.803     0               0               

CHAPTERS:

Number          Time In         Length          Avg Video Rate  Max 1-Sec Rate  Max 1-Sec Time  Max 5-Sec Rate  Max 5-Sec Time  Max 10Sec Rate  Max 10Sec Time  Avg Frame Size  Max Frame Size  Max Frame Time  
------          -------         ------          --------------  --------------  --------------  --------------  --------------  --------------  --------------  --------------  --------------  --------------  
1               0:00:00.000     0:01:01.061     0 kbps          0 kbps          00:00:00.000    0 kbps          00:00:00.000    0 kbps          00:00:00.000    0 bytes         0 bytes         00:00:00.000    
2               0:01:01.061     0:00:49.416     0 kbps          0 kbps          00:00:00.000    0 kbps          00:00:00.000    0 kbps          00:00:00.000    0 bytes         0 bytes         00:00:00.000    
3               0:01:50.477     0:01:18.945     0 kbps          0 kbps          00:00:00.000    0 kbps          00:00:00.000    0 kbps          00:00:00.000    0 bytes         0 bytes         00:00:00.000    
4               0:03:09.422     0:01:43.803     0 kbps          0 kbps          00:00:00.000    0 kbps          00:00:00.000    0 kbps          00:00:00.000    0 bytes         0 bytes         00:00:00.000    

STREAM DIAGNOSTICS:

File            PID             Type            Codec           Language                Seconds                 Bitrate                 Bytes           Packets         
----            ---             ----            -----           --------                --------------          --------------          -------------   -----           
00020.M2TS      4113 (0x1011)   0x02            MPEG-2                                  0                       0                       0               0               
00020.M2TS      4352 (0x1100)   0x80            LPCM            eng (English)           0                       0                       0               0               
00020.M2TS      4608 (0x1200)   0x90            PGS             jpn (Japanese)          0                       0                       0               0               
00021.M2TS      4113 (0x1011)   0x02            MPEG-2                                  0                       0                       0               0               
00021.M2TS      4352 (0x1100)   0x80            LPCM            eng (English)           0                       0                       0               0               
00021.M2TS      4608 (0x1200)   0x90            PGS             jpn (Japanese)          0                       0                       0               0               
00022.M2TS      4113 (0x1011)   0x02            MPEG-2                                  0                       0                       0               0               
00022.M2TS      4352 (0x1100)   0x80            LPCM            eng (English)           0                       0                       0               0               
00022.M2TS      4608 (0x1200)   0x90            PGS             jpn (Japanese)          0                       0                       0               0               
00023.M2TS      4113 (0x1011)   0x02            MPEG-2                                  0                       0                       0               0               
00023.M2TS      4352 (0x1100)   0x80            LPCM            eng (English)           0                       0                       0               0               
00023.M2TS      4608 (0x1200)   0x90            PGS             jpn (Japanese)          0                       0                       0               0               

<–– END FORUMS PASTE ––>

QUICK SUMMARY:

Disc Title: ROBERTPLANT_BD
Disc Size: 18 558 373 794 bytes
Protection: AACS
BD-Java: No
Playlist: 00006.MPLS
Size: 0 bytes
Length: 0:04:53.226
Total Bitrate: 0,00 Mbps
Video: MPEG-2 Video / 0 kbps / 480i / 29,970 fps / 16:9
Audio: English / LPCM Audio / 2.0 / 48 kHz / 1536 kbps / 16-bit
Subtitle: Japanese / 0,000 kbps


********************
PLAYLIST: 00004.MPLS
********************

<–- BEGIN FORUMS PASTE –->
                                                                                                                Total   Video                                             
Title                                                           Codec   Length  Movie Size      Disc Size       Bitrate Bitrate Main Audio Track                          Secondary Audio Track
-----                                                           ------  ------- --------------  --------------  ------- ------- ------------------                        ---------------------
00004.MPLS                                                      AVC     0:00:45 0               18 558 373 794  0,00    0,00    LPCM 2.0 1536Kbps (48kHz/16-bit)          


DISC INFO:

Disc Title:     ROBERTPLANT_BD
Disc Size:      18 558 373 794 bytes
Protection:     AACS
BD-Java:        No
BDInfo:         0.5.8

PLAYLIST REPORT:

Name:                   00004.MPLS
Length:                 0:00:45.245 (h:m:s.ms)
Size:                   0 bytes
Total Bitrate:          0,00 Mbps

VIDEO:

Codec                   Bitrate             Description     
-----                   -------             -----------     
MPEG-4 AVC Video        0 kbps              1080i / 29,970 fps / 16:9 / High Profile 4.1

AUDIO:

Codec                           Language        Bitrate         Description     
-----                           --------        -------         -----------     
LPCM Audio                      English         1536 kbps       2.0 / 48 kHz / 1536 kbps / 16-bit

SUBTITLES:

Codec                           Language        Bitrate         Description     
-----                           --------        -------         -----------     
Interactive Graphics            Japanese        0,000 kbps                      

FILES:

Name            Time In         Length          Size            Total Bitrate   
----            -------         ------          ----            -------------   
00003.M2TS      0:00:00.000     0:00:45.245     0               0               

CHAPTERS:

Number          Time In         Length          Avg Video Rate  Max 1-Sec Rate  Max 1-Sec Time  Max 5-Sec Rate  Max 5-Sec Time  Max 10Sec Rate  Max 10Sec Time  Avg Frame Size  Max Frame Size  Max Frame Time  
------          -------         ------          --------------  --------------  --------------  --------------  --------------  --------------  --------------  --------------  --------------  --------------  
1               0:00:00.000     0:00:45.245     0 kbps          0 kbps          00:00:00.000    0 kbps          00:00:00.000    0 kbps          00:00:00.000    0 bytes         0 bytes         00:00:00.000    

STREAM DIAGNOSTICS:

File            PID             Type            Codec           Language                Seconds                 Bitrate                 Bytes           Packets         
----            ---             ----            -----           --------                --------------          --------------          -------------   -----           
00003.M2TS      4113 (0x1011)   0x1B            AVC                                     0                       0                       0               0            			  		 	 	  		 	    	 			   		   	  			  	  		 		   	 			   			  	  			     	 			   			  	  		 		 			    
00003.M2TS      4352 (0x1100)   0x80            LPCM            eng (English)           0                       0                       0               0               
00003.M2TS      5120 (0x1400)   0x91            IGS             jpn (Japanese)          0                       0                       0               0               

<–– END FORUMS PASTE ––>

QUICK SUMMARY:

Disc Title: ROBERTPLANT_BD
Disc Size: 18 558 373 794 bytes
Protection: AACS
BD-Java: No
Playlist: 00004.MPLS
Size: 0 bytes
Length: 0:00:45.245
Total Bitrate: 0,00 Mbps
Video: MPEG-4 AVC Video / 0 kbps / 1080i / 29,970 fps / 16:9 / High Profile 4.1
Audio: English / LPCM Audio / 2.0 / 48 kHz / 1536 kbps / 16-bit
Subtitle: Japanese / 0,000 kbps


********************
PLAYLIST: 00007.MPLS
********************

<–- BEGIN FORUMS PASTE –->
                                                                                                                Total   Video                                             
Title                                                           Codec   Length  Movie Size      Disc Size       Bitrate Bitrate Main Audio Track                          Secondary Audio Track
-----                                                           ------  ------- --------------  --------------  ------- ------- ------------------                        ---------------------
00007.MPLS                                                      AVC     0:00:45 0               18 558 373 794  0,00    0,00    LPCM 2.0 1536Kbps (48kHz/16-bit)          


DISC INFO:

Disc Title:     ROBERTPLANT_BD
Disc Size:      18 558 373 794 bytes
Protection:     AACS
BD-Java:        No
BDInfo:         0.5.8

PLAYLIST REPORT:

Name:                   00007.MPLS
Length:                 0:00:45.245 (h:m:s.ms)
Size:                   0 bytes
Total Bitrate:          0,00 Mbps

VIDEO:

Codec                   Bitrate             Description     
-----                   -------             -----------     
MPEG-4 AVC Video        0 kbps              1080i / 29,970 fps / 16:9 / High Profile 4.1

AUDIO:

Codec                           Language        Bitrate         Description     
-----                           --------        -------         -----------     
LPCM Audio                      English         1536 kbps       2.0 / 48 kHz / 1536 kbps / 16-bit

SUBTITLES:

Codec                           Language        Bitrate         Description     
-----                           --------        -------         -----------     
Interactive Graphics            Japanese        0,000 kbps                      

FILES:

Name            Time In         Length          Size            Total Bitrate   
----            -------         ------          ----            -------------   
00006.M2TS      0:00:00.000     0:00:45.245     0               0               

CHAPTERS:

Number          Time In         Length          Avg Video Rate  Max 1-Sec Rate  Max 1-Sec Time  Max 5-Sec Rate  Max 5-Sec Time  Max 10Sec Rate  Max 10Sec Time  Avg Frame Size  Max Frame Size  Max Frame Time  
------          -------         ------          --------------  --------------  --------------  --------------  --------------  --------------  --------------  --------------  --------------  --------------  
1               0:00:00.000     0:00:45.245     0 kbps          0 kbps          00:00:00.000    0 kbps          00:00:00.000    0 kbps          00:00:00.000    0 bytes         0 bytes         00:00:00.000    

STREAM DIAGNOSTICS:

File            PID             Type            Codec           Language                Seconds                 Bitrate                 Bytes           Packets         
----            ---             ----            -----           --------                --------------          --------------          -------------   -----           
00006.M2TS      4113 (0x1011)   0x1B            AVC                                     0                       0                       0               0               
00006.M2TS      4352 (0x1100)   0x80            LPCM            eng (English)           0                       0                       0               0               
00006.M2TS      5120 (0x1400)   0x91            IGS             jpn (Japanese)          0                       0                       0               0               

<–– END FORUMS PASTE ––>

QUICK SUMMARY:

Disc Title: ROBERTPLANT_BD
Disc Size: 18 558 373 794 bytes
Protection: AACS
BD-Java: No
Playlist: 00007.MPLS
Size: 0 bytes
Length: 0:00:45.245
Total Bitrate: 0,00 Mbps
Video: MPEG-4 AVC Video / 0 kbps / 1080i / 29,970 fps / 16:9 / High Profile 4.1
Audio: English / LPCM Audio / 2.0 / 48 kHz / 1536 kbps / 16-bit
Subtitle: Japanese / 0,000 kbps


********************
PLAYLIST: 00001.MPLS
********************

<–- BEGIN FORUMS PASTE –->
                                                                                                                Total   Video                                             
Title                                                           Codec   Length  Movie Size      Disc Size       Bitrate Bitrate Main Audio Track                          Secondary Audio Track
-----                                                           ------  ------- --------------  --------------  ------- ------- ------------------                        ---------------------
00001.MPLS                                                      MPEG-2  0:00:23 0               18 558 373 794  0,00    0,00    LPCM 2.0 1536Kbps (48kHz/16-bit)          


DISC INFO:

Disc Title:     ROBERTPLANT_BD
Disc Size:      18 558 373 794 bytes
Protection:     AACS
BD-Java:        No
BDInfo:         0.5.8

PLAYLIST REPORT:

Name:                   00001.MPLS
Length:                 0:00:23.356 (h:m:s.ms)
Size:                   0 bytes
Total Bitrate:          0,00 Mbps

VIDEO:

Codec                   Bitrate             Description     
-----                   -------             -----------     
MPEG-2 Video            0 kbps              1080i / 29,970 fps / 16:9

AUDIO:

Codec                           Language        Bitrate         Description     
-----                           --------        -------         -----------     
LPCM Audio                      Japanese        1536 kbps       2.0 / 48 kHz / 1536 kbps / 16-bit

FILES:

Name            Time In         Length          Size            Total Bitrate   
----            -------         ------          ----            -------------   
00001.M2TS      0:00:00.000     0:00:23.356     0               0               

CHAPTERS:

Number          Time In         Length          Avg Video Rate  Max 1-Sec Rate  Max 1-Sec Time  Max 5-Sec Rate  Max 5-Sec Time  Max 10Sec Rate  Max 10Sec Time  Avg Frame Size  Max Frame Size  Max Frame Time  
------          -------         ------          --------------  --------------  --------------  --------------  --------------  --------------  --------------  --------------  --------------  --------------  
1               0:00:00.000     0:00:23.356     0 kbps          0 kbps          00:00:00.000    0 kbps          00:00:00.000    0 kbps          00:00:00.000    0 bytes         0 bytes         00:00:00.000    

STREAM DIAGNOSTICS:

File            PID             Type            Codec           Language                Seconds                 Bitrate                 Bytes           Packets         
----            ---             ----            -----           --------                --------------          --------------          -------------   -----           
00001.M2TS      4113 (0x1011)   0x02            MPEG-2                                  0                       0                       0               0               
00001.M2TS      4352 (0x1100)   0x80            LPCM            jpn (Japanese)          0                       0                       0               0               

<–– END FORUMS PASTE ––>

QUICK SUMMARY:

Disc Title: ROBERTPLANT_BD
Disc Size: 18 558 373 794 bytes
Protection: AACS
BD-Java: No
Playlist: 00001.MPLS
Size: 0 bytes
Length: 0:00:23.356
Total Bitrate: 0,00 Mbps
Video: MPEG-2 Video / 0 kbps / 1080i / 29,970 fps / 16:9
Audio: Japanese / LPCM Audio / 2.0 / 48 kHz / 1536 kbps / 16-bit


********************
PLAYLIST: 00000.MPLS
********************

<–- BEGIN FORUMS PASTE –->
                                                                                                                Total   Video                                             
Title                                                           Codec   Length  Movie Size      Disc Size       Bitrate Bitrate Main Audio Track                          Secondary Audio Track
-----                                                           ------  ------- --------------  --------------  ------- ------- ------------------                        ---------------------
00000.MPLS                                                      MPEG-2  0:00:20 0               18 558 373 794  0,00    0,00    LPCM 2.0 1536Kbps (48kHz/16-bit)          


DISC INFO:

Disc Title:     ROBERTPLANT_BD
Disc Size:      18 558 373 794 bytes
Protection:     AACS
BD-Java:        No
BDInfo:         0.5.8

PLAYLIST REPORT:

Name:                   00000.MPLS
Length:                 0:00:20.053 (h:m:s.ms)
Size:                   0 bytes
Total Bitrate:          0,00 Mbps

VIDEO:

Codec                   Bitrate             Description     
-----                   -------             -----------     
MPEG-2 Video            0 kbps              1080i / 29,970 fps / 16:9

AUDIO:

Codec                           Language        Bitrate         Description     
-----                           --------        -------         -----------     
LPCM Audio                      English         1536 kbps       2.0 / 48 kHz / 1536 kbps / 16-bit

FILES:

Name            Time In         Length          Size            Total Bitrate   
----            -------         ------          ----            -------------   
00000.M2TS      0:00:00.000     0:00:20.053     0               0               

CHAPTERS:

Number          Time In         Length          Avg Video Rate  Max 1-Sec Rate  Max 1-Sec Time  Max 5-Sec Rate  Max 5-Sec Time  Max 10Sec Rate  Max 10Sec Time  Avg Frame Size  Max Frame Size  Max Frame Time  
------          -------         ------          --------------  --------------  --------------  --------------  --------------  --------------  --------------  --------------  --------------  --------------  
1               0:00:00.000     0:00:20.053     0 kbps          0 kbps          00:00:00.000    0 kbps          00:00:00.000    0 kbps          00:00:00.000    0 bytes         0 bytes         00:00:00.000    

STREAM DIAGNOSTICS:

File            PID             Type            Codec           Language                Seconds                 Bitrate                 Bytes           Packets         
----            ---             ----            -----           --------                --------------          --------------          -------------   -----           
00000.M2TS      4113 (0x1011)   0x02            MPEG-2                                  0                       0                       0               0               
00000.M2TS      4352 (0x1100)   0x80            LPCM            eng (English)           0                       0                       0               0               

<–– END FORUMS PASTE ––>

QUICK SUMMARY:

Disc Title: ROBERTPLANT_BD
Disc Size: 18 558 373 794 bytes
Protection: AACS
BD-Java: No
Playlist: 00000.MPLS
Size: 0 bytes
Length: 0:00:20.053
Total Bitrate: 0,00 Mbps
Video: MPEG-2 Video / 0 kbps / 1080i / 29,970 fps / 16:9
Audio: English / LPCM Audio / 2.0 / 48 kHz / 1536 kbps / 16-bit



Robert Plant and The Senational Space Shifters - Live at David Lynch's Festival of Disrupt (2018) [Blu-ray 1080i & BDRip 720p]

Robert Plant and The Senational Space Shifters - Live at David Lynch's Festival of Disrupt (2018) [Blu-ray 1080i & BDRip 720p]

Robert Plant and The Senational Space Shifters - Live at David Lynch's Festival of Disrupt (2018) [Blu-ray 1080i & BDRip 720p]

Robert Plant and The Senational Space Shifters - Live at David Lynch's Festival of Disrupt (2018) [Blu-ray 1080i & BDRip 720p]

Robert Plant and The Senational Space Shifters - Live at David Lynch's Festival of Disrupt (2018) [Blu-ray 1080i & BDRip 720p]

Robert Plant and The Senational Space Shifters - Live at David Lynch's Festival of Disrupt (2018) [Blu-ray 1080i & BDRip 720p]

All thanks go to tatuk

Robert Plant or Robert Plant in my Blog

Download Robert Plant and The Senational Space Shifters - Live at David Lynch's Festival of Disrupt (2018):