Subcategories

Robert Davies - Sub Rosa (2006)

Posted By: gribovar
Robert Davies - Sub Rosa (2006)

Robert Davies - Sub Rosa (2006)
EAC Rip | FLAC (image+.cue+log) - 272 MB | MP3 CBR 320 kbps (LAME 3.93) - 166 MB | Covers (5 MB) included
Genre: Ambient | RAR 3% Rec. | Label: dataObscura (DOCD 018)

Robert Davies was born 1964 in Pennsylvania, USA. Grew up listening to progressive bands, art rock, electronic & ambient music. He attributes the occasional darker aspects of his sound to watching too many horror films as a youth, and the more meditative aspects to a deep appreciation of nature and beauty. He strives for an ethereal ambience, something dark but pleasant, deep and entrancing. "Sub Rosa" is a fine collection of meditative and flowing, drone-based ambient, with a rare beauty and delicacy - reminiscent of the best Mathias Grassow.
Tracklist:
01. Cloud Shadows
02. Moon Chart
03. Encrypted Sleep
04. Her Refracted Eyes
05. Fragrance Of Ether
06. River Willow Shallows
07. Cobwebs In Morning Glow
08. Mossy Stone Decay
09. Elemental Spell
10. Evening Shroud
11. Rose Petals Dripping Wet
12. Encrypted Dream
13. Cloud Whispers

Total time: 01:08:14

Exact Audio Copy V0.99 prebeta 3 from 28. July 2007

EAC extraction logfile from 1. June 2008, 23:33

Robert Davies / Sub Rosa

Used drive : HP DVD Writer 940d Adapter: 4 ID: 4

Read mode : Secure
Utilize accurate stream : Yes
Defeat audio cache : Yes
Make use of C2 pointers : No

Read offset correction : 6
Overread into Lead-In and Lead-Out : No
Fill up missing offset samples with silence : Yes
Delete leading and trailing silent blocks : No
Null samples used in CRC calculations : No
Used interface : Installed external ASPI interface

Used output format : User Defined Encoder
Selected bitrate : 320 kBit/s
Quality : High
Add ID3 tag : Yes
Command line compressor : C:\Program Files\Exact Audio Copy\Flac\flac.exe
Additional command line options : –fast -T "ARTIST=%a" -T "TITLE=%t" -T "ALBUM=%g" -T "DATE=%y" -T "TRACKNUMBER=%n" -T "GENRE=%m" %s


TOC of the extracted CD

Track | Start | Length | Start sector | End sector
––––––––––––––––––––––––––––-
1 | 0:02.00 | 5:57.66 | 150 | 26990
2 | 5:59.66 | 4:01.28 | 26991 | 45093
3 | 10:01.19 | 4:57.50 | 45094 | 67418
4 | 14:58.69 | 3:10.64 | 67419 | 81732
5 | 18:09.58 | 4:58.49 | 81733 | 104131
6 | 23:08.32 | 5:05.34 | 104132 | 127040
7 | 28:13.66 | 5:57.58 | 127041 | 153873
8 | 34:11.49 | 4:58.47 | 153874 | 176270
9 | 39:10.21 | 4:34.69 | 176271 | 196889
10 | 43:45.15 | 3:04.43 | 196890 | 210732
11 | 46:49.58 | 10:19.37 | 210733 | 257194
12 | 57:09.20 | 4:58.54 | 257195 | 279598
13 | 62:07.74 | 6:05.73 | 279599 | 307046


Range status and errors

Selected range

Filename F:\__EAC_Released\Robert Davies - Sub Rosa.wav

Peak level 85.1 %
Range quality 100.0 %
Test CRC 9AC4346A
Copy CRC 9AC4346A
Copy OK

No errors occurred


AccurateRip summary

Track 1 not present in database
Track 2 not present in database
Track 3 not present in database
Track 4 not present in database
Track 5 not present in database
Track 6 not present in database
Track 7 not present in database
Track 8 not present in database
Track 9 not present in database
Track 10 not present in database
Track 11 not present in database
Track 12 not present in database
Track 13 not present in database

None of the tracks are present in the AccurateRip database

End of status report

[CUETools log; Date: 14.09.2015 20:43:08; Version: 2.1.4]
Pregap length 00:02:00.
[CTDB TOCID: 2CwKe3zwb6t5sH67iKdWvDqd4xc-] found.
Track | CTDB Status
1 | (1/1) Accurately ripped
2 | (1/1) Accurately ripped
3 | (1/1) Accurately ripped
4 | (1/1) Accurately ripped
5 | (1/1) Accurately ripped
6 | (1/1) Accurately ripped
7 | (1/1) Accurately ripped
8 | (1/1) Accurately ripped
9 | (1/1) Accurately ripped
10 | (1/1) Accurately ripped
11 | (1/1) Accurately ripped
12 | (1/1) Accurately ripped
13 | (1/1) Accurately ripped
[AccurateRip ID: 001f09f9-0138e59d-a00ffb0d] found.
Track [ CRC | V2 ] Status
01 [68c64083|f9310a05] (4+0/4) Accurately ripped
02 [57925a62|b62826a7] (4+0/4) Accurately ripped
03 [227c7a53|9313f466] (4+0/4) Accurately ripped
04 [9f82c951|8873b864] (4+0/4) Accurately ripped
05 [f03c560a|40770d01] (4+0/4) Accurately ripped
06 [fe6bd67a|f42d4516] (4+0/4) Accurately ripped
07 [10852471|33622f59] (4+0/4) Accurately ripped
08 [c046abbc|de659176] (4+0/4) Accurately ripped
09 [c85f9b0a|a82a8187] (4+0/4) Accurately ripped
10 [31b02c78|c11cda9b] (4+0/4) Accurately ripped
11 [2e07d131|86b2c81e] (4+0/4) Accurately ripped
12 [6cc17b28|811c3718] (4+0/4) Accurately ripped
13 [903576e1|6266a430] (4+0/4) Accurately ripped

Track Peak [ CRC32 ] [W/O NULL] [ LOG ]
– 85,1 [7AF6F5B5] [9AC4346A] W/O NULL
01 66,7 [5A81B4ED] [9FB9AED7]
02 85,1 [FAA5ED25] [E6E41A01]
03 58,9 [FC5AF2FC] [92C467F3]
04 78,8 [1DCDD7C6] [B19DA375]
05 61,6 [91CDD866] [B807F493]
06 52,8 [6CA334C3] [81CB696A]
07 56,9 [F21D4327] [9ACD1578]
08 60,4 [C70FA3AF] [3AE3417C]
09 59,9 [981E53E0] [0699D241]
10 69,0 [F98555D3] [50529A6D]
11 69,1 [3327AC78] [C2D6F716]
12 57,6 [D534EDBA] [F726D7B6]
13 55,3 [978B2826] [1FC462CF]

Thanks to EPSmuz

LOSSLESS:
Nitroflare.com
_______________

MP3 320 kbps:
Nitroflare.com

LOSSLESS:
Depositfiles.com
_______________

MP3 320 kbps:
Depositfiles.com