Subcategories

Roberto Colombo - Botte da Orbi (1977) [Reissue 1999]

Posted By: gribovar
Roberto Colombo - Botte da Orbi (1977) [Reissue 1999]

Roberto Colombo - Botte da Orbi (1977) [Reissue 1999]
EAC Rip | FLAC (image+.cue+log) - 235 MB | MP3 CBR 320 kbps (LAME 3.93) - 91 MB | Covers (7 MB) included
Genre: Progressive/Jazz Rock | RAR 3% Rec. | Label: 'mju:zik (C3 P8)

Born on April 29, 1951, Roberto Colombo is a keyboard player, artistic producer and arranger and has worked with bands such as Le Orme, PFM, Finisterre and many other prominent Italian musicians. He's often considered one of the underrated gems in Italy. His solo albums from the 70's have a lot of Frank Zappa influences. In 1976 his first solo album, "Sfogatevi Bestie," was released. 1977 saw the release of "Botte da Orbi." This work verges on progressive and jazz-rock, but is marked by light-hearted ironic tones. He gathers together an all-star band of more than thirty musicians, featuring essentially the cream of the Italian music scene: from Mauro Pagani (PFM) to Walter Calloni (PFM), Ronnie Jackson to Lucio Violin Fabbri (PFM), Stefano Cerri (considered one of the best bass player of those days) to Tullio De Piscopo (another legendary drummer who have been playing with New Trolls on Tempi Dispari), and Ivan Cattaneo (a songwriter who was backed on one album by PFM).

Tracklist:
01. Ascolta Si Fa Sera
02. Botte Da Orbi
03. Fiato Alle Trombe
04. Dai Non Fare Il Romantico
05. Alegher Alegher
06. Danza Disumana
07. Il Ritorno Di U Kembe
08. Fine Del Trentatre

Total time: 35:39

Exact Audio Copy V0.99 prebeta 5 from 4. May 2009

EAC extraction logfile from 19. May 2009, 18:21

Roberto Colombo / Botte da orbi

Used drive : LITE-ON DVDRW LH-20A1P Adapter: 0 ID: 2

Read mode : Secure
Utilize accurate stream : Yes
Defeat audio cache : Yes
Make use of C2 pointers : No

Read offset correction : 6
Overread into Lead-In and Lead-Out : No
Fill up missing offset samples with silence : Yes
Delete leading and trailing silent blocks : No
Null samples used in CRC calculations : Yes
Used interface : Installed external ASPI interface

Used output format : Internal WAV Routines
Sample format : 44.100 Hz; 16 Bit; Stereo


TOC of the extracted CD

Track | Start | Length | Start sector | End sector
––––––––––––––––––––––––––––-
1 | 0:00.00 | 5:15.33 | 0 | 23657
2 | 5:15.33 | 1:54.48 | 23658 | 32255
3 | 7:10.06 | 5:46.23 | 32256 | 58228
4 | 12:56.29 | 4:39.40 | 58229 | 79193
5 | 17:35.69 | 5:42.14 | 79194 | 104857
6 | 23:18.08 | 4:53.37 | 104858 | 126869
7 | 28:11.45 | 6:07.33 | 126870 | 154427
8 | 34:19.03 | 1:20.32 | 154428 | 160459


Range status and errors

Selected range

Filename D:\flogger77\Roberto Colombo - Botte da orbi.wav

Peak level 100.0 %
Range quality 100.0 %
Copy CRC 1E5E39EC
Copy OK

No errors occurred

End of status report

[CUETools log; Date: 23.03.2016 17:06:57; Version: 2.1.4]
[CTDB TOCID: utjL8.ShJ6yajygMPiIzaxYb3fo-] found.
Track | CTDB Status
1 | (2/2) Accurately ripped
2 | (2/2) Accurately ripped
3 | (2/2) Accurately ripped
4 | (2/2) Accurately ripped
5 | (2/2) Accurately ripped
6 | (2/2) Accurately ripped
7 | (2/2) Accurately ripped
8 | (2/2) Accurately ripped
[AccurateRip ID: 000b4a71-004bd52d-5a085b08] found.
Track [ CRC | V2 ] Status
01 [13aa5224|84f8462b] (2+2/4) Accurately ripped
02 [aebef658|31d152ca] (2+2/4) Accurately ripped
03 [6b5ad3be|1cc81026] (2+2/4) Accurately ripped
04 [35148f7a|bc5a8847] (2+2/4) Accurately ripped
05 [61158f59|3ed8e989] (2+2/4) Accurately ripped
06 [b17ce20e|c472caae] (2+2/4) Accurately ripped
07 [6f152360|e26ca6ac] (2+2/4) Accurately ripped
08 [34777335|a742af7d] (2+2/4) Accurately ripped

Track Peak [ CRC32 ] [W/O NULL] [ LOG ]
– 100,0 [1E5E39EC] [DDD6C478] CRC32
01 100,0 [41ECEBED] [5D5CE18E]
02 100,0 [9BA9B6F0] [DEC41211]
03 100,0 [8D672192] [CD5E97A3]
04 99,9 [EF577C2E] [3AE5BA74]
05 100,0 [64D12582] [C18BB18A]
06 100,0 [854ACF02] [5CAEE5FF]
07 100,0 [6B918F07] [24F8F552]
08 100,0 [4975A715] [6EE2F4F1]

Thanks to flogger77

LOSSLESS:
Nitroflare.com
_______________

MP3 320 kbps:
Nitroflare.com

LOSSLESS:
Depositfiles.com
_______________

MP3 320 kbps:
Depositfiles.com