Subcategories

VA - Rock Anthems: The Ultimate Collection (2017)

Posted By: v3122
VA - Rock Anthems: The Ultimate Collection (2017)

VA - Rock Anthems: The Ultimate Collection (2017)
EAC | Flac(Image) + Cue + Log & MP3 CBR 320Kbps
5CD | Universal, ULTIM5CD003 | ~ 2711 or 1178 Mb | Artwork(jpg) -> 57 Mb
Rock, Prog Rock, Classic Rock, Pop Rock, Heavy Metal…

~ Bachman Turner Overdrive; Emerson, Lake & Palmer; Uriah Heep; Gary Moore & Phil Lynott; Billy Idol; Rush and many more! ~

VA - Rock Anthems: The Ultimate Collection (2017):

VA - Rock Anthems: The Ultimate Collection (2017)

Tracklist CD1:

01. Bachman Turner Overdrive - You Ain't Seen Nothing Yet (03:39)
02. Lynyrd Skynyrd - Freebird (03:32)
03. Emerson, Lake & Palmer - Fanfare For The Common Man (02:59)
04. Think Lizzy - Waiting For An Alibi (03:31)
05. Kiss - God Gave Rock 'N' Roll To You (05:19)
06. Motorhead - Bomber (03:41)
07. Girlschool - Race With The Devil (02:52)
08. Uriah Heep - Lady In Black (04:42)
09. Sammy Hagar - Pieces Of My Heart (03:55)
10. Scorpions - Another Piece Of Meat (03:32)
11. The Sensational Alex Harvey Band - Vambo Marble Eye (04:24)
12. Samson - Riding With The Angels (03:40)
13. Diamond Head - Am I Evil (07:21)
14. Nazareth - May The Sunshine (03:31)
15. Joe Walsh - Rocky Mountain Way (03:41)
16. Gary Moore & Phil Lynott - Parisienne Walkways (03:21)
17. Climax Blues Band - Couldn't Get It Right (03:18)
18. Uriah Heep - Easy Livin' (02:36)
19. Ufo - Doctor Doctor'95 (04:27)
20. Girlschool Feat. Motorhead - Please Don't Touch (02:47)

Exact Audio Copy V1.3 from 2. September 2016

Отчёт EAC об извлечении, выполненном 18. июня 2019, 12:21

VA / Ultimate Rock Anthems (cd1of5)

Дисковод: PIONEER DVD-RW DVR-109 Adapter: 3 ID: 0

Режим чтения : Достоверность
Использование точного потока : Да
Отключение кэша аудио : Да
Использование указателей C2 : Нет

Коррекция смещения при чтении : 48
Способность читать области Lead-in и Lead-out : Нет
Заполнение пропущенных сэмплов тишиной : Да
Удаление блоков с тишиной в начале и конце : Нет
При вычислениях CRC использовались нулевые сэмплы : Да
Интерфейс : Установленный внешний ASPI-интерфейс

Выходной формат : Пользовательский кодировщик
Выбранный битрейт : 128 kBit/s
Качество : Высокий
Добавление ID3-тега : Нет
Утилита сжатия : C:\Program Files\Exact Audio Copy\FLAC\FLAC.EXE
Дополнительные параметры : -V -8 -T "Genre=%genre%" -T "Artist=%artist%" -T "Title=%title%" -T "Album=%albumtitle%" -T "Date=%year%" -T "Tracknumber=%tracknr%" -T "Comment=%comment%" %source%


TOC извлечённого CD

Трек | Старт | Длительность | Начальный сектор | Конечный сектор
––––––––––––––––––––––––––––––––––-
1 | 0:00.00 | 3:39.60 | 0 | 16484
2 | 3:39.60 | 3:32.23 | 16485 | 32407
3 | 7:12.08 | 2:59.45 | 32408 | 45877
4 | 10:11.53 | 3:31.29 | 45878 | 61731
5 | 13:43.07 | 5:19.66 | 61732 | 85722
6 | 19:02.73 | 3:41.20 | 85723 | 102317
7 | 22:44.18 | 2:52.00 | 102318 | 115217
8 | 25:36.18 | 4:42.53 | 115218 | 136420
9 | 30:18.71 | 3:55.09 | 136421 | 154054
10 | 34:14.05 | 3:32.13 | 154055 | 169967
11 | 37:46.18 | 4:24.40 | 169968 | 189807
12 | 42:10.58 | 3:40.37 | 189808 | 206344
13 | 45:51.20 | 7:21.74 | 206345 | 239493
14 | 53:13.19 | 3:31.37 | 239494 | 255355
15 | 56:44.56 | 3:41.39 | 255356 | 271969
16 | 60:26.20 | 3:21.15 | 271970 | 287059
17 | 63:47.35 | 3:18.42 | 287060 | 301951
18 | 67:06.02 | 2:36.41 | 301952 | 313692
19 | 69:42.43 | 4:27.38 | 313693 | 333755
20 | 74:10.06 | 2:47.16 | 333756 | 346296


Характеристики диапазона извлечения и сообщения об ошибках

Выбранный диапазон

Имя файла I:\MOI_RAZDACI\VA_Rock.Anthems.The.Ultimate.Collection_2017\VA_Rock.Anthems.The.Ultimate.Collection_2017\01-CD\VA - Ultimate Rock Anthems (cd1of5).wav

Пиковый уровень 100.0 %
Скорость извлечения 5.1 X
Качество диапазона 100.0 %
CRC теста AC81C87A
CRC копии AC81C87A
Копирование… OK

Ошибок не произошло


AccurateRip: сводка

Трек 1 отсутствует в базе данных
Трек 2 отсутствует в базе данных
Трек 3 отсутствует в базе данных
Трек 4 отсутствует в базе данных
Трек 5 отсутствует в базе данных
Трек 6 отсутствует в базе данных
Трек 7 отсутствует в базе данных
Трек 8 отсутствует в базе данных
Трек 9 отсутствует в базе данных
Трек 10 отсутствует в базе данных
Трек 11 отсутствует в базе данных
Трек 12 отсутствует в базе данных
Трек 13 отсутствует в базе данных
Трек 14 отсутствует в базе данных
Трек 15 отсутствует в базе данных
Трек 16 отсутствует в базе данных
Трек 17 отсутствует в базе данных
Трек 18 отсутствует в базе данных
Трек 19 отсутствует в базе данных
Трек 20 отсутствует в базе данных

Ни одного трека нет в базе AccurateRip

Конец отчёта

–– CUETools DB Plugin V2.1.6

[CTDB TOCID: E1mBpMx8c1Kria3uUJWmkj96WY4-] found
Submit result: E1mBpMx8c1Kria3uUJWmkj96WY4- has been confirmed
Track | CTDB Status
1 | (14/14) Accurately ripped
2 | (14/14) Accurately ripped
3 | (14/14) Accurately ripped
4 | (14/14) Accurately ripped
5 | (14/14) Accurately ripped
6 | (14/14) Accurately ripped
7 | (14/14) Accurately ripped
8 | (14/14) Accurately ripped
9 | (14/14) Accurately ripped
10 | (14/14) Accurately ripped
11 | (14/14) Accurately ripped
12 | (14/14) Accurately ripped
13 | (14/14) Accurately ripped
14 | (14/14) Accurately ripped
15 | (14/14) Accurately ripped
16 | (14/14) Accurately ripped
17 | (14/14) Accurately ripped
18 | (14/14) Accurately ripped
19 | (14/14) Accurately ripped
20 | (14/14) Accurately ripped


==== Контрольная сумма отчёта 30713D74398B1E8855DB086B18E25B7573BA3AB5B49F5F75E93EA9C569F9A463 ====


VA - Rock Anthems: The Ultimate Collection (2017)

Tracklist CD2:

01. Rush - The Spirit Of Radio (04:58)
02. Status Quo - Whatever You Want (04:02)
03. Rainbow - I Surrender (03:18)
04. Motorhead - Overkill (05:12)
05. Asia - Heat Of The Moment (03:52)
06. Lone Justice - I Found Love (04:14)
07. Gary Moore - Really Gonna Rock Tonight (03:48)
08. Hanoi Rocks - I Want You (03:14)
09. Magnum - Just Like An Arrow (03:22)
10. Dio - Holy Diver (04:20)
11. Cher - I Found Someone (03:43)
12. Heart - These Dreams (04:15)
13. Kim Carnes - Better Davis Eyes (03:45)
14. Sam Brown - Stop (03:59)
15. T'Pau - China In Your Hand (04:05)
16. Billy Idol - Eyes Without A Face (04:10)
17. Scorpions - Wind Of Change (05:11)
18. The Pat Travers Band - Boom Boom (Out Go The Lights) (02:49)
19. Lemmy Kilmister & Wendy O'Williams - Stand By Your Man (03:04)

Exact Audio Copy V1.3 from 2. September 2016

Отчёт EAC об извлечении, выполненном 18. июня 2019, 12:47

VA / Ultimate Rock Anthems (cd2of5)

Дисковод: PIONEER DVD-RW DVR-109 Adapter: 3 ID: 0

Режим чтения : Достоверность
Использование точного потока : Да
Отключение кэша аудио : Да
Использование указателей C2 : Нет

Коррекция смещения при чтении : 48
Способность читать области Lead-in и Lead-out : Нет
Заполнение пропущенных сэмплов тишиной : Да
Удаление блоков с тишиной в начале и конце : Нет
При вычислениях CRC использовались нулевые сэмплы : Да
Интерфейс : Установленный внешний ASPI-интерфейс

Выходной формат : Пользовательский кодировщик
Выбранный битрейт : 128 kBit/s
Качество : Высокий
Добавление ID3-тега : Нет
Утилита сжатия : C:\Program Files\Exact Audio Copy\FLAC\FLAC.EXE
Дополнительные параметры : -V -8 -T "Genre=%genre%" -T "Artist=%artist%" -T "Title=%title%" -T "Album=%albumtitle%" -T "Date=%year%" -T "Tracknumber=%tracknr%" -T "Comment=%comment%" %source%


TOC извлечённого CD

Трек | Старт | Длительность | Начальный сектор | Конечный сектор
––––––––––––––––––––––––––––––––––-
1 | 0:00.00 | 4:58.65 | 0 | 22414
2 | 4:58.65 | 4:02.05 | 22415 | 40569
3 | 9:00.70 | 3:18.65 | 40570 | 55484
4 | 12:19.60 | 5:12.70 | 55485 | 78954
5 | 17:32.55 | 3:52.35 | 78955 | 96389
6 | 21:25.15 | 4:14.51 | 96390 | 115490
7 | 25:39.66 | 3:48.25 | 115491 | 132615
8 | 29:28.16 | 3:14.21 | 132616 | 147186
9 | 32:42.37 | 3:22.22 | 147187 | 162358
10 | 36:04.59 | 4:20.31 | 162359 | 181889
11 | 40:25.15 | 3:43.30 | 181890 | 198644
12 | 44:08.45 | 4:15.56 | 198645 | 217825
13 | 48:24.26 | 3:45.00 | 217826 | 234700
14 | 52:09.26 | 3:59.74 | 234701 | 252699
15 | 56:09.25 | 4:05.60 | 252700 | 271134
16 | 60:15.10 | 4:10.04 | 271135 | 289888
17 | 64:25.14 | 5:11.35 | 289889 | 313248
18 | 69:36.49 | 2:49.04 | 313249 | 325927
19 | 72:25.53 | 3:04.18 | 325928 | 339745


Характеристики диапазона извлечения и сообщения об ошибках

Выбранный диапазон

Имя файла I:\MOI_RAZDACI\VA_Rock.Anthems.The.Ultimate.Collection_2017\VA_Rock.Anthems.The.Ultimate.Collection_2017\02-CD\VA - Ultimate Rock Anthems (cd2of5).wav

Пиковый уровень 100.0 %
Скорость извлечения 8.2 X
Качество диапазона 100.0 %
CRC теста 8114B0CD
CRC копии 8114B0CD
Копирование… OK

Ошибок не произошло


AccurateRip: сводка

Трек 1 отсутствует в базе данных
Трек 2 отсутствует в базе данных
Трек 3 отсутствует в базе данных
Трек 4 отсутствует в базе данных
Трек 5 отсутствует в базе данных
Трек 6 отсутствует в базе данных
Трек 7 отсутствует в базе данных
Трек 8 отсутствует в базе данных
Трек 9 отсутствует в базе данных
Трек 10 отсутствует в базе данных
Трек 11 отсутствует в базе данных
Трек 12 отсутствует в базе данных
Трек 13 отсутствует в базе данных
Трек 14 отсутствует в базе данных
Трек 15 отсутствует в базе данных
Трек 16 отсутствует в базе данных
Трек 17 отсутствует в базе данных
Трек 18 отсутствует в базе данных
Трек 19 отсутствует в базе данных

Ни одного трека нет в базе AccurateRip

Конец отчёта

–– CUETools DB Plugin V2.1.6

[CTDB TOCID: gJcAjBPxulzA3qeOZzD6VAWtFWw-] found
Submit result: gJcAjBPxulzA3qeOZzD6VAWtFWw- has been confirmed
Track | CTDB Status
1 | (15/15) Accurately ripped
2 | (15/15) Accurately ripped
3 | (15/15) Accurately ripped
4 | (15/15) Accurately ripped
5 | (15/15) Accurately ripped
6 | (15/15) Accurately ripped
7 | (15/15) Accurately ripped
8 | (15/15) Accurately ripped
9 | (15/15) Accurately ripped
10 | (15/15) Accurately ripped
11 | (15/15) Accurately ripped
12 | (15/15) Accurately ripped
13 | (15/15) Accurately ripped
14 | (15/15) Accurately ripped
15 | (15/15) Accurately ripped
16 | (15/15) Accurately ripped
17 | (15/15) Accurately ripped
18 | (15/15) Accurately ripped
19 | (15/15) Accurately ripped


==== Контрольная сумма отчёта D028CE7A71A7AA5F464F032E987CB16841F9F156ADBDFFCEC22545C38705D1AD ====


VA - Rock Anthems: The Ultimate Collection (2017)

Tracklist CD3:

01. Free - All Right Now (04:13)
02. Elton John - Saturday Night's Alright (For Fighting) (04:53)
03. Rod Stewart - Maggie May (03:43)
04. Stealer's Wheel - Stuck In The Middle With You (03:24)
05. Atomic Rooster - Devil'sAnswer (03:28)
06. Status Quo - Down The Dustpipe (02:04)
07. Nazareth - This Flight Tonight (03:23)
08. Velvet Underground - I'm Waiting For The Man (04:39)
09. Traffic - Paper Sun (03:23)
10. Matthew's Southern Comfort - Woodstock (04:32)
11. Thunderclap Newman - Something In The Air (03:55)
12. Baker Gurvitz Army - Love Is (02:50)
13. The Rattles - The Witch (02:57)
14. Proco Harum - Pandora's Box (03:35)
15. Caravan - Memory Lain, Hugh (05:03)
16. Emerson, Lake & Palmer - Jerusalem (02:45)
17. David Byron - Saturday Night (02:16)
18. Ken Hensley - When Evening Comes (04:37)
19. Juicy Lucy - Who Do You Love (03:01)
20. Atomic Rooster - Tomorrow Night (03:58)
21. Frijid Pink - House of The Rising Sun (04:43)

Exact Audio Copy V1.3 from 2. September 2016

Отчёт EAC об извлечении, выполненном 18. июня 2019, 14:14

VA / Ultimate Rock Anthems (cd3of5)

Дисковод: PIONEER DVD-RW DVR-109 Adapter: 3 ID: 0

Режим чтения : Достоверность
Использование точного потока : Да
Отключение кэша аудио : Да
Использование указателей C2 : Нет

Коррекция смещения при чтении : 48
Способность читать области Lead-in и Lead-out : Нет
Заполнение пропущенных сэмплов тишиной : Да
Удаление блоков с тишиной в начале и конце : Нет
При вычислениях CRC использовались нулевые сэмплы : Да
Интерфейс : Установленный внешний ASPI-интерфейс

Выходной формат : Пользовательский кодировщик
Выбранный битрейт : 128 kBit/s
Качество : Высокий
Добавление ID3-тега : Нет
Утилита сжатия : C:\Program Files\Exact Audio Copy\FLAC\FLAC.EXE
Дополнительные параметры : -V -8 -T "Genre=%genre%" -T "Artist=%artist%" -T "Title=%title%" -T "Album=%albumtitle%" -T "Date=%year%" -T "Tracknumber=%tracknr%" -T "Comment=%comment%" %source%


TOC извлечённого CD

Трек | Старт | Длительность | Начальный сектор | Конечный сектор
––––––––––––––––––––––––––––––––––-
1 | 0:00.00 | 4:13.02 | 0 | 18976
2 | 4:13.02 | 4:53.03 | 18977 | 40954
3 | 9:06.05 | 3:43.16 | 40955 | 57695
4 | 12:49.21 | 3:24.16 | 57696 | 73011
5 | 16:13.37 | 3:28.03 | 73012 | 88614
6 | 19:41.40 | 2:04.65 | 88615 | 97979
7 | 21:46.30 | 3:23.21 | 97980 | 113225
8 | 25:09.51 | 4:39.28 | 113226 | 134178
9 | 29:49.04 | 3:23.36 | 134179 | 149439
10 | 33:12.40 | 4:32.06 | 149440 | 169845
11 | 37:44.46 | 3:55.54 | 169846 | 187524
12 | 41:40.25 | 2:50.61 | 187525 | 200335
13 | 44:31.11 | 2:57.34 | 200336 | 213644
14 | 47:28.45 | 3:35.41 | 213645 | 229810
15 | 51:04.11 | 5:03.63 | 229811 | 252598
16 | 56:07.74 | 2:45.45 | 252599 | 265018
17 | 58:53.44 | 2:16.72 | 265019 | 275290
18 | 61:10.41 | 4:37.46 | 275291 | 296111
19 | 65:48.12 | 3:01.71 | 296112 | 309757
20 | 68:50.08 | 3:58.35 | 309758 | 327642
21 | 72:48.43 | 4:43.74 | 327643 | 348941


Характеристики диапазона извлечения и сообщения об ошибках

Выбранный диапазон

Имя файла I:\MOI_RAZDACI\VA_Rock.Anthems.The.Ultimate.Collection_2017\VA_Rock.Anthems.The.Ultimate.Collection_2017\03-CD\VA - Ultimate Rock Anthems (cd3of5).wav

Пиковый уровень 100.0 %
Скорость извлечения 2.1 X
Качество диапазона 100.0 %
CRC теста 38889A17
CRC копии 38889A17
Копирование… OK

Ошибок не произошло


AccurateRip: сводка

Трек 1 отсутствует в базе данных
Трек 2 отсутствует в базе данных
Трек 3 отсутствует в базе данных
Трек 4 отсутствует в базе данных
Трек 5 отсутствует в базе данных
Трек 6 отсутствует в базе данных
Трек 7 отсутствует в базе данных
Трек 8 отсутствует в базе данных
Трек 9 отсутствует в базе данных
Трек 10 отсутствует в базе данных
Трек 11 отсутствует в базе данных
Трек 12 отсутствует в базе данных
Трек 13 отсутствует в базе данных
Трек 14 отсутствует в базе данных
Трек 15 отсутствует в базе данных
Трек 16 отсутствует в базе данных
Трек 17 отсутствует в базе данных
Трек 18 отсутствует в базе данных
Трек 19 отсутствует в базе данных
Трек 20 отсутствует в базе данных
Трек 21 отсутствует в базе данных

Ни одного трека нет в базе AccurateRip

Конец отчёта

–– CUETools DB Plugin V2.1.6

[CTDB TOCID: ZVLDFBOWgBoZ5JGq_mQvHvxOrjE-] found
Submit result: ZVLDFBOWgBoZ5JGq_mQvHvxOrjE- has been confirmed
Track | CTDB Status
1 | (13/13) Accurately ripped
2 | (13/13) Accurately ripped
3 | (13/13) Accurately ripped
4 | (13/13) Accurately ripped
5 | (13/13) Accurately ripped
6 | (13/13) Accurately ripped
7 | (13/13) Accurately ripped
8 | (13/13) Accurately ripped
9 | (13/13) Accurately ripped
10 | (13/13) Accurately ripped
11 | (13/13) Accurately ripped
12 | (13/13) Accurately ripped
13 | (13/13) Accurately ripped
14 | (13/13) Accurately ripped
15 | (13/13) Accurately ripped
16 | (13/13) Accurately ripped
17 | (13/13) Accurately ripped
18 | (13/13) Accurately ripped
19 | (13/13) Accurately ripped
20 | (13/13) Accurately ripped
21 | (13/13) Accurately ripped


==== Контрольная сумма отчёта 9B5C77737A7DD03D8B966D414651803EB4581DBEDBA5CC2FDA5ACBADF11CA732 ====


VA - Rock Anthems: The Ultimate Collection (2017)

Tracklist CD4:

01. Simple Minds - Don't You Forget About Me (04:23)
02. Big Country - Fields Of Fire (400 Miles) (03:33)
03. The Jam - The Modern World (02:32)
04. Picture This - Blondie (02:55)
05. The Runaways - Cherry Bomb (02:19)
06. New York Dolls - Personality Crisis (03:42)
07. The Damned - Lovely Money (05:22)
08. Rose Tattoo - Rock'n'Roll Outlaw (03:21)
09. Zodiac Mindwarp & The Love Reaction - Prime Mover (03:13)
10. Maria McKee - Show Me Heaven (03:56)
11. The Mission - Wasteland (03:57)
12. Kula Shaker - Hush (02:56)
13. The Cooper Temple Clause - Who Needs Enemies (04:51)
14. Ocean Colour Scene - Hundred Mile High City (03:59)
15. The Dandy Warhols - Boys Better (04:31)
16. Iggy Pop - Real Wild Child (Wild One) (03:37)
17. Sonic Youth - Sugar Kane (05:58)
18. Soundgarden - Pretty Noose (02:41)
19. The Damned - Life Goes On (04:05)
20. Kula Shaker - Hey Dude (04:09)

Exact Audio Copy V1.3 from 2. September 2016

Отчёт EAC об извлечении, выполненном 18. июня 2019, 14:39

VA / Ultimate Rock Anthems (cd4of5)

Дисковод: PIONEER DVD-RW DVR-109 Adapter: 3 ID: 0

Режим чтения : Достоверность
Использование точного потока : Да
Отключение кэша аудио : Да
Использование указателей C2 : Нет

Коррекция смещения при чтении : 48
Способность читать области Lead-in и Lead-out : Нет
Заполнение пропущенных сэмплов тишиной : Да
Удаление блоков с тишиной в начале и конце : Нет
При вычислениях CRC использовались нулевые сэмплы : Да
Интерфейс : Установленный внешний ASPI-интерфейс

Выходной формат : Пользовательский кодировщик
Выбранный битрейт : 128 kBit/s
Качество : Высокий
Добавление ID3-тега : Нет
Утилита сжатия : C:\Program Files\Exact Audio Copy\FLAC\FLAC.EXE
Дополнительные параметры : -V -8 -T "Genre=%genre%" -T "Artist=%artist%" -T "Title=%title%" -T "Album=%albumtitle%" -T "Date=%year%" -T "Tracknumber=%tracknr%" -T "Comment=%comment%" %source%


TOC извлечённого CD

Трек | Старт | Длительность | Начальный сектор | Конечный сектор
––––––––––––––––––––––––––––––––––-
1 | 0:00.00 | 4:23.14 | 0 | 19738
2 | 4:23.14 | 3:33.59 | 19739 | 35772
3 | 7:56.73 | 2:32.37 | 35773 | 47209
4 | 10:29.35 | 2:55.18 | 47210 | 60352
5 | 13:24.53 | 2:19.46 | 60353 | 70823
6 | 15:44.24 | 3:42.54 | 70824 | 87527
7 | 19:27.03 | 5:22.21 | 87528 | 111698
8 | 24:49.24 | 3:21.20 | 111699 | 126793
9 | 28:10.44 | 3:13.58 | 126794 | 141326
10 | 31:24.27 | 3:56.72 | 141327 | 159098
11 | 35:21.24 | 3:57.69 | 159099 | 176942
12 | 39:19.18 | 2:56.11 | 176943 | 190153
13 | 42:15.29 | 4:51.33 | 190154 | 212011
14 | 47:06.62 | 3:59.40 | 212012 | 229976
15 | 51:06.27 | 4:31.64 | 229977 | 250365
16 | 55:38.16 | 3:37.07 | 250366 | 266647
17 | 59:15.23 | 5:58.04 | 266648 | 293501
18 | 65:13.27 | 2:41.67 | 293502 | 305643
19 | 67:55.19 | 4:05.14 | 305644 | 324032
20 | 72:00.33 | 4:09.14 | 324033 | 342721


Характеристики диапазона извлечения и сообщения об ошибках

Выбранный диапазон

Имя файла I:\MOI_RAZDACI\VA_Rock.Anthems.The.Ultimate.Collection_2017\VA_Rock.Anthems.The.Ultimate.Collection_2017\04-CD\VA - Ultimate Rock Anthems (cd4of5).wav

Пиковый уровень 99.9 %
Скорость извлечения 8.2 X
Качество диапазона 99.9 %
CRC теста 04997A04
CRC копии 04997A04
Копирование… OK

Ошибок не произошло


AccurateRip: сводка

Трек 1 отсутствует в базе данных
Трек 2 отсутствует в базе данных
Трек 3 отсутствует в базе данных
Трек 4 отсутствует в базе данных
Трек 5 отсутствует в базе данных
Трек 6 отсутствует в базе данных
Трек 7 отсутствует в базе данных
Трек 8 отсутствует в базе данных
Трек 9 отсутствует в базе данных
Трек 10 отсутствует в базе данных
Трек 11 отсутствует в базе данных
Трек 12 отсутствует в базе данных
Трек 13 отсутствует в базе данных
Трек 14 отсутствует в базе данных
Трек 15 отсутствует в базе данных
Трек 16 отсутствует в базе данных
Трек 17 отсутствует в базе данных
Трек 18 отсутствует в базе данных
Трек 19 отсутствует в базе данных
Трек 20 отсутствует в базе данных

Ни одного трека нет в базе AccurateRip

Конец отчёта

–– CUETools DB Plugin V2.1.6

[CTDB TOCID: 4w8fHr6crZisZdfhbJbw7E7BMNA-] found
Submit result: 4w8fHr6crZisZdfhbJbw7E7BMNA- has been confirmed
Track | CTDB Status
1 | (14/14) Accurately ripped
2 | (14/14) Accurately ripped
3 | (14/14) Accurately ripped
4 | (14/14) Accurately ripped
5 | (14/14) Accurately ripped
6 | (14/14) Accurately ripped
7 | (14/14) Accurately ripped
8 | (14/14) Accurately ripped
9 | (14/14) Accurately ripped
10 | (14/14) Accurately ripped
11 | (14/14) Accurately ripped
12 | (14/14) Accurately ripped
13 | (14/14) Accurately ripped
14 | (14/14) Accurately ripped
15 | (14/14) Accurately ripped
16 | (14/14) Accurately ripped
17 | (14/14) Accurately ripped
18 | (14/14) Accurately ripped
19 | (14/14) Accurately ripped
20 | (14/14) Accurately ripped


==== Контрольная сумма отчёта 1FABF6237BB9BA3BBEAD23B5F7B0301B66E504481E1ACC91AE564A1E58B65ED5 ====


VA - Rock Anthems: The Ultimate Collection (2017)

Tracklist CD5:

01. Extreme - Hole Hearted (03:39)
02. Little Angels - Too Much Too Young (04:23)
03. Anthrax - I'm The Man (03:04)
04. Thunder - Cosmetic Punk (03:36)
05. Helloween - Dr. Stein (05:01)]
06. Magnum - The Lights Burned Out (04:29)
07. Dokken - Breaking The Chains (03:57)
08. Gene Simmons - Carnival Of Souls (03:28)
09. Therapy? - Screamager (02:40)
10. Tesla - Love Song (04:05)
11. Anvil - Badass Rock N Roll (04:36)
12. Billy Idol - Scream (03:53)
13. The Cooper Temple Clause - Promises Promises (03:19)
14. Black Rebel Motorcycle Club - Ain't No Easy Way (02:38)
15. Corrosion Of Conformity - Stare Too Long (04:55)
16. Helloween - I Want Out (04:22)
17. Evergrey - Monday Morning Apocalypse (03:11)
18. Prong - Turnover (03:35)
19. Tides From Nebula - The Lifter (06:02)
20. A Pale Horse Named Death - Devil In The Closet (03:41)

Exact Audio Copy V1.3 from 2. September 2016

Отчёт EAC об извлечении, выполненном 18. июня 2019, 15:57

VA / Ultimate Rock Anthems (cd5of5)

Дисковод: PIONEER DVD-RW DVR-109 Adapter: 3 ID: 0

Режим чтения : Достоверность
Использование точного потока : Да
Отключение кэша аудио : Да
Использование указателей C2 : Нет

Коррекция смещения при чтении : 48
Способность читать области Lead-in и Lead-out : Нет
Заполнение пропущенных сэмплов тишиной : Да
Удаление блоков с тишиной в начале и конце : Нет
При вычислениях CRC использовались нулевые сэмплы : Да
Интерфейс : Установленный внешний ASPI-интерфейс

Выходной формат : Пользовательский кодировщик
Выбранный битрейт : 128 kBit/s
Качество : Высокий
Добавление ID3-тега : Нет
Утилита сжатия : C:\Program Files\Exact Audio Copy\FLAC\FLAC.EXE
Дополнительные параметры : -V -8 -T "Genre=%genre%" -T "Artist=%artist%" -T "Title=%title%" -T "Album=%albumtitle%" -T "Date=%year%" -T "Tracknumber=%tracknr%" -T "Comment=%comment%" %source%


TOC извлечённого CD

Трек | Старт | Длительность | Начальный сектор | Конечный сектор
––––––––––––––––––––––––––––––––––-
1 | 0:00.00 | 3:39.17 | 0 | 16441
2 | 3:39.17 | 4:23.07 | 16442 | 36173
3 | 8:02.24 | 3:04.18 | 36174 | 49991
4 | 11:06.42 | 3:36.48 | 49992 | 66239
5 | 14:43.15 | 5:01.71 | 66240 | 88885
6 | 19:45.11 | 4:29.03 | 88886 | 109063
7 | 24:14.14 | 3:57.70 | 109064 | 126908
8 | 28:12.09 | 3:28.55 | 126909 | 142563
9 | 31:40.64 | 2:40.22 | 142564 | 154585
10 | 34:21.11 | 4:05.53 | 154586 | 173013
11 | 38:26.64 | 4:36.48 | 173014 | 193761
12 | 43:03.37 | 3:53.14 | 193762 | 211250
13 | 46:56.51 | 3:19.44 | 211251 | 226219
14 | 50:16.20 | 2:38.40 | 226220 | 238109
15 | 52:54.60 | 4:55.71 | 238110 | 260305
16 | 57:50.56 | 4:22.27 | 260306 | 279982
17 | 62:13.08 | 3:11.54 | 279983 | 294361
18 | 65:24.62 | 3:35.32 | 294362 | 310518
19 | 69:00.19 | 6:02.42 | 310519 | 337710
20 | 75:02.61 | 3:41.58 | 337711 | 354343


Характеристики диапазона извлечения и сообщения об ошибках

Выбранный диапазон

Имя файла I:\MOI_RAZDACI\VA_Rock.Anthems.The.Ultimate.Collection_2017\VA_Rock.Anthems.The.Ultimate.Collection_2017\05-CD\VA - Ultimate Rock Anthems (cd5of5).wav

Пиковый уровень 100.0 %
Скорость извлечения 2.1 X
Качество диапазона 100.0 %
CRC теста A6B915D2
CRC копии A6B915D2
Копирование… OK

Ошибок не произошло


AccurateRip: сводка

Трек 1 отсутствует в базе данных
Трек 2 отсутствует в базе данных
Трек 3 отсутствует в базе данных
Трек 4 отсутствует в базе данных
Трек 5 отсутствует в базе данных
Трек 6 отсутствует в базе данных
Трек 7 отсутствует в базе данных
Трек 8 отсутствует в базе данных
Трек 9 отсутствует в базе данных
Трек 10 отсутствует в базе данных
Трек 11 отсутствует в базе данных
Трек 12 отсутствует в базе данных
Трек 13 отсутствует в базе данных
Трек 14 отсутствует в базе данных
Трек 15 отсутствует в базе данных
Трек 16 отсутствует в базе данных
Трек 17 отсутствует в базе данных
Трек 18 отсутствует в базе данных
Трек 19 отсутствует в базе данных
Трек 20 отсутствует в базе данных

Ни одного трека нет в базе AccurateRip

Конец отчёта

–– CUETools DB Plugin V2.1.6

[CTDB TOCID: Gg2LHuQGwskQkInAtVsffKW4Wms-] found
Submit result: Gg2LHuQGwskQkInAtVsffKW4Wms- has been confirmed
Track | CTDB Status
1 | (13/13) Accurately ripped
2 | (13/13) Accurately ripped
3 | (13/13) Accurately ripped
4 | (13/13) Accurately ripped
5 | (13/13) Accurately ripped
6 | (13/13) Accurately ripped
7 | (13/13) Accurately ripped
8 | (13/13) Accurately ripped
9 | (13/13) Accurately ripped
10 | (13/13) Accurately ripped
11 | (13/13) Accurately ripped
12 | (13/13) Accurately ripped
13 | (13/13) Accurately ripped
14 | (13/13) Accurately ripped
15 | (13/13) Accurately ripped
16 | (13/13) Accurately ripped
17 | (13/13) Accurately ripped
18 | (13/13) Accurately ripped
19 | (13/13) Accurately ripped
20 | (13/13) Accurately ripped


==== Контрольная сумма отчёта D1F4DB552CA3B8219DE924A2292A4A77DAB6DBCC38DDDF1E4850F7FFDCA1C7FC ====


VA - Rock Anthems: The Ultimate Collection (2017)

All thanks go to the original releaser

Download VA - Rock Anthems: The Ultimate Collection (2017):