Subcategories

Roger Eno & Peter Hammill - The Appointed Hour (1999)

Posted By: v3122
Roger Eno & Peter Hammill - The Appointed Hour (1999)

John Hackett - Another Life (2015)
EAC | Flac(Image) + Cue + Log & MP3 CBR 320Kbps
Esoteric Antenna, EANT21038 | ~ 297 or 115 Mb | Scans(png) -> 258 Mb
Progressive Rock

This is how it came about: Prior to the effort in question, Hammill and Roger Eno chose a key in which to begin, and a specific time at which their performances would start. Then, sitting in their respective studios, miles apart, and with no communication whatsoever, they began to improvise, using various instruments. After one hour exactly, both ceased performing. Eno packed his tape off to Hammill, who then mixed the results together, producing an hour-long master. An experiment that might well have resulted in cacophonous terror actually yielded engaging and extremely palatable results, with a variety of keyboard sounds, Eno's cello, piano, and guitars weaving through the mixture. There is a haunting quality to The Appointed Hour, as well as an underlying harmonic strength that supports repeated close listening.

by Steven McDonald, AMG
Roger Eno & Peter Hammill - The Appointed Hour (1999)


Roger Eno & Peter Hammill - The Appointed Hour (1999):

Roger Eno & Peter Hammill - The Appointed Hour (1999)

Tracklist:

01. Up
02. are they
03. Your Heart
04. and let this
05. Wisemen
06. so how
07. To Know
08. Fools
09. In
10. Where
11. to tread
12. fool rush
13. Fear
14. Open
15. Never
16. Rushin'
17. But
18. In Love
19. Angels
20. Fall

Exact Audio Copy V0.99 prebeta 3 from 28. July 2007

EAC extraction logfile from 24. February 2008, 16:44

Roger Eno & Peter Hammill / The Appointed Hour

Used drive : PLEXTOR CD-R PX-W2410A Adapter: 3 ID: 0

Read mode : Secure
Utilize accurate stream : Yes
Defeat audio cache : Yes
Make use of C2 pointers : No

Read offset correction : 98
Overread into Lead-In and Lead-Out : No
Fill up missing offset samples with silence : Yes
Delete leading and trailing silent blocks : No
Null samples used in CRC calculations : Yes
Used interface : Installed external ASPI interface

Used output format : User Defined Encoder
Selected bitrate : 1024 kBit/s
Quality : High
Add ID3 tag : No
Command line compressor : C:\Program Files\WavPack\wavpack.exe
Additional command line options : -h -ml %s %d


TOC of the extracted CD

Track | Start | Length | Start sector | End sector
––––––––––––––––––––––––––––-
1 | 0:00.00 | 2:33.61 | 0 | 11535
2 | 2:33.61 | 2:00.50 | 11536 | 20585
3 | 4:34.36 | 5:56.54 | 20586 | 47339
4 | 10:31.15 | 2:25.00 | 47340 | 58214
5 | 12:56.15 | 4:00.68 | 58215 | 76282
6 | 16:57.08 | 1:42.63 | 76283 | 83995
7 | 18:39.71 | 1:40.07 | 83996 | 91502
8 | 20:20.03 | 3:31.55 | 91503 | 107382
9 | 23:51.58 | 1:14.12 | 107383 | 112944
10 | 25:05.70 | 2:59.36 | 112945 | 126405
11 | 28:05.31 | 2:00.70 | 126406 | 135475
12 | 30:06.26 | 2:55.70 | 135476 | 148670
13 | 33:02.21 | 3:22.24 | 148671 | 163844
14 | 36:24.45 | 1:34.24 | 163845 | 170918
15 | 37:58.69 | 3:35.66 | 170919 | 187109
16 | 41:34.60 | 0:56.50 | 187110 | 191359
17 | 42:31.35 | 3:11.10 | 191360 | 205694
18 | 45:42.45 | 5:12.46 | 205695 | 229140
19 | 50:55.16 | 5:01.69 | 229141 | 251784
20 | 55:57.10 | 4:09.01 | 251785 | 270460


Range status and errors

Selected range

Filename D:\EAC\PH Misc\Roger Eno & Peter Hammill (1999) - The Appointed Hour\Roger Eno & Peter Hammill - The Appointed Hour.wav

Peak level 93.5 %
Range quality 100.0 %
Copy CRC C884456C
Copy OK

No errors occurred


AccurateRip summary

Track 1 not present in database
Track 2 not present in database
Track 3 not present in database
Track 4 not present in database
Track 5 not present in database
Track 6 not present in database
Track 7 not present in database
Track 8 not present in database
Track 9 not present in database
Track 10 not present in database
Track 11 not present in database
Track 12 not present in database
Track 13 not present in database
Track 14 not present in database
Track 15 not present in database
Track 16 not present in database
Track 17 not present in database
Track 18 not present in database
Track 19 not present in database
Track 20 not present in database

None of the tracks are present in the AccurateRip database

End of status report

foobar2000 1.2.9 / Dynamic Range Meter 1.1.1
log date: 2016-05-24 11:42:48

––––––––––––––––––––––––––––––––––––––––
Analyzed: Roger Eno & Peter Hammill / The Appointed Hour
––––––––––––––––––––––––––––––––––––––––

DR Peak RMS Duration Track
––––––––––––––––––––––––––––––––––––––––
DR15 -2.07 dB -21.88 dB 2:34 01-Up
DR11 -2.52 dB -18.59 dB 2:01 02-are they
DR14 -4.47 dB -24.26 dB 5:57 03-Your Heart
DR13 -2.40 dB -20.99 dB 2:25 04-and let this
DR10 -1.59 dB -18.12 dB 4:01 05-Wisemen
DR12 -4.31 dB -22.02 dB 1:43 06-so how
DR12 -4.13 dB -22.73 dB 1:40 07-To Know
DR11 -0.58 dB -16.23 dB 3:32 08-Fools
DR10 -3.13 dB -22.04 dB 1:14 09-In
DR9 -2.52 dB -15.59 dB 2:59 10-Where
DR13 -5.05 dB -23.30 dB 2:01 11-to tread
DR14 -3.90 dB -22.93 dB 2:56 12-fool rush
DR13 -4.08 dB -22.92 dB 3:22 13-Fear
DR12 -4.80 dB -22.64 dB 1:34 14-Open
DR12 -1.71 dB -20.49 dB 3:36 15-Never
DR8 -3.43 dB -15.92 dB 0:57 16-Rushin'
DR12 -7.52 dB -23.68 dB 3:11 17-But
DR10 -2.81 dB -20.69 dB 5:13 18-In Love
DR15 -4.36 dB -24.44 dB 5:02 19-Angels
DR12 -4.03 dB -22.32 dB 4:09 20-Fall
––––––––––––––––––––––––––––––––––––––––

Number of tracks: 20
Official DR value: DR12

Samplerate: 44100 Hz
Channels: 2
Bits per sample: 16
Bitrate: 451 kbps
Codec: FLAC

[CUETools log; Date: 24.05.2016 11:42:39; Version: 2.1.4]
[CTDB TOCID: Y5xZJZVDc5le0ANZu5yqyKvHkc0-] found.
Track | CTDB Status
1 | (11/11) Accurately ripped
2 | ( 9/11) Accurately ripped
3 | ( 9/11) Accurately ripped
4 | ( 9/11) Accurately ripped
5 | ( 9/11) Accurately ripped
6 | ( 9/11) Accurately ripped
7 | ( 9/11) Accurately ripped
8 | ( 9/11) Accurately ripped
9 | ( 9/11) Accurately ripped
10 | ( 9/11) Accurately ripped
11 | ( 9/11) Accurately ripped
12 | ( 9/11) Accurately ripped
13 | ( 9/11) Accurately ripped
14 | ( 9/11) Accurately ripped
15 | ( 9/11) Accurately ripped
16 | ( 9/11) Accurately ripped
17 | ( 9/11) Accurately ripped
18 | ( 9/11) Accurately ripped
19 | ( 9/11) Accurately ripped
20 | ( 9/11) Accurately ripped
[AccurateRip ID: 00290e60-02571e4f-200e1614] found.
Track [ CRC | V2 ] Status
01 [d393a2ea|d33f358f] (08+06/14) Accurately ripped
02 [5d44bc41|fc10c2ad] (08+06/14) Accurately ripped
03 [8031dbce|e1e01b56] (08+06/14) Accurately ripped
04 [746e2a42|c2278560] (08+06/14) Accurately ripped
05 [21e95cc1|8cef597f] (08+06/14) Accurately ripped
06 [e62c8951|144f3ff2] (08+06/14) Accurately ripped
07 [e8fadecf|c3059af7] (08+06/14) Accurately ripped
08 [ff8110d7|899ceea9] (08+06/14) Accurately ripped
09 [61f8060d|894dc752] (08+06/14) Accurately ripped
10 [81411156|3aa27ceb] (08+06/14) Accurately ripped
11 [29b505cf|cfd0194a] (08+06/14) Accurately ripped
12 [7866e3a4|1cff5417] (08+06/14) Accurately ripped
13 [4a9a759c|d23713cc] (08+06/14) Accurately ripped
14 [01946d59|eb9f8f0c] (08+06/14) Accurately ripped
15 [18b0a658|b14115e2] (08+06/14) Accurately ripped
16 [79d0d09c|ed50488b] (08+06/14) Accurately ripped
17 [9bc4223f|e9de0f4e] (08+06/14) Accurately ripped
18 [a3da78e9|8b8231f6] (08+06/14) Accurately ripped
19 [41ea7207|b4f7bcd7] (08+06/14) Accurately ripped
20 [cfcfec0e|6553e074] (08+06/14) Accurately ripped

Track Peak [ CRC32 ] [W/O NULL] [ LOG ]
– 93,5 [C884456C] [3678A0D9] CRC32
01 78,7 [4C6084CC] [31A07233]
02 74,8 [F771F7B4] [63017E1D]
03 59,7 [0A689086] [D4C8AEB6]
04 75,8 [1C731083] [405FA631]
05 83,3 [6A743EF7] [FD7174EB]
06 60,8 [6AF1961F] [D47EB699]
07 62,1 [C467C002] [A07C3DEC]
08 93,5 [599092A4] [0A2F1AF2]
09 69,7 [459EB99A] [AB7FE35E]
10 74,8 [83D01291] [1248DCBE]
11 55,9 [052E9549] [79625A1A]
12 63,8 [702C3DEA] [36C128D2]
13 62,5 [5CF2A81B] [B9B12FB7]
14 57,5 [28761FCE] [A046691F]
15 82,1 [1D1978C1] [3D2D84D0]
16 67,3 [99F2CC7C] [BC010987]
17 42,0 [8805DDD0] [91905D56]
18 72,3 [DED6EA72] [37D2FE77]
19 60,5 [58EA95A3] [76CA90F0]
20 62,8 [59C19958] [A04DE3D8]

Roger Eno & Peter Hammill - The Appointed Hour (1999)

All thanks go to Monkman

Peter Hammill in my Blog

Download Roger Eno & Peter Hammill - The Appointed Hour (1999):