Subcategories

Roger Hodgson (ex-Supertramp) Discography (1984-2000) Re-up, New Rips

Posted By: v3122
Roger Hodgson (ex-Supertramp) Discography (1984-2000) Re-up, New Rips

Roger Hodgson (ex-Supertramp) Discography (1984-2000)
EAC | Flac(Image) + Cue + Log & MP3 CBR 320Kbps
4CD | ~ 1423 or 509 Mb | Scans(Jpg, 600dpi)
Prog-Related Classic Rock

Best known for his stint fronting art pop hitmakers Supertramp, Roger Hodgson was born in Portsmouth, England, on March 21, 1950. While growing up in Oxford, Hodgson started playing guitar before he was a teenager, and was soon writing songs while at boarding school. He began recording during the late '60s, issuing a single in 1969 as part of the session band Argosy with Elton John (then known as Reg Dwight).

Also in 1969, he co-founded Supertramp, serving with Rick Davies as songwriter and vocalist for 14 years. Originally funded by Dutch millionaire Stanley August Mieseages, the group lost his patronage after their first two albums failed to generate much interest. However, 1974's Crime of the Century was a major hit, launching the radio favorites "Dreamer" and "Bloody Well Right." After scoring an international hit in 1977 with "Give a Little Bit" from the album Even in the Quietest Moments…, Supertramp reached their commercial peak with 1979's chart-topping Breakfast in America, which yielded the smashes "Take the Long Way Home," "The Logical Song," and "Goodbye, Stranger" on its way to selling 20 million copies.

Roger Hodgson (ex-Supertramp) Discography (1984-2000) Re-up, New Rips

In the wake of 1982's …Famous Last Words…, Hodgson left Supertramp and relocated to Northern California to focus on his family, eventually issuing his solo debut, In the Eye of the Storm, in 1984. Within days of issuing the follow-up, 1987's Hai Hai, Hodgson fell and broke both of his wrists; the accident kept him out of action for several years, and he did not resurface until he co-wrote several songs on Yes' 1994 album, Talk. A live solo album, Rites of Passage, followed three years later and featured Hodgson collaborating with son Andrew.

Open the Door, his first new studio effort in 13 years, appeared in the spring of 2000. The album received positive responses from critics and fans alike, and Hodgson was subsequently recruited to tour with Ringo Starr as a member of the All-Starr Band. He continued to play solo shows as well, releasing a DVD of one such performance, Take the Long Way Home: Live in Montreal, in summer 2006. (The DVD would go multi-platinum in Canada and gold in France and Germany.) Classics Live, a collection of tracks from a solo tour of the United States, Australia, New Zealand, South America, Europe, and Canada, arrived in 2010. Hodgson continued to tour worldwide in many formats including in a duo, with a band, and with a symphony orchestra. In 2012, he received a Knight of the Order of Arts and Letters from the French Ministry of Culture.

by Jason Ankeny
Roger Hodgson (ex-Supertramp) Discography (1984-2000):

Roger Hodgson (ex-Supertramp) Discography (1984-2000) Re-up, New Rips

Roger Hodgson - In The Eye Of The Storm (1984)
EAC | Flac(Image) + Cue + Log & iPod & MP3 CBR 320Kbps
West Germany | A&M, 395 004-2 | ~ 304 or 114 Mb | Scans(Jpg, 600dpi)
Prog-Related Classic Rock

Vocalist/guitarist Roger Hodgson must have really felt stifled toward the end of his tenure in Supertramp in the early '80s – despite co-writing and singing many of the band's biggest hits – because his solo debut, 1984's In the Eye of the Storm, is a remarkable work of explosive creativity. Hodgson wrote, sang, arranged, and produced In the Eye of the Storm, but the real kicker is the fact that he played every instrument himself, with a few exceptions such as drums and fretless bass guitar on a few cuts. As a result, In the Eye of the Storm is easily the best synthesis of pop and progressive rock since, well, prime Supertramp. The spirit of traditional progressive rock experimentation is alive on this album; five of the seven songs exceed six minutes. The brilliant leadoff track, "Had a Dream (Sleeping With the Enemy)," is nine minutes long. An edited single just missed the Top 40, but every second of the sound effects, driving piano, tasteful guitar, and Hodgson's aggressive singing of this cynical song must be heard to be fully appreciated. "In Jeopardy" has a cha-cha, shuffle-like flavor and Hodgson's monotone vocals provide a faintly creepy effect. The gentle ballad "Lovers in the Wind" is sweetly arranged. "Give Me Love, Give Me Life" is exuberantly optimistic and hyperactively bouncy. "I'm Not Afraid" fearlessly flows back and forth between darker sounding melodies and upbeat pop. The creamy "Only Because of You" can be favorably compared to the floating instrumental passages on Pink Floyd's Dark Side of the Moon and Wish You Were Here. Without question, In the Eye of the Storm is an exceptional piece of highly listenable craftsmanship.

by Bret Adams
Tracklist:

1. Had A Dream (Sleeping With The Enemy) 8:49
2. In Jeopardy 5:59
3. Lovers In The Wind 4:11
4. Hooked On A Problem 5:10
5. Give Me Love, Give Me Life 7:33
6. I'm Not Afraid 7:03
7. Only Because Of You 8:40

Credits:

Roger Hodgson: Acoustic 12-string Guitar, Electric Guitar, Piano, Hammond Organ, Synthesisers, Wurlitzer Electric Piano, bass guitar, lead and backing vocals, drums on "Lovers in the Wind" and "Hooked On a Problem"
Michael Shrieve: drums on all tracks except "Lovers in the Wind" and "Hooked On a Problem"
Ken Allardyce: harmonica and additional background vocals
Jimmy Johnson: fretless bass on "Lovers In the Wind" and "Only Because of You"
Clair Diament: female voice on "Only Because of You"
Scott Page: saxophones on "Hooked On a Problem"

Exact Audio Copy V1.1 from 23. June 2015

EAC extraction logfile from 2. October 2016, 12:55

Roger Hodgson / In The Eye Of The Storm [395 004-2]

Used drive : HL-DT-STDVDRAM GE20NU11 Adapter: 1 ID: 0

Read mode : Secure
Utilize accurate stream : Yes
Defeat audio cache : Yes
Make use of C2 pointers : No

Read offset correction : 667
Overread into Lead-In and Lead-Out : No
Fill up missing offset samples with silence : Yes
Delete leading and trailing silent blocks : No
Null samples used in CRC calculations : Yes
Used interface : Native Win32 interface for Win NT & 2000

Used output format : User Defined Encoder
Selected bitrate : 896 kBit/s
Quality : High
Add ID3 tag : No
Command line compressor : C:\Program Files\EAC 3\Exact Audio Copy\Flac\flac.exe
Additional command line options : -V -8 %source%


TOC of the extracted CD

Track | Start | Length | Start sector | End sector
––––––––––––––––––––––––––––-
1 | 0:00.32 | 8:26.45 | 32 | 38026
2 | 8:27.02 | 5:57.30 | 38027 | 64831
3 | 14:24.32 | 4:13.68 | 64832 | 83874
4 | 18:38.25 | 5:08.42 | 83875 | 107016
5 | 23:46.67 | 7:33.20 | 107017 | 141011
6 | 31:20.12 | 7:05.20 | 141012 | 172906
7 | 38:25.32 | 8:36.48 | 172907 | 211654


Range status and errors

Selected range

Filename Z:\OdW\ROGER HODGSON (1984-2000)\1984 - In The Eye Of The Storm (395 004-2)\Roger Hodgson - In The Eye Of The Storm [395 004-2].wav

Peak level 100.0 %
Extraction speed 7.0 X
Range quality 100.0 %
Test CRC BBEA376A
Copy CRC BBEA376A
Copy OK

No errors occurred


AccurateRip summary

Track 1 accurately ripped (confidence 43) [C0956D6E] (AR v2)
Track 2 accurately ripped (confidence 42) [D35FC166] (AR v2)
Track 3 accurately ripped (confidence 43) [EF843332] (AR v2)
Track 4 accurately ripped (confidence 42) [25C8BE81] (AR v2)
Track 5 accurately ripped (confidence 43) [7A0073D9] (AR v2)
Track 6 accurately ripped (confidence 44) [843CB623] (AR v2)
Track 7 accurately ripped (confidence 44) [ADB76FF2] (AR v2)

All tracks accurately ripped

End of status report

–– CUETools DB Plugin V2.1.6

[CTDB TOCID: FuwSLuXOMqpAElfJRNYrzDGj9mk-] found
Submit result: FuwSLuXOMqpAElfJRNYrzDGj9mk- has been confirmed
Track | CTDB Status
1 | (106/113) Accurately ripped, or (1/113) differs in 28 samples @05:56:19-05:56:20
2 | (112/113) Accurately ripped
3 | (109/113) Accurately ripped
4 | (112/113) Accurately ripped
5 | (110/113) Accurately ripped, or (1/113) differs in 107 samples @02:58:29-02:58:30,03:07:22-03:07:23,03:13:28,03:13:56-03:13:57,04:11:61,04:45:26,04:45:40-04:45:41,04:49:16-04:49:17
6 | (109/113) Accurately ripped, or (1/113) differs in 476 samples @01:04:62,01:06:03,01:06:18,01:07:03-01:07:04,01:08:50,01:10:66-01:10:67,01:11:06-01:11:07,01:11:37-01:11:38,01:11:67-01:11:68,01:12:22-01:12:23,01:12:53,01:12:68,01:13:38,01:13:53-01:13:54,01:14:09,01:15:10,01:15:25,01:15:40,01:16:56,01:17:11-01:17:12,01:19:13-01:19:14,01:20:14,01:21:00,01:21:60,01:22:61-01:22:62,01:23:47,01:24:18,01:24:33,01:24:63,01:25:04,01:25:19,01:25:49,01:27:36-01:27:37,01:29:53,01:31:40
7 | (108/113) Accurately ripped, or (1/113) differs in 90 samples @05:02:74-05:03:00,05:03:32-05:03:33,05:04:08


==== Log checksum 355D6EC0A3BFCD76C9A966E9DF6F721FCCF28F55CCDAB4289BE30BA5E40EA4B7 ====

foobar2000 1.2.9 / Dynamic Range Meter 1.1.1
log date: 2016-10-09 14:49:36

––––––––––––––––––––––––––––––––––––––––
Analyzed: Roger Hodgson / In The Eye Of The Storm [395 004-2]
––––––––––––––––––––––––––––––––––––––––

DR Peak RMS Duration Track
––––––––––––––––––––––––––––––––––––––––
DR13 0.00 dB -15.82 dB 8:27 01-Had A Dream (Sleeping With The Enemy)
DR14 0.00 dB -16.65 dB 5:57 02-In Jeopardy
DR13 -2.38 dB -20.33 dB 4:14 03-Lovers In The Wind
DR13 -0.31 dB -16.40 dB 5:09 04-Hooked On A Problem
DR14 -0.21 dB -17.18 dB 7:33 05-Give Me Love, Give Me Life
DR15 0.00 dB -17.93 dB 7:05 06-I'm Not Afraid
DR13 -0.64 dB -19.60 dB 8:37 07-Only Because Of You
––––––––––––––––––––––––––––––––––––––––

Number of tracks: 7
Official DR value: DR14

Samplerate: 44100 Hz
Channels: 2
Bits per sample: 16
Bitrate: 871 kbps
Codec: FLAC

[CUETools log; Date: 02.10.2016 15:35:11; Version: 2.1.4]
Pregap length 00:00:32.
[CTDB TOCID: FuwSLuXOMqpAElfJRNYrzDGj9mk-] found.
Track | CTDB Status
1 | (107/114) Accurately ripped, or (1/114) differs in 28 samples @05:55:53-05:55:54
2 | (113/114) Accurately ripped
3 | (110/114) Accurately ripped
4 | (113/114) Accurately ripped
5 | (111/114) Accurately ripped, or (1/114) differs in 107 samples @02:58:29-02:58:30,03:07:22-03:07:23,03:13:28,03:13:56-03:13:57,04:11:61,04:45:26,04:45:40-04:45:41,04:49:16-04:49:17
6 | (110/114) Accurately ripped, or (1/114) differs in 476 samples @01:04:62,01:06:03,01:06:18,01:07:03-01:07:04,01:08:50,01:10:66-01:10:67,01:11:06-01:11:07,01:11:37-01:11:38,01:11:67-01:11:68,01:12:22-01:12:23,01:12:53,01:12:68,01:13:38,01:13:53-01:13:54,01:14:09,01:15:10,01:15:25,01:15:40,01:16:56,01:17:11-01:17:12,01:19:13-01:19:14,01:20:14,01:21:00,01:21:60,01:22:61-01:22:62,01:23:47,01:24:18,01:24:33,01:24:63,01:25:04,01:25:19,01:25:49,01:27:36-01:27:37,01:29:53,01:31:40
7 | (109/114) Accurately ripped, or (1/114) differs in 90 samples @05:02:74-05:03:00,05:03:32-05:03:33,05:04:08
[AccurateRip ID: 000c809d-004aa0cc-560b0607] found.
Track [ CRC | V2 ] Status
01 [42e17c6e|c0956d6e] (054+043/198) Accurately ripped
02 [c6213b08|d35fc166] (054+042/199) Accurately ripped
03 [54cdf08c|ef843332] (055+043/201) Accurately ripped
04 [47304b0a|25c8be81] (055+042/201) Accurately ripped
05 [26946cbc|7a0073d9] (055+043/201) Accurately ripped
06 [3f7b44a9|843cb623] (054+044/204) Accurately ripped
07 [6aace3e0|adb76ff2] (055+044/199) Accurately ripped
Offsetted by -1607:
01 [049ac845] (004/198) Accurately ripped
02 [3909f83e] (004/199) Accurately ripped
03 [2bdb6ff7] (004/201) Accurately ripped
04 [31d30f4f] (004/201) Accurately ripped
05 [7e1b01ee] (004/201) Accurately ripped
06 [039878ff] (004/204) Accurately ripped
07 [84890a0f] (004/199) Accurately ripped
Offsetted by -1381:
01 [43618f2a] (003/198) Accurately ripped
02 [b6cbfe54] (003/199) Accurately ripped
03 [390677bc] (003/201) Accurately ripped
04 [3d96676e] (003/201) Accurately ripped
05 [f00722a6] (003/201) Accurately ripped
06 [aaf13bc6] (003/204) Accurately ripped
07 [d8326479] (003/199) Accurately ripped
Offsetted by -1356:
01 [24bc6091] (032/198) Accurately ripped
02 [507e8f81] (031/199) Accurately ripped
03 [5677c504] (032/201) Accurately ripped
04 [a3e588ce] (032/201) Accurately ripped
05 [aac11964] (031/201) Accurately ripped
06 [21d0acb0] (032/204) Accurately ripped
07 [31220081] (029/199) Accurately ripped
Offsetted by 285:
01 [7a56c840] (007/198) Accurately ripped
02 [ffd718eb] (009/199) Accurately ripped
03 [6c91a344] (009/201) Accurately ripped
04 [62b0ed51] (009/201) Accurately ripped
05 [21790e96] (009/201) Accurately ripped
06 [390b23f7] (009/204) Accurately ripped
07 [fd259a44] (008/199) Accurately ripped
Offsetted by 6:
01 [28882a24] (000/198) No match (V2 was not tested)
02 [f29bc3ee] (000/199) No match (V2 was not tested)
03 [4c85ba40] (000/201) No match (V2 was not tested)
04 [486c7661] (000/201) No match (V2 was not tested)
05 [2e010737] (000/201) No match (V2 was not tested)
06 [ff0027fe] (002/204) Accurately ripped
07 [a01353c1] (000/199) No match (V2 was not tested)

Track Peak [ CRC32 ] [W/O NULL] [ LOG ]
– 100,0 [BBEA376A] [08C33C9F] CRC32
01 100,0 [C4717305] [C86C38EB]
02 100,0 [DFF515CE] [A7EFAE2A]
03 75,9 [09381C08] [2D076705]
04 96,4 [D3ACA2C2] [4FADA762]
05 97,5 [3D1745EF] [C59C8618]
06 100,0 [C3A18818] [886DBC2E]
07 92,9 [7FC46867] [64054A75]

===========================

Roger Hodgson (ex-Supertramp) Discography (1984-2000) Re-up, New Rips

Roger Hodgson - Hai Hai (1987)
EAC | Flac(Image) + Cue + Log & MP3 CBR 320Kbps
USA | A&M, СD5112/DX 1685 | ~ 323 or 118 Mb | Scans(Jpg, 600dpi)
Prog-Related Classic Rock

With this release,Hodgson dove head first into the '80s sound, both with production and instruments. Gone was the music of Supertramp(long, drawn-out prog/art rock pieces), and in its place, '80s dance-pop, not unlikeWang Chung. Hodgson wanted to leave the past behind him, and with the help of top session players (including drummer Jeff Porcaro), he seemed to want to branch out and experiment with other forms of music, such as reggae, pop, dance, and synth pop. The problem is that for the most part, it did not work. The songs lack the melodies that he is capable of writing, and the lyrics are at times juvenile and embarrassing (for example "Who's Afraid," or "My Magazine"). He may have had the best intentions, and he may have been trying to say something, but the poetry reads like a bored high school student wrote them. And while he hints at experimentation with other forms of music, he does not go far enough. For example, the listener is left with the small flavor of reggae without the structure or commitment to go all the way with the sound. The brief shining moments harken back to the Supertramp days, including a song he wrote with fellow Supertramp member Rick Davies in 1974 (the highlight of the album, the brilliant and moving "Land Ho"). He relies way too much on technology, and the music comes off as sounding cold and distant. What could have been beautiful melodies are lost in the heavy electro beat production and arrangements. For such a talented artist, this album is a big disappointment.

by Aaron Badgley
Tracklist:

1. Right Place 4:05
2. My Magazine 4:39
3. London 4:11
4. You Make Me Love You 5:08
5. Hai Hai 5:28
6. Who's Afraid ? 4:57
7. Desert Love 5:26
8. Land Ho 4:06
9. House On The Corner 5:21
10. Puppet Dance 5:16

Credits:

Roger Hodgson - Vocals, Synth Bass (1), Synclavier Drums (5), Keyboards (3, 4, 5, 7, 8, 9, 10), Piano (6), Synths (6, 10), Guitars (1, 2, 4, 5, 8, 10), 12-String Guitars (7), Bass (7), Backing Vocals (1, 3, 4, 5, 8, 9, 10)
Omar Hakim - Drums (1)
Joseph Pomfret - Drums (1, 4, 6, 7, 8) [this is a pseudonym for Roger himself; Joseph is his second name and Pomfret his mother's surname]
Robbie Buchanan - Synths (1), Synth Programming (4, 6, 10), Synth Bass (5), Rhodes (6), Keyboards (3, 4, 5, 9)
Dan Huff - Guitars (1, 3, 5, 6, 7, 8, 9, 10)
Lenny Castro - Percussion (1, 2, 3, 4, 5, 6, 8, 9, 10)
Ken Allardyce - Harmonica (1, 5), Rhythm Guitar (3), Backing Vocals (3, 8)
Anni McCann - Backing Vocals (1, 3, 4, 5, 8, 9, 10)
Jeff Porcaro - Drums (2, 3, 4, 6, 9)
David Paich - Synth Bass (2), Hammond Organ (2), Synth Brass (2)
Willie Hines - Backing Vocals (2)
Brad Lang - Backing Vocals (2)
Steve Porcaro - Synth Programming (2)
Nathan East - Bass (3, 6)
Larry Williams - Saxophone (3), Synth Programming (7)
Mikail Graham - DX7 Seetar Solo (3)
Clair Diament - Backing Vocals (3)
Albhy Galuten - Synclavier Drums (5)
Bruce Albertine - Synclavier Drums (5)
Rhett Lawrence - Fairlight Programming (5, 8, 10), Synths (10)
Eric Persing - Synth Programming (5, 6)
Carlos Vega - Drums (7, 8)
Leland Sklar - Bass (8)
Marc Russo - Saxophone (8)

Exact Audio Copy V1.1 from 23. June 2015

EAC extraction logfile from 2. October 2016, 13:15

Roger Hodgson / Hai Hai (СD 5112)

Used drive : HL-DT-STDVDRAM GE20NU11 Adapter: 1 ID: 0

Read mode : Secure
Utilize accurate stream : Yes
Defeat audio cache : Yes
Make use of C2 pointers : No

Read offset correction : 667
Overread into Lead-In and Lead-Out : No
Fill up missing offset samples with silence : Yes
Delete leading and trailing silent blocks : No
Null samples used in CRC calculations : Yes
Used interface : Native Win32 interface for Win NT & 2000

Used output format : User Defined Encoder
Selected bitrate : 896 kBit/s
Quality : High
Add ID3 tag : No
Command line compressor : C:\Program Files\EAC 3\Exact Audio Copy\Flac\flac.exe
Additional command line options : -V -8 %source%


TOC of the extracted CD

Track | Start | Length | Start sector | End sector
––––––––––––––––––––––––––––-
1 | 0:00.00 | 4:06.25 | 0 | 18474
2 | 4:06.25 | 4:42.38 | 18475 | 39662
3 | 8:48.63 | 4:12.15 | 39663 | 58577
4 | 13:01.03 | 5:09.22 | 58578 | 81774
5 | 18:10.25 | 5:31.23 | 81775 | 106622
6 | 23:41.48 | 5:00.30 | 106623 | 129152
7 | 28:42.03 | 5:29.17 | 129153 | 153844
8 | 34:11.20 | 4:09.20 | 153845 | 172539
9 | 38:20.40 | 5:24.05 | 172540 | 196844
10 | 43:44.45 | 5:17.05 | 196845 | 220624


Range status and errors

Selected range

Filename Z:\OdW\ROGER HODGSON (1984-2000)\1987 - Hai Hai (СD 5112)\Roger Hodgson - Hai Hai (СD 5112).wav

Peak level 99.7 %
Extraction speed 7.0 X
Range quality 100.0 %
Test CRC 5FEAF021
Copy CRC 5FEAF021
Copy OK

No errors occurred


AccurateRip summary

Track 1 accurately ripped (confidence 11) [AE5071B0] (AR v2)
Track 2 accurately ripped (confidence 11) [51655550] (AR v2)
Track 3 accurately ripped (confidence 11) [153009FF] (AR v2)
Track 4 accurately ripped (confidence 11) [97D79E11] (AR v2)
Track 5 accurately ripped (confidence 11) [53BE9551] (AR v2)
Track 6 accurately ripped (confidence 11) [C3C25442] (AR v2)
Track 7 accurately ripped (confidence 11) [7DC1AF82] (AR v2)
Track 8 accurately ripped (confidence 11) [60E98CE4] (AR v2)
Track 9 accurately ripped (confidence 11) [26687A6B] (AR v2)
Track 10 accurately ripped (confidence 11) [1C23C84A] (AR v2)

All tracks accurately ripped

End of status report

–– CUETools DB Plugin V2.1.6

[CTDB TOCID: ojsshh0tjuk_d4ss2cYLcMyLYOM-] found
Submit result: ojsshh0tjuk_d4ss2cYLcMyLYOM- has been confirmed
Track | CTDB Status
1 | (45/47) Accurately ripped
2 | (46/47) Accurately ripped
3 | (46/47) Accurately ripped
4 | (45/47) Accurately ripped
5 | (46/47) Accurately ripped
6 | (46/47) Accurately ripped
7 | (46/47) Accurately ripped
8 | (46/47) Accurately ripped
9 | (46/47) Accurately ripped
10 | (46/47) Accurately ripped


==== Log checksum 0066BDF5D99A2DC5CEDDDE60147A4E797DE7BF6D50E46AD59570724F42C0398D ====

foobar2000 1.2.9 / Dynamic Range Meter 1.1.1
log date: 2016-10-09 14:52:35

––––––––––––––––––––––––––––––––––––––––
Analyzed: Roger Hodgson / Hai Hai (CD 5112)
––––––––––––––––––––––––––––––––––––––––

DR Peak RMS Duration Track
––––––––––––––––––––––––––––––––––––––––
DR13 -0.02 dB -16.61 dB 4:06 01-Right Place
DR13 -0.63 dB -16.61 dB 4:43 02-My Magazine
DR14 -1.34 dB -18.28 dB 4:12 03-London
DR13 -2.77 dB -16.79 dB 5:09 04-You Make Me Love You
DR13 -0.90 dB -18.02 dB 5:31 05-Hai Hai
DR13 -1.23 dB -16.97 dB 5:00 06-Who's Afraid?
DR14 -2.13 dB -19.18 dB 5:29 07-Desert Love
DR13 -2.04 dB -17.21 dB 4:09 08-Land Ho
DR13 -1.32 dB -17.85 dB 5:24 09-House On The Corner
DR12 -3.08 dB -19.87 dB 5:17 10-Puppet Dance
––––––––––––––––––––––––––––––––––––––––

Number of tracks: 10
Official DR value: DR13

Samplerate: 44100 Hz
Channels: 2
Bits per sample: 16
Bitrate: 889 kbps
Codec: FLAC

[CUETools log; Date: 02.10.2016 15:35:45; Version: 2.1.4]
[CTDB TOCID: ojsshh0tjuk_d4ss2cYLcMyLYOM-] found.
Track | CTDB Status
1 | (46/48) Accurately ripped
2 | (47/48) Accurately ripped
3 | (47/48) Accurately ripped
4 | (46/48) Accurately ripped
5 | (47/48) Accurately ripped
6 | (47/48) Accurately ripped
7 | (47/48) Accurately ripped
8 | (47/48) Accurately ripped
9 | (47/48) Accurately ripped
10 | (47/48) Accurately ripped
[AccurateRip ID: 0011fa0a-00914ad9-6f0b7d0a] found.
Track [ CRC | V2 ] Status
01 [4b1b0c65|ae5071b0] (19+11/73) Accurately ripped
02 [d65c6f27|51655550] (19+11/73) Accurately ripped
03 [d17b7a9c|153009ff] (19+11/73) Accurately ripped
04 [21eb21f6|97d79e11] (19+11/73) Accurately ripped
05 [8c17c0b3|53be9551] (20+11/74) Accurately ripped
06 [66d9220e|c3c25442] (20+11/73) Accurately ripped
07 [2b9a1e8a|7dc1af82] (20+11/74) Accurately ripped
08 [bad08760|60e98ce4] (20+11/74) Accurately ripped
09 [85d52e84|26687a6b] (20+11/74) Accurately ripped
10 [03e26ab7|1c23c84a] (20+11/74) Accurately ripped
Offsetted by -764:
01 [01428899] (05/73) Accurately ripped
02 [77e5ad77] (05/73) Accurately ripped
03 [1cd9d768] (05/73) Accurately ripped
04 [7157a7d6] (05/73) Accurately ripped
05 [55617ddb] (05/74) Accurately ripped
06 [cbc77ab6] (05/73) Accurately ripped
07 [a531a3aa] (05/74) Accurately ripped
08 [236b0c7c] (05/74) Accurately ripped
09 [db2120d8] (05/74) Accurately ripped
10 [5d21643f] (05/74) Accurately ripped
Offsetted by -100:
01 [91dbdc51] (12/73) Accurately ripped
02 [429ffd57] (12/73) Accurately ripped
03 [ef73b9b0] (12/73) Accurately ripped
04 [3c65e716] (12/73) Accurately ripped
05 [5f6719cb] (12/74) Accurately ripped
06 [63f9aba6] (11/73) Accurately ripped
07 [853c066a] (12/74) Accurately ripped
08 [e34ffaa4] (12/74) Accurately ripped
09 [9fbd9d50] (12/74) Accurately ripped
10 [cc8cd66f] (12/74) Accurately ripped
Offsetted by -856:
01 [0f271eed] (00/73) No match (V2 was not tested)
02 [0eb33047] (00/73) No match (V2 was not tested)
03 [6b9f8214] (00/73) No match (V2 was not tested)
04 [191048b6] (00/73) No match (V2 was not tested)
05 [886d0d43] (00/74) No match (V2 was not tested)
06 [39c6b19e] (00/73) No match (V2 was not tested)
07 [5e0e45ca] (00/74) No match (V2 was not tested)
08 [e246b3f8] (00/74) No match (V2 was not tested)
09 [a10b724c] (00/74) No match (V2 was not tested)
10 [2a390f07] (00/74) No match (V2 was not tested)

Track Peak [ CRC32 ] [W/O NULL] [ LOG ]
– 99,7 [5FEAF021] [44A4195D] CRC32
01 99,7 [5650E9F0] [97337C62]
02 92,9 [D6AED3AA] [A1CF8E1F]
03 85,6 [E3B8C96C] [9E50BDA5]
04 72,7 [80F98240] [CC678CFA]
05 90,1 [6F083A2C] [51303CEB]
06 86,7 [DE6F501E] [D37CC084]
07 78,2 [0868899F] [E7E3B71E]
08 79,0 [808A964E] [79B19639]
09 85,8 [0AAEFCBF] [BA705C1F]
10 70,1 [5FB9DC2F] [5BDE6BE6]

===========================

Roger Hodgson (ex-Supertramp) Discography (1984-2000) Re-up, New Rips

Roger Hodgson - Rites Of Passage (1997)
EAC | Flac(Image) + Cue + Log & MP3 CBR 320Kbps
Austria | Unichord, UNIVP001CD | ~ 436 or 151 Mb | Scans(Jpg, 600dpi)
Prog-Related Classic Rock

After taking several years off from the music business, former Supertramp singer Roger Hodgson got back into the saddle with 1997's "Rites Of Passage," a live album recorded near Hodgson's home of Nevada City, California, featuring 8 new, previously unheard songs, plus a few Supertramp hits and a couple of other songs contributed by Hodgson's band members (including his very talented son Andrew Hodgson, who plays drums for most of the album). "Rites Of Passage" isn't really a "proper" new album from Hodgson, but it's a very excellent live performance, and the new songs are great, including the catchy "Every Trick In The Book," the punchy "Showdown" (which Hodgson would later record for his 2000 album "Open The Door"), the beautiful "Don't You Want To Get High," and the magical, majestic "Time Waits For No One." Supertramp faves "Take The Long Way Home," "The Logical Song," and "Give A Little Bit" are all given superb treatments (featuring 'Tramp sax man John Helliwell), and there's also a terrific moment as Hodgson steps aside and lets his son Andrew take a solo spotlight at the piano & microphone with his very lovely song, "Melancholic." For any diehard fan of Roger Hodgson and Supertramp, "Rites Of Passage" is a major treat.

By Alan Caylow
Tracklist:

1 . Every Trick In The Book 5:48
2. In Jeopardy 5:07
3. Showdown 4:32
4. Don't You Want To Get High? 4:02
5. Take The Long Way Home - R.O.P. 4:20
6. Red Lake 5:00
7. Melancholic 4:17
8. Time Waits For No One 9:00
9. No Colours 4:50
10. The Logical Song - R.O.P. 3:39
11. Smelly Feat 5:57
12. Give A Little Bit - R.O.P.

Credits:

Roger Hodgson – lead vocals (1–6, 8, 10, 12), guitar (9, 11), piano (2, 3, 5, 10), twelve-string guitar (1, 4, 6, 8, 12)
Andrew Hodgson – drums (1–6, 9–12), lead vocals (7), piano (7), percussion (8), didgeridoo (8), harmonica (9)
John Helliwell – saxophone (1, 2, 5, 6, 8, 10–12), percussion (3), backing vocals (2–6, 10)
Mikail Graham – guitar (1–4, 6, 8–12), lead vocals (9, 11), backing vocals (1–6, 10, 12), keyboards (5), percussion (5)
Rich Stanmyre – bass (1–6, 8–12), backing vocals (1–6, 11, 12)
Jeff Daniel – keyboards (1–6, 8–10, 12), Hammond organ (1–6, 10, 11, 12), percussion (3, 6, 8–11), backing vocals (1–6, 10, 12)
Terry Riley – tambura (8), backing vocals (8)
Josh Newman – cello (7)
Ian "Biggles" Lloyd-Bisley – noises (1)

Exact Audio Copy V1.1 from 23. June 2015

EAC extraction logfile from 2. October 2016, 14:32

Roger Hodgson / Rites Of Passage (UNIVP001CD)

Used drive : HL-DT-STDVDRAM GE20NU11 Adapter: 1 ID: 0

Read mode : Secure
Utilize accurate stream : Yes
Defeat audio cache : Yes
Make use of C2 pointers : No

Read offset correction : 667
Overread into Lead-In and Lead-Out : No
Fill up missing offset samples with silence : Yes
Delete leading and trailing silent blocks : No
Null samples used in CRC calculations : Yes
Used interface : Native Win32 interface for Win NT & 2000

Used output format : User Defined Encoder
Selected bitrate : 896 kBit/s
Quality : High
Add ID3 tag : No
Command line compressor : C:\Program Files\EAC 3\Exact Audio Copy\Flac\flac.exe
Additional command line options : -V -8 %source%


TOC of the extracted CD

Track | Start | Length | Start sector | End sector
––––––––––––––––––––––––––––-
1 | 0:00.00 | 5:54.05 | 0 | 26554
2 | 5:54.05 | 5:13.30 | 26555 | 50059
3 | 11:07.35 | 4:44.50 | 50060 | 71409
4 | 15:52.10 | 4:06.73 | 71410 | 89932
5 | 19:59.08 | 4:27.20 | 89933 | 109977
6 | 24:26.28 | 5:13.65 | 109978 | 133517
7 | 29:40.18 | 4:30.67 | 133518 | 153834
8 | 34:11.10 | 9:07.28 | 153835 | 194887
9 | 43:18.38 | 4:55.67 | 194888 | 217079
10 | 48:14.30 | 3:47.30 | 217080 | 234134
11 | 52:01.60 | 6:02.33 | 234135 | 261317
12 | 58:04.18 | 4:17.17 | 261318 | 280609


Range status and errors

Selected range

Filename Z:\OdW\ROGER HODGSON (1984-2000)\1997 - Rites Of Passage (UNIVP001CD)\Roger Hodgson - Rites Of Passage (UNIVP001CD).wav

Peak level 100.0 %
Extraction speed 7.4 X
Range quality 100.0 %
Test CRC 4E85CD10
Copy CRC 4E85CD10
Copy OK

No errors occurred


AccurateRip summary

Track 1 accurately ripped (confidence 46) [01D112C6] (AR v2)
Track 2 accurately ripped (confidence 46) [E8F695AB] (AR v2)
Track 3 accurately ripped (confidence 46) [603E8521] (AR v2)
Track 4 accurately ripped (confidence 46) [5031CA4C] (AR v2)
Track 5 accurately ripped (confidence 46) [E18F5A8C] (AR v2)
Track 6 accurately ripped (confidence 46) [E547E90F] (AR v2)
Track 7 accurately ripped (confidence 46) [A2B556A8] (AR v2)
Track 8 accurately ripped (confidence 46) [E057DD67] (AR v2)
Track 9 accurately ripped (confidence 46) [A45C344E] (AR v2)
Track 10 accurately ripped (confidence 46) [5A85CB17] (AR v2)
Track 11 accurately ripped (confidence 46) [013CDFF7] (AR v2)
Track 12 accurately ripped (confidence 46) [267CB1B6] (AR v2)

All tracks accurately ripped

End of status report

–– CUETools DB Plugin V2.1.6

[CTDB TOCID: 7Iurp4h8agNzOOV1Y1U387nVWHo-] found
Submit result: 7Iurp4h8agNzOOV1Y1U387nVWHo- has been confirmed
Track | CTDB Status
1 | (50/53) Accurately ripped
2 | (52/53) Accurately ripped
3 | (52/53) Accurately ripped
4 | (52/53) Accurately ripped
5 | (52/53) Accurately ripped
6 | (52/53) Accurately ripped
7 | (52/53) Accurately ripped
8 | (52/53) Accurately ripped
9 | (51/53) Accurately ripped
10 | (52/53) Accurately ripped
11 | (52/53) Accurately ripped
12 | (51/53) Accurately ripped


==== Log checksum 4FDBFD883B99FBAD7052E5ABE16F5964E06D33F846DF5F9071D4B09751EE153F ====

foobar2000 1.2.9 / Dynamic Range Meter 1.1.1
log date: 2016-10-09 14:52:57

––––––––––––––––––––––––––––––––––––––––
Analyzed: Roger Hodgson / Rites Of Passage (UNIVP001CD)
––––––––––––––––––––––––––––––––––––––––

DR Peak RMS Duration Track
––––––––––––––––––––––––––––––––––––––––
DR9 -0.14 dB -11.25 dB 5:54 01-Every Trick in the Book
DR9 -0.02 dB -10.88 dB 5:13 02-In Jeopardy
DR10 -0.04 dB -11.49 dB 4:45 03-Showdown
DR9 -0.04 dB -11.18 dB 4:07 04-Don't You Want to Get High
DR11 -0.11 dB -13.58 dB 4:27 05-Take the Long Way Home - ROP
DR10 -0.02 dB -12.60 dB 5:14 06-Red Lake
DR11 -0.16 dB -17.20 dB 4:31 07-Melancholic
DR10 -0.16 dB -12.88 dB 9:07 08-Time Waits For No One
DR10 -0.02 dB -14.00 dB 4:56 09-No Colours
DR10 -0.04 dB -11.41 dB 3:47 10-The Logical Song - ROP
DR10 0.00 dB -11.25 dB 6:02 11-Smelly Feat
DR10 -0.03 dB -12.17 dB 4:17 12-Give a Little Bit
––––––––––––––––––––––––––––––––––––––––

Number of tracks: 12
Official DR value: DR10

Samplerate: 44100 Hz
Channels: 2
Bits per sample: 16
Bitrate: 941 kbps
Codec: FLAC

[CUETools log; Date: 02.10.2016 15:36:29; Version: 2.1.4]
HDCD: peak extend: yes, transient filter: none, gain: -4,0dB..0,0dB
[CTDB TOCID: 7Iurp4h8agNzOOV1Y1U387nVWHo-] found.
Track | CTDB Status
1 | (51/54) Accurately ripped
2 | (53/54) Accurately ripped
3 | (53/54) Accurately ripped
4 | (53/54) Accurately ripped
5 | (53/54) Accurately ripped
6 | (53/54) Accurately ripped
7 | (53/54) Accurately ripped
8 | (53/54) Accurately ripped
9 | (52/54) Accurately ripped
10 | (53/54) Accurately ripped
11 | (53/54) Accurately ripped
12 | (52/54) Accurately ripped
[AccurateRip ID: 001bd258-010420f1-a90e9d0c] found.
Track [ CRC | V2 ] Status
01 [4edb0e63|01d112c6] (35+46/83) Accurately ripped
02 [8b61c02f|e8f695ab] (35+46/83) Accurately ripped
03 [355c3328|603e8521] (35+46/83) Accurately ripped
04 [534ee839|5031ca4c] (35+46/83) Accurately ripped
05 [94050504|e18f5a8c] (35+46/83) Accurately ripped
06 [2a1839af|e547e90f] (35+46/83) Accurately ripped
07 [1126a30e|a2b556a8] (34+46/82) Accurately ripped
08 [20763376|e057dd67] (36+46/84) Accurately ripped
09 [cf9b23f6|a45c344e] (34+46/82) Accurately ripped
10 [5e4d1b2f|5a85cb17] (34+46/82) Accurately ripped
11 [d23a79ea|013cdff7] (34+46/82) Accurately ripped
12 [b08e30d6|267cb1b6] (34+46/82) Accurately ripped
Offsetted by -30:
01 [ff25c319] (00/83) No match (V2 was not tested)
02 [6f821fa7] (00/83) No match (V2 was not tested)
03 [898bdbd6] (00/83) No match (V2 was not tested)
04 [2bfb22a6] (00/83) No match (V2 was not tested)
05 [56ec0742] (00/83) No match (V2 was not tested)
06 [1ce3c37d] (00/83) No match (V2 was not tested)
07 [a6800b3f] (00/82) No match (V2 was not tested)
08 [8b56f08d] (00/84) No match (V2 was not tested)
09 [efb17c72] (00/82) No match (V2 was not tested)
10 [ca8c78dd] (00/82) No match (V2 was not tested)
11 [d613a3f1] (00/82) No match (V2 was not tested)
12 [2497e58d] (00/82) No match (V2 was not tested)
Offsetted by 6:
01 [cd2b2dc7] (00/83) No match (V2 was not tested)
02 [8e388399] (00/83) No match (V2 was not tested)
03 [af917001] (00/83) No match (V2 was not tested)
04 [9f03f877] (00/83) No match (V2 was not tested)
05 [076c6f86] (00/83) No match (V2 was not tested)
06 [e5c21c71] (00/83) No match (V2 was not tested)
07 [133a5aba] (00/82) No match (V2 was not tested)
08 [504fd0e2] (00/84) No match (V2 was not tested)
09 [1f0901eb] (00/82) No match (V2 was not tested)
10 [6d88e5d5] (00/82) No match (V2 was not tested)
11 [ff3a59cb] (00/82) No match (V2 was not tested)
12 [6a0ef37d] (00/82) No match (V2 was not tested)

Track Peak [ CRC32 ] [W/O NULL] [ LOG ]
– 99,9 [4E85CD10] [52A3D2EE] CRC32
01 98,3 [C5BF7416] [9FBCD5F5]
02 99,7 [CB754226] [55BA44ED]
03 99,5 [98B8A8C1] [33979D87]
04 99,5 [7E7F055F] [12C5CFEC]
05 98,7 [1554AB2D] [F89C5ED1]
06 99,7 [3CBEEC69] [3869FF91]
07 98,1 [EBEAD792] [BC910D80]
08 98,1 [A2A9529C] [82878DE7]
09 99,7 [B41C8D21] [5603C10B]
10 99,5 [76D43A54] [FAA3333D]
11 99,9 [EEA94441] [A1E44D36]
12 99,6 [6B7AFBCE] [B03C489D]

===========================

Roger Hodgson (ex-Supertramp) Discography (1984-2000) Re-up, New Rips

Roger Hodgson - Open The Door (2000)
EAC | Flac(Image) + Cue + Log & MP3 CBR 320Kbps
Austria | Sony/Red Spear, EPC 4977392 | ~ 360 or 126 MbScans(Jpg, 600dpi)
Prog-Related Classic Rock

This is Roger Hodgson's third solo studio album, 13 years after his second, the experimentalHai Hai (1987). During those 13 years, Hodgson had his personal challenges, including some health difficulties, but he did manage a tour, which is represented by 1997's Rites of Passage. During that tour, Hodgson dipped into the Supertramp catalog and this seemed to free him of his ghosts, because Open the Door is the closest thing to Supertramp since …Famous Last Words…. Hodgson still experiments with his music on this release (the title track, for example), but here it is couched in much more melodic tunes and personal lyrics. Also, the music has a tinge of a French style to it. Perhaps he was influenced by the French countryside, in which this album was recorded (Les Sorinieres, France); he used French artists as his backup band. The music is much more acoustic and much more gentle. The French influence is a breath of fresh air, as it is not often in heard in English releases, and Hodgson is able to mix it with his other influences (e.g., John Lennon). The highlights are many and as a whole it is a strong album. Fans will be delighted to hear Hodgson returning to the craft of writing high-quality songs. It is a shame it took 13 years for Hodgson to get to this point in his career.

by Aaron Badgley
Tracklist:

1. Along Came Mary 6:25
2. The More I Look 4:56
3. Showdown 5:20
4. Hungry 4:27
5. The Garden 2:15
6. Death And A Zoo 7:32
7. Love Is A Thousand Times 3:30
8. Say Goodbye 3:57
9. Open The Door 8:55
10. For Every Man 4:44

Credits:

Roger Hodgson: vocals, guitars, 12 string guitar, keyboards, harmonium, piano, pipe organ, harpsichord, bass

Alan Simon: high whistle, bodhran, harmonica
Loïc Ponthieu: drums, wavedrum
Laurent Verneret: bass guitar
Denis Banarrosh: percussion
Gerry Conway: percussion, drums
Christophe Negre: saxophone
Bruno Le Rouzic: bagpipe
Pascal Martin: uilleann pipe
Arnaud Dunoyer: Hammond organ
Jean Louis Roques: accordion
Jean Pierre Meneghin: Scottish drums
Gurvan Houdayer: Scottish drums
Marco Canepa: Morse code
Trevor Rabin: electric guitar, keyboards, vocals
Olivier Rousseau: piano
Didier Lockwood: violin
Jean-Jacques Milteau: harmonica
Claude Samard: banjo, dobro slide guitar, bouzouki, pedal steel guitar, oud
Dominique Regef: rebec, vielle a roue
Jeff Phillips: drums
Alan Thomson: bass guitar
Zdenek Rys: oboe
Pavel Belohlavek: cello
Michel Gaucher: flute
Manuel Delgado: Spanish guitar, palmas
Dan Ar Braz: arpegg. guitar
Ilana Russell (Alana Cunningham): children's chorus
Sierrah Dietz: children's chorus
Justine Black: children's chorus
Molly Katwman: children's chorus

The Symphonic Orchestra of Prague: conducted by Mario Klemens
The Bulgarian Voices "Philippopolis": conducted by Hristo Arabadjiev

Exact Audio Copy V1.1 from 23. June 2015

EAC extraction logfile from 2. October 2016, 14:57

Roger Hodgson / Open the Door (4977392)

Used drive : HL-DT-STDVDRAM GE20NU11 Adapter: 1 ID: 0

Read mode : Secure
Utilize accurate stream : Yes
Defeat audio cache : Yes
Make use of C2 pointers : No

Read offset correction : 667
Overread into Lead-In and Lead-Out : No
Fill up missing offset samples with silence : Yes
Delete leading and trailing silent blocks : No
Null samples used in CRC calculations : Yes
Used interface : Native Win32 interface for Win NT & 2000

Used output format : User Defined Encoder
Selected bitrate : 896 kBit/s
Quality : High
Add ID3 tag : No
Command line compressor : C:\Program Files\EAC 3\Exact Audio Copy\Flac\flac.exe
Additional command line options : -V -8 %source%


TOC of the extracted CD

Track | Start | Length | Start sector | End sector
––––––––––––––––––––––––––––-
1 | 0:00.00 | 6:24.70 | 0 | 28869
2 | 6:24.70 | 4:56.40 | 28870 | 51109
3 | 11:21.35 | 5:19.67 | 51110 | 75101
4 | 16:41.27 | 4:27.40 | 75102 | 95166
5 | 21:08.67 | 2:15.13 | 95167 | 105304
6 | 23:24.05 | 7:32.15 | 105305 | 139219
7 | 30:56.20 | 3:29.62 | 139220 | 154956
8 | 34:26.07 | 3:57.00 | 154957 | 172731
9 | 38:23.07 | 8:55.33 | 172732 | 212889
10 | 47:18.40 | 4:43.72 | 212890 | 234186


Range status and errors

Selected range

Filename Z:\OdW\ROGER HODGSON (1984-2000)\2000 - Open the Door (4977392)\Roger Hodgson - Open the Door (4977392).wav

Peak level 100.0 %
Extraction speed 7.1 X
Range quality 99.9 %
Test CRC B5C758FF
Copy CRC B5C758FF
Copy OK

No errors occurred


AccurateRip summary

Track 1 accurately ripped (confidence 63) [F34A5E73] (AR v2)
Track 2 accurately ripped (confidence 63) [C9B08A07] (AR v2)
Track 3 accurately ripped (confidence 63) [E2F97312] (AR v2)
Track 4 accurately ripped (confidence 63) [A3840F91] (AR v2)
Track 5 accurately ripped (confidence 63) [010FD907] (AR v2)
Track 6 accurately ripped (confidence 62) [B1530481] (AR v2)
Track 7 accurately ripped (confidence 62) [84D1658C] (AR v2)
Track 8 accurately ripped (confidence 63) [4C7FAC9B] (AR v2)
Track 9 accurately ripped (confidence 63) [054E695D] (AR v2)
Track 10 accurately ripped (confidence 63) [BE40F3A4] (AR v2)

All tracks accurately ripped

End of status report

–– CUETools DB Plugin V2.1.6

[CTDB TOCID: OkkMu0s6uJXdoyZKRdS06zdaEkE-] found
Submit result: OkkMu0s6uJXdoyZKRdS06zdaEkE- has been confirmed
Track | CTDB Status
1 | (103/106) Accurately ripped
2 | (104/106) Accurately ripped
3 | (103/106) Accurately ripped
4 | (104/106) Accurately ripped
5 | (104/106) Accurately ripped
6 | (104/106) Accurately ripped
7 | (104/106) Accurately ripped
8 | (103/106) Accurately ripped
9 | (102/106) Accurately ripped
10 | (102/106) Accurately ripped


==== Log checksum 3E636952DE893FF41EB6FABD74F926332B88AA6F93820898D53A3667A8359970 ====

foobar2000 1.2.9 / Dynamic Range Meter 1.1.1
log date: 2016-10-09 14:53:11

––––––––––––––––––––––––––––––––––––––––
Analyzed: Roger Hodgson / Open the Door (4977392)
––––––––––––––––––––––––––––––––––––––––

DR Peak RMS Duration Track
––––––––––––––––––––––––––––––––––––––––
DR8 0.00 dB -11.62 dB 6:25 01-Along Came Mary
DR8 0.00 dB -10.67 dB 4:57 02-The More I Look
DR8 0.00 dB -9.89 dB 5:20 03-Showdown
DR9 0.00 dB -10.61 dB 4:28 04-Hungry
DR10 0.00 dB -13.88 dB 2:15 05-The Garden
DR8 0.00 dB -12.81 dB 7:32 06-Death and a Zoo
DR9 0.00 dB -11.12 dB 3:30 07-Love Is a Thousand Times
DR8 -1.04 dB -12.35 dB 3:57 08-Say Goodbye
DR8 0.00 dB -11.36 dB 8:55 09-Open the Door
DR10 0.00 dB -13.09 dB 4:44 10-For Every Man
––––––––––––––––––––––––––––––––––––––––

Number of tracks: 10
Official DR value: DR9

Samplerate: 44100 Hz
Channels: 2
Bits per sample: 16
Bitrate: 907 kbps
Codec: FLAC

[CUETools log; Date: 02.10.2016 15:37:05; Version: 2.1.4]
[CTDB TOCID: OkkMu0s6uJXdoyZKRdS06zdaEkE-] found.
Track | CTDB Status
1 | (104/107) Accurately ripped
2 | (105/107) Accurately ripped
3 | (104/107) Accurately ripped
4 | (105/107) Accurately ripped
5 | (105/107) Accurately ripped
6 | (105/107) Accurately ripped
7 | (105/107) Accurately ripped
8 | (104/107) Accurately ripped
9 | (103/107) Accurately ripped
10 | (103/107) Accurately ripped
[AccurateRip ID: 00135f24-009a0155-7b0c320a] found.
Track [ CRC | V2 ] Status
01 [f0e7bfff|f34a5e73] (056+063/148) Accurately ripped
02 [b40b0235|c9b08a07] (056+063/148) Accurately ripped
03 [bff37cac|e2f97312] (056+063/148) Accurately ripped
04 [6bb635c1|a3840f91] (056+063/148) Accurately ripped
05 [9ae05247|010fd907] (055+063/147) Accurately ripped
06 [dc4e4114|b1530481] (056+062/147) Accurately ripped
07 [eaef5db9|84d1658c] (054+062/145) Accurately ripped
08 [e189abd2|4c7fac9b] (054+063/146) Accurately ripped
09 [dcfd51c0|054e695d] (056+063/150) Accurately ripped
10 [9c2f018d|be40f3a4] (054+063/144) Accurately ripped
Offsetted by -712:
01 [b4e25578] (002/148) Accurately ripped
02 [e80b777e] (002/148) Accurately ripped
03 [606c5ca5] (002/148) Accurately ripped
04 [44391e96] (002/148) Accurately ripped
05 [b560383f] (002/147) Accurately ripped
06 [d8542ce6] (002/147) Accurately ripped
07 [b9f28487] (002/145) Accurately ripped
08 [a7634cf8] (002/146) Accurately ripped
09 [6879ae5a] (004/150) Accurately ripped
10 [da243bf0] (002/144) Accurately ripped
Offsetted by -594:
01 [f1e6b419] (003/148) Accurately ripped
02 [f460e1ef] (003/148) Accurately ripped
03 [d77dc2c3] (003/148) Accurately ripped
04 [a61fc9a8] (003/148) Accurately ripped
05 [47644dbc] (003/147) Accurately ripped
06 [237f8798] (003/147) Accurately ripped
07 [b00c2bd2] (003/145) Accurately ripped
08 [40e7b67a] (003/146) Accurately ripped
09 [13b9d7aa] (003/150) Accurately ripped
10 [1fadeb69] (003/144) Accurately ripped
Offsetted by -30:
01 [f9e8b91c] (003/148) Accurately ripped
02 [a5a34d20] (003/148) Accurately ripped
03 [5627c316] (003/148) Accurately ripped
04 [98287bbd] (003/148) Accurately ripped
05 [349a9b30] (003/147) Accurately ripped
06 [2b8a1825] (003/147) Accurately ripped
07 [7dd1a8cf] (003/145) Accurately ripped
08 [582c3e29] (003/146) Accurately ripped
09 [276c5e7d] (003/150) Accurately ripped
10 [d6ae139d] (003/144) Accurately ripped
Offsetted by -748:
01 [1118feb3] (000/148) No match (V2 was not tested)
02 [d101caa2] (000/148) No match (V2 was not tested)
03 [51709c23] (000/148) No match (V2 was not tested)
04 [ac972f45] (000/148) No match (V2 was not tested)
05 [24512a2f] (000/147) No match (V2 was not tested)
06 [959b7115] (000/147) No match (V2 was not tested)
07 [ceb8e700] (000/145) No match (V2 was not tested)
08 [8e6dbbd7] (000/146) No match (V2 was not tested)
09 [71dbdf87] (000/150) No match (V2 was not tested)
10 [4f99c9dc] (000/144) No match (V2 was not tested)
Offsetted by -694:
01 [8550f77d] (000/148) No match (V2 was not tested)
02 [b9862402] (000/148) No match (V2 was not tested)
03 [cc543cc6] (000/148) No match (V2 was not tested)
04 [8fed957a] (000/148) No match (V2 was not tested)
05 [87d94a5b] (000/147) No match (V2 was not tested)
06 [312d7a24] (000/147) No match (V2 was not tested)
07 [b4353777] (000/145) No match (V2 was not tested)
08 [7e8fa564] (000/146) No match (V2 was not tested)
09 [3c526f74] (000/150) No match (V2 was not tested)
10 [1f6974fa] (000/144) No match (V2 was not tested)
Offsetted by -654:
01 [fd53f006] (000/148) No match (V2 was not tested)
02 [73de653f] (000/148) No match (V2 was not tested)
03 [c3a6ba9c] (000/148) No match (V2 was not tested)
04 [feb44656] (000/148) No match (V2 was not tested)
05 [eb307260] (000/147) No match (V2 was not tested)
06 [0b52b93b] (000/147) No match (V2 was not tested)
07 [93b61de1] (000/145) No match (V2 was not tested)
08 [942513b5] (000/146) No match (V2 was not tested)
09 [decfa37d] (000/150) No match (V2 was not tested)
10 [9413960f] (000/144) No match (V2 was not tested)
Offsetted by -92:
01 [20eb0393] (000/148) No match (V2 was not tested)
02 [2a1cca08] (000/148) No match (V2 was not tested)
03 [af10c6d1] (000/148) No match (V2 was not tested)
04 [0514a5f9] (000/148) No match (V2 was not tested)
05 [ada2fc95] (000/147) No match (V2 was not tested)
06 [7c847289] (000/147) No match
07 [2ba4385a] (000/145) No match
08 [7fbca7a0] (000/146) No match
09 [d4c4d386] (000/150) No match (V2 was not tested)
10 [b5f8f4ad] (000/144) No match
Offsetted by -78:
01 [22f717b3] (000/148) No match (V2 was not tested)
02 [b42fac81] (000/148) No match (V2 was not tested)
03 [7a34635e] (000/148) No match (V2 was not tested)
04 [78df521d] (000/148) No match (V2 was not tested)
05 [e384f328] (000/147) No match (V2 was not tested)
06 [a3abf802] (000/147) No match (V2 was not tested)
07 [eecd7435] (000/145) No match (V2 was not tested)
08 [d34f154e] (000/146) No match (V2 was not tested)
09 [88365d51] (000/150) No match (V2 was not tested)
10 [cddfca1d] (000/144) No match (V2 was not tested)

Track Peak [ CRC32 ] [W/O NULL] [ LOG ]
– 100,0 [B5C758FF] [81D4F449] CRC32
01 100,0 [25D8BAF6] [6B3EBFC8]
02 100,0 [026DA5CC] [02C3A364]
03 100,0 [EB2F4DF5] [3022FEB3]
04 100,0 [B07F9918] [76F677D0]
05 100,0 [2C5D8807] [C71077CB]
06 100,0 [B4A463EE] [FEA229F4]
07 100,0 [AEDAC2D5] [5B712D0F]
08 88,6 [9206BD1F] [CBDC2196]
09 100,0 [441F29A6] [9AF14ACE]
10 100,0 [770A508A] [4F62BE86]

All thanks go to Olaf der Weisse and yorrik90

Download Roger Hodgson (ex-Supertramp) Discography (1984-2000):