Subcategories

Roko - Fantasy (1996)

Posted By: uff
Roko - Fantasy (1996)

Roko - Fantasy (1996)
Rock | 1cd | EAC Rip | Flac + Cue + Log | covers
Roko, rk 10496 | rel: 1996 | 480Mb

Officially Roko's solo relese, this recording features Roko himself on all vocals, guitars, keyboards and programming, with drums and percussion by former ROKO-bandmember Ricky Lee. Much lighter than previous Roko material, this album has been classified as "adult-oriented rock".

Track listing
01. My Best Friend (4:38)
02. Paradise (4:12)
03. Life Goes On (4:32)
04. My Song For You (5:26)
05. You Must Try (4:00)
06. Don't Run Away (5:10)
07. Roots (5:40)
08. My Way (5:03)
09. I Want To Get My Heart Back (4:32)
10. Dancing In The Streets (4:31)
11. Dreaming (4:26)
12. You're So Wonderful (4:26)


Exact Audio Copy V1.0 beta 3 from 29. August 2011

EAC extraction logfile from 27. March 2014, 20:11

Roko / Fantasy

Used drive : PIONEER DVD-RW DVR-221L Adapter: 2 ID: 0

Read mode : Secure
Utilize accurate stream : Yes
Defeat audio cache : Yes
Make use of C2 pointers : No

Read offset correction : 6
Overread into Lead-In and Lead-Out : No
Fill up missing offset samples with silence : Yes
Delete leading and trailing silent blocks : No
Null samples used in CRC calculations : Yes
Used interface : Native Win32 interface for Win NT & 2000

Used output format : Internal WAV Routines
Sample format : 44.100 Hz; 16 Bit; Stereo


TOC of the extracted CD

Track | Start | Length | Start sector | End sector
––––––––––––––––––––––––––––-
1 | 0:00.00 | 4:38.35 | 0 | 20884
2 | 4:38.35 | 4:12.10 | 20885 | 39794
3 | 8:50.45 | 4:32.50 | 39795 | 60244
4 | 13:23.20 | 5:26.60 | 60245 | 84754
5 | 18:50.05 | 4:00.45 | 84755 | 102799
6 | 22:50.50 | 5:10.05 | 102800 | 126054
7 | 28:00.55 | 5:40.65 | 126055 | 151619
8 | 33:41.45 | 5:03.45 | 151620 | 174389
9 | 38:45.15 | 4:32.60 | 174390 | 194849
10 | 43:18.00 | 4:31.35 | 194850 | 215209
11 | 47:49.35 | 4:26.45 | 215210 | 235204
12 | 52:16.05 | 4:26.30 | 235205 | 255184


Range status and errors

Selected range

Filename D:\Свои Рипы на Линия Жизни\Roko - Fantasy.wav

Peak level 100.0 %
Extraction speed 8.0 X
Range quality 100.0 %
Copy CRC 80ACC33C
Copy OK

No errors occurred


AccurateRip summary

Track 1 cannot be verified as accurate (confidence 1) [DF835E85], AccurateRip returned [59B9D13B] (AR v2)
Track 2 cannot be verified as accurate (confidence 1) [BD2012A4], AccurateRip returned [B5B86850] (AR v2)
Track 3 cannot be verified as accurate (confidence 1) [0142193B], AccurateRip returned [03ADDDE4] (AR v2)
Track 4 cannot be verified as accurate (confidence 1) [F1282846], AccurateRip returned [439C9F01] (AR v2)
Track 5 cannot be verified as accurate (confidence 1) [ADBB49B1], AccurateRip returned [6BB0E850] (AR v2)
Track 6 cannot be verified as accurate (confidence 1) [7EC5C5C1], AccurateRip returned [4A71985F] (AR v2)
Track 7 cannot be verified as accurate (confidence 1) [514E3BA8], AccurateRip returned [07A832CC] (AR v2)
Track 8 cannot be verified as accurate (confidence 1) [3BCF9F71], AccurateRip returned [F2A33741] (AR v2)
Track 9 cannot be verified as accurate (confidence 1) [C897D33E], AccurateRip returned [3D545EA3] (AR v2)
Track 10 cannot be verified as accurate (confidence 1) [58785529], AccurateRip returned [011AE72F] (AR v2)
Track 11 cannot be verified as accurate (confidence 1) [38B6AA6F], AccurateRip returned [E5405CCE] (AR v2)
Track 12 cannot be verified as accurate (confidence 1) [D266E566], AccurateRip returned [772FD096] (AR v2)

No tracks could be verified as accurate
You may have a different pressing from the one(s) in the database

End of status report

==== Log checksum 923AAB36BD0C7F34B19B5851C03CCFA007A9671173AA185CBE36E918CFF8D1CE ====



[CUETools log; Date: 2016. 12. 02. 18:37:56; Version: 2.1.6]
[AccurateRip ID: 00195843-00ed79e9-860d4a0c] found.
Track [ CRC | V2 ] Status
01 [1101f1cf|df835e85] (0+0/1) No match
02 [fee8b9bc|bd2012a4] (0+0/1) No match
03 [3740e5db|0142193b] (0+0/1) No match
04 [3e64c598|f1282846] (0+0/1) No match
05 [087b23d3|adbb49b1] (0+0/1) No match
06 [3b8cc706|7ec5c5c1] (0+0/1) No match
07 [cc620994|514e3ba8] (0+0/1) No match
08 [ecee0837|3bcf9f71] (0+0/1) No match
09 [aa52a1cf|c897d33e] (0+0/1) No match
10 [902e5d0d|58785529] (0+0/1) No match
11 [b7925625|38b6aa6f] (0+0/1) No match
12 [56a270df|d266e566] (0+0/1) No match
Offsetted by 6:
01 [8d591c6b] (0/1) No match (V2 was not tested)
02 [f973e02c] (0/1) No match (V2 was not tested)
03 [3bcbcac3] (0/1) No match (V2 was not tested)
04 [9363d68a] (0/1) No match (V2 was not tested)
05 [c8489d1f] (0/1) No match (V2 was not tested)
06 [099c2b42] (0/1) No match (V2 was not tested)
07 [856439ce] (0/1) No match (V2 was not tested)
08 [a6203c22] (0/1) No match (V2 was not tested)
09 [1fbbd75b] (0/1) No match (V2 was not tested)
10 [3ae7931c] (0/1) No match (V2 was not tested)
11 [662b8f53] (0/1) No match (V2 was not tested)
12 [fd7d5037] (0/1) No match (V2 was not tested)

Track Peak [ CRC32 ] [W/O NULL] [ LOG ]
– 100,0 [80ACC33C] [0AFED99B] CRC32
01 91,0 [5EB5087B] [28A74B7B]
02 100,0 [08224E33] [3028787D]
03 96,4 [42E68195] [401B1F0C]
04 94,5 [68BCFD67] [2DF3CDDC]
05 100,0 [C656BF1B] [66E34190]
06 97,8 [77547381] [7BEAD838]
07 98,7 [9DE0F2A1] [88B3B175]
08 100,0 [6AF1FABD] [4D0A6E3A]
09 100,0 [768501AE] [471A73B6]
10 93,5 [78338D0A] [144B7333]
11 100,0 [98FE2EDA] [CEE82C1C]
12 93,2 [A00113D7] [794FAC0C]


Thx to labanov
Bigfile
Filefactory

password: asd