Subcategories
Tags
Language
Tags

Roland Bader - Max Reger: Requiem (2006)

Posted By: tirexiss
Roland Bader - Max Reger: Requiem (2006)

Roland Bader - Max Reger: Requiem (2006)
EAC | FLAC (image+.cue, log) | Covers Included | 51:12 | 268 MB
Genre: Classical | Label: Koch Schwann | Catalog: 313 004 H1

Reger wrote the Latin Requiem in 1914 in remembrance of soldiers fallen in the 1st World War - but after completing approx 30 minutes of music, was talked out of completing it by a well meaning but entirely misguided musical associate. What remains is a massive, dense, hugely impressive torso of highly chromatic, late Romantic choral/soloists/orchestral music of the first order. Highly recommended.

Roland Bader - Max Reger: Requiem (2006)

Track List:

Max Reger (1873-1916)

01. Requiem op.144b [0:15:31.25]
02. Latin Requiem op.145a [0:22:04.00]
03. Dies Irae [0:13:42.25]

Performers:
Yoko Kawahara - soprano
Marga Höffgen - contralto
Hans-Dieter Bader - tenor
Nikolaus Hillebrand - bass
NDR Chor
Sinfonie-Orchester des NDR
Roland Bader - conductor

Exact Audio Copy V1.0 beta 3 from 29. August 2011

EAC extraction logfile from 3. June 2013, 12:58

Roland Bader / Mar Reger - Requiem - Roland Bader

Used drive : TSSTcorpCDDVDW SH-222BB Adapter: 2 ID: 1

Read mode : Secure
Utilize accurate stream : Yes
Defeat audio cache : Yes
Make use of C2 pointers : No

Read offset correction : 6
Overread into Lead-In and Lead-Out : No
Fill up missing offset samples with silence : Yes
Delete leading and trailing silent blocks : No
Null samples used in CRC calculations : Yes
Used interface : Native Win32 interface for Win NT & 2000

Used output format : User Defined Encoder
Selected bitrate : 1024 kBit/s
Quality : High
Add ID3 tag : No
Command line compressor : C:\Program Files\Exact Audio Copy\Flac\flac.exe
Additional command line options : -8 -V -T "TITLE=%title%" -T "ARTIST=%artist%" -T "ALBUMARTIST=%albumartist%" -T "ALBUM=%albumtitle%" -T "DATE=%year%" -T "TRACKNUMBER=%tracknr%" -T "TRACKTOTAL=%numtracks%" -T "GENRE=%genre%" -T "COMMENT=%comment%" -T "PERFORMER=%albuminterpret%" -T "COMPOSER=%composer%" %source% -o %dest%


TOC of the extracted CD

Track | Start | Length | Start sector | End sector
––––––––––––––––––––––––––––-
1 | 0:00.00 | 15:31.25 | 0 | 69849
2 | 15:31.25 | 22:04.00 | 69850 | 169149
3 | 37:35.25 | 13:42.25 | 169150 | 230824


Range status and errors

Selected range

Filename G:\Ripped general\[3414] Mar Reger – Requiem – Roland Bader\Mar Reger - Requiem - Roland Bader.wav

Peak level 100.0 %
Extraction speed 2.8 X
Range quality 99.9 %
Test CRC 884DF6CC
Copy CRC 884DF6CC
Copy OK

No errors occurred


AccurateRip summary

Track 1 not present in database
Track 2 not present in database
Track 3 not present in database

None of the tracks are present in the AccurateRip database

End of status report

Thanks to the Original ripper (unknown)!

Welcome to my blog!

Download: