Subcategories

The Rolling Stones: Collection (1964-1969) [11CD, 1989, Polydor Japan]

Posted By: v3122
The Rolling Stones: Collection (1964-1969) [11CD, 1989, Polydor Japan]

The Rolling Stones: Collection (1964-1969)
EAC | Flac(Image) + Cue + Log & MP3 CBR 320Kbps
11CD | olydor Japan | ~ 2313 or 1051 Mb | Artwork(jpg) -> 435 Mb
Blues Rock, Classic Rock, Rock & Roll

The Rolling Stones are an English rock band formed in London in 1962. The first stable line-up consisted of bandleader Brian Jones (guitar, harmonica, keyboards), Mick Jagger (lead vocals, harmonica), Keith Richards (guitar, vocals), Bill Wyman (bass), Charlie Watts (drums), and Ian Stewart (piano). Stewart was removed from the official line-up in 1963 but continued to work with the band as a contracted musician until his death in 1985. The band's primary songwriters, Jagger and Richards, assumed leadership after Andrew Loog Oldham became the group's manager. Jones left the band less than a month before his death in 1969, having already been replaced by Mick Taylor, who remained until 1974. After Taylor left the band, Ronnie Wood took his place in 1975 and continues on guitar in tandem with Richards. Since Wyman's departure in 1993, Darryl Jones has served as touring bassist. The Stones have not had an official keyboardist since 1963, but have employed several musicians in that role, including Jack Nitzsche (1965–1971), Nicky Hopkins (1967–1982), Billy Preston (1971–1981), Ian McLagan (1978–1981), and Chuck Leavell (1982–present).

The Rolling Stones were at the forefront of the British Invasion of bands that became popular in the United States in 1964 and were identified with the youthful and rebellious counterculture of the 1960s. Rooted in blues and early rock and roll, the band started out playing covers but found more success with their own material; songs such as "(I Can't Get No) Satisfaction" and "Paint It Black" became international hits. After a short period of experimentation with psychedelic rock in the mid-1960s, the group returned to its "bluesy" roots with Beggars Banquet (1968), Let It Bleed (1969), Sticky Fingers (1971), and Exile on Main St. (1972). It was during this period they were first introduced on stage as "The Greatest Rock and Roll Band in the World."

The band continued to release commercially successful albums through the 1970s and early 1980s, including Some Girls (1978) and Tattoo You (1981), the two best-sellers in their discography. During the 1980s, the band infighting curtailed their output and they only released two more underperforming albums and did not tour for the rest of the decade. Their fortunes changed at the end of the decade, when they released Steel Wheels (1989), promoted by a large stadium and arena tour, the Steel Wheels/Urban Jungle Tour. Since the 1990s, new material has been less frequent. Despite this, the Rolling Stones continue to be a huge attraction on the live circuit. By 2007, the band had four of the top five highest-grossing concert tours of all time: Voodoo Lounge Tour (1994–1995), Bridges to Babylon Tour (1997–1998), Licks Tour (2002–2003) and A Bigger Bang (2005–2007). Musicologist Robert Palmer attributes the endurance of the Rolling Stones to their being "rooted in traditional verities, in rhythm-and-blues and soul music", while "more ephemeral pop fashions have come and gone".

The Rolling Stones were inducted into the Rock and Roll Hall of Fame in 1989 and the UK Music Hall of Fame in 2004. Rolling Stone magazine ranked them fourth on the "100 Greatest Artists of All Time" list and their estimated record sales are above 250 million. They have released 30 studio albums, 23 live albums and numerous compilations. Let It Bleed (1969) marked the first of five consecutive No. 1 studio and live albums in the UK. Sticky Fingers (1971) was the first of eight consecutive No. 1 studio albums in the US. In 2008, the band ranked 10th on the Billboard Hot 100 All-Time Top Artists chart. In 2012, the band celebrated its 50th anniversary. The band still continues to release albums to brisk sales and critical acclaim; their most recent album Blue & Lonesome was released in December 2016 and reached No. 1 on the UK Album Charts and No. 4 in the U.S. and won a Grammy Award for Best Traditional Blues Album. The band also continues to sell out venues, they have been on their No Filter Tour since September, 2017 and will wrap up the tour with a North American leg over Summer 2019…

~ wiki
The Rolling Stones: Collection (1964-1969):

The Rolling Stones: Collection (1964-1969) [11CD, 1989, Polydor Japan]

Tracklist CD1 - 1964. The Rolling Stones [1989 Japan Original, Polydor P25L 25031]:

1. Route 66 (2:22)
2. I Just Want To Make Love To You (2:19)
3. Honest I Do (2:11)
4. Mona (I Need You Baby) (3:36)
5. Now I've Got A Witness (2:31)
6. Little By Little (2:41)
7. I'm King Bee (2:37)
8. Carol (2:36)
9. Tell Me (4:08)
10. Can I Get A Witness (2:58)
11. You Can Make It If You Try (2:03)
12. Walking The Dog (3:10)

Exact Audio Copy V1.0 beta 3 from 29. August 2011

EAC extraction logfile from 10. November 2014, 16:02

The Rolling Stones / The Rolling Stones [P25L 25031]

Used drive : HL-DT-STDVD+-RW GH50N Adapter: 0 ID: 1

Read mode : Secure
Utilize accurate stream : Yes
Defeat audio cache : Yes
Make use of C2 pointers : No

Read offset correction : 667
Overread into Lead-In and Lead-Out : No
Fill up missing offset samples with silence : Yes
Delete leading and trailing silent blocks : No
Null samples used in CRC calculations : Yes
Used interface : Native Win32 interface for Win NT & 2000

Used output format : User Defined Encoder
Selected bitrate : 768 kBit/s
Quality : High
Add ID3 tag : No
Command line compressor : C:\Program Files (x86)\Exact Audio Copy\FLAC\FLAC.EXE
Additional command line options : -V -8 -T "Date=%year%" -T "Genre=%genre%" %source%


TOC of the extracted CD

Track | Start | Length | Start sector | End sector
––––––––––––––––––––––––––––-
1 | 0:00.37 | 2:22.55 | 37 | 10741
2 | 2:23.17 | 2:19.10 | 10742 | 21176
3 | 4:42.27 | 2:11.13 | 21177 | 31014
4 | 6:53.40 | 3:36.25 | 31015 | 47239
5 | 10:29.65 | 2:31.45 | 47240 | 58609
6 | 13:01.35 | 2:41.22 | 58610 | 70706
7 | 15:42.57 | 2:37.50 | 70707 | 82531
8 | 18:20.32 | 2:36.20 | 82532 | 94251
9 | 20:56.52 | 4:08.30 | 94252 | 112881
10 | 25:05.07 | 2:58.20 | 112882 | 126251
11 | 28:03.27 | 2:03.05 | 126252 | 135481
12 | 30:06.32 | 3:10.58 | 135482 | 149789


Range status and errors

Selected range

Filename C:\222\London\Japan\1964 - TRS\The Rolling Stones - The Rolling Stones [P25L 25031].wav

Peak level 100.0 %
Extraction speed 2.8 X
Range quality 100.0 %
Test CRC A5C9598B
Copy CRC A5C9598B
Copy OK

No errors occurred


AccurateRip summary

Track 1 accurately ripped (confidence 6) [EE19C2BF] (AR v2)
Track 2 accurately ripped (confidence 6) [B1165B23] (AR v2)
Track 3 accurately ripped (confidence 6) [40F19B64] (AR v2)
Track 4 accurately ripped (confidence 6) [DB085F73] (AR v2)
Track 5 accurately ripped (confidence 6) [8BD8AB18] (AR v2)
Track 6 accurately ripped (confidence 6) [BE8E5926] (AR v2)
Track 7 accurately ripped (confidence 6) [B1894655] (AR v2)
Track 8 accurately ripped (confidence 6) [28EC3E3B] (AR v2)
Track 9 accurately ripped (confidence 6) [FA0F185D] (AR v2)
Track 10 accurately ripped (confidence 6) [6A80B6BF] (AR v2)
Track 11 accurately ripped (confidence 6) [BDD2F0B9] (AR v2)
Track 12 accurately ripped (confidence 6) [F3B37C54] (AR v2)

All tracks accurately ripped

End of status report

==== Log checksum 9C1EA4B7C2C4504617F4737B3F73918C1BE3752B2CD050CEB6D9F9899DEB2CF5 ====


[CUETools log; Date: 10.06.2017 8:35:51; Version: 2.1.5]
Pregap length 00:00:37.
[CTDB TOCID: kXW1hfB1FwqIQ.kkLp52l1cy.Is-] found.
Track | CTDB Status
1 | (13/13) Accurately ripped
2 | (13/13) Accurately ripped
3 | (13/13) Accurately ripped
4 | (13/13) Accurately ripped
5 | (13/13) Accurately ripped
6 | (13/13) Accurately ripped
7 | (13/13) Accurately ripped
8 | (13/13) Accurately ripped
9 | (13/13) Accurately ripped
10 | (13/13) Accurately ripped
11 | (13/13) Accurately ripped
12 | (12/13) Accurately ripped
[AccurateRip ID: 000e5aae-0087aad3-9707cd0c] found.
Track [ CRC | V2 ] Status
01 [ecee0eca|ee19c2bf] (2+7/9) Accurately ripped
02 [0466b752|b1165b23] (2+7/9) Accurately ripped
03 [81e2d5f8|40f19b64] (2+7/9) Accurately ripped
04 [f9415164|db085f73] (2+7/9) Accurately ripped
05 [444c13c6|8bd8ab18] (2+7/9) Accurately ripped
06 [c3a68838|be8e5926] (2+7/9) Accurately ripped
07 [1f4fd126|b1894655] (2+7/9) Accurately ripped
08 [94327102|28ec3e3b] (2+7/9) Accurately ripped
09 [33ccc2e1|fa0f185d] (2+7/9) Accurately ripped
10 [1b330a8c|6a80b6bf] (2+7/9) Accurately ripped
11 [5a66f36c|bdd2f0b9] (2+7/9) Accurately ripped
12 [7427bbee|f3b37c54] (2+6/8) Accurately ripped

Track Peak [ CRC32 ] [W/O NULL] [ LOG ]
– 100,0 [A5C9598B] [5112CA6D] CRC32
01 97,4 [2BFA5284] [06735438]
02 100,0 [B4A92B22] [4E4666ED]
03 92,0 [7B7F7C98] [2E499CE1]
04 100,0 [F391EDCA] [CA9B5564]
05 100,0 [BE9C99AD] [ADD628E3]
06 96,7 [8D1B8594] [C039C9C0]
07 95,6 [265CC312] [A384254A]
08 98,4 [7D3A484F] [5172700A]
09 100,0 [388514DE] [42207733]
10 99,5 [9F5226B7] [BEE6DCCC]
11 97,7 [82C82571] [0067D1FB]
12 100,0 [74CBC49B] [1495BD57]


The Rolling Stones: Collection (1964-1969) [11CD, 1989, Polydor Japan]

Tracklist CD2 - 1964. 12x5 [1989 Japan Original, Polydor P25L 25033]:

1. Everybody Needs Somebody To Love (5:07)
2. Down Home Girl (4:17)
3. You Can't Catch Me (3:38)
4. Time Is On My Side (3:00)
5. What A Shame (3:09)
6. Grown Up Wrong (2:08)
7. Down The Road Apiece (3:00)
8. Under The Boardwalk (2:50)
9. I Can't Be Satisfied (3:31)
10. Pain In My Heart (2:14)
11. Off The Hook (2:37)
12. Suzie Q (1:54)

Exact Audio Copy V1.0 beta 3 from 29. August 2011

EAC extraction logfile from 13. January 2015, 15:51

The Rolling Stones / 12 x 5 [P25L 25032]

Used drive : HL-DT-STDVD+-RW GH50N Adapter: 0 ID: 1

Read mode : Secure
Utilize accurate stream : Yes
Defeat audio cache : Yes
Make use of C2 pointers : No

Read offset correction : 667
Overread into Lead-In and Lead-Out : No
Fill up missing offset samples with silence : Yes
Delete leading and trailing silent blocks : No
Null samples used in CRC calculations : Yes
Used interface : Native Win32 interface for Win NT & 2000

Used output format : User Defined Encoder
Selected bitrate : 768 kBit/s
Quality : High
Add ID3 tag : No
Command line compressor : C:\Program Files (x86)\Exact Audio Copy\FLAC\FLAC.EXE
Additional command line options : -V -8 -T "Date=%year%" -T "Genre=%genre%" %source%


TOC of the extracted CD

Track | Start | Length | Start sector | End sector
––––––––––––––––––––––––––––-
1 | 0:00.37 | 3:08.23 | 37 | 14159
2 | 3:08.60 | 2:51.32 | 14160 | 27016
3 | 6:00.17 | 2:39.73 | 27017 | 39014
4 | 8:40.15 | 2:55.00 | 39015 | 52139
5 | 11:35.15 | 2:36.15 | 52140 | 63854
6 | 14:11.30 | 3:30.27 | 63855 | 79631
7 | 17:41.57 | 2:10.55 | 79632 | 89436
8 | 19:52.37 | 2:48.70 | 89437 | 102106
9 | 22:41.32 | 2:30.45 | 102107 | 113401
10 | 25:12.02 | 2:08.18 | 113402 | 123019
11 | 27:20.20 | 2:06.22 | 123020 | 132491
12 | 29:26.42 | 1:49.20 | 132492 | 140686


Range status and errors

Selected range

Filename C:\222\London\Japan\1964 - 12x5\The Rolling Stones - 12 x 5 [P25L 25032].wav

Peak level 92.2 %
Extraction speed 2.7 X
Range quality 99.9 %
Test CRC F33F52E5
Copy CRC F33F52E5
Copy OK

No errors occurred


AccurateRip summary

Track 1 accurately ripped (confidence 1) [B3B3659E] (AR v2)
Track 2 accurately ripped (confidence 1) [8442F7F2] (AR v2)
Track 3 accurately ripped (confidence 1) [BE28FE5B] (AR v2)
Track 4 accurately ripped (confidence 1) [31E32B07] (AR v2)
Track 5 accurately ripped (confidence 1) [ADD4FCF8] (AR v2)
Track 6 accurately ripped (confidence 1) [0B3B8D5A] (AR v2)
Track 7 accurately ripped (confidence 1) [EAA39F2F] (AR v2)
Track 8 accurately ripped (confidence 1) [A1DFA3A4] (AR v2)
Track 9 accurately ripped (confidence 1) [45F08045] (AR v2)
Track 10 accurately ripped (confidence 1) [C900085E] (AR v2)
Track 11 accurately ripped (confidence 1) [8BBC19B7] (AR v2)
Track 12 accurately ripped (confidence 1) [F6EAECDB] (AR v2)

All tracks accurately ripped

End of status report

==== Log checksum 0725E99E604DC34A66D3A76BD9A5E849770EFF8775E42C6038A8ED8AEC32F5DC ====


[CUETools log; Date: 10.06.2017 8:37:56; Version: 2.1.5]
Pregap length 00:00:37.
[CTDB TOCID: _Wtt0zC1sOs_A5D51kD2DK0jopo-] found.
Track | CTDB Status
1 | (11/11) Accurately ripped
2 | (11/11) Accurately ripped
3 | (11/11) Accurately ripped
4 | (11/11) Accurately ripped
5 | (11/11) Accurately ripped
6 | (11/11) Accurately ripped
7 | (11/11) Accurately ripped
8 | (11/11) Accurately ripped
9 | (11/11) Accurately ripped
10 | (11/11) Accurately ripped
11 | (11/11) Accurately ripped
12 | (11/11) Accurately ripped
[AccurateRip ID: 000ee869-00897098-9a07530c] found.
Track [ CRC | V2 ] Status
01 [466b088e|b3b3659e] (0+2/2) Accurately ripped
02 [4ae2cc37|8442f7f2] (0+2/2) Accurately ripped
03 [c499f2de|be28fe5b] (0+2/2) Accurately ripped
04 [5af1caf2|31e32b07] (0+2/2) Accurately ripped
05 [2d4ea3d0|add4fcf8] (0+2/2) Accurately ripped
06 [6d95434d|0b3b8d5a] (0+2/2) Accurately ripped
07 [71d7d25b|eaa39f2f] (0+2/2) Accurately ripped
08 [ca9fe729|a1dfa3a4] (0+2/2) Accurately ripped
09 [3a5056e3|45f08045] (0+2/2) Accurately ripped
10 [227e6362|c900085e] (0+2/2) Accurately ripped
11 [f0e20a50|8bbc19b7] (0+2/2) Accurately ripped
12 [38a7b4c3|f6eaecdb] (0+2/2) Accurately ripped

Track Peak [ CRC32 ] [W/O NULL] [ LOG ]
– 92,2 [F33F52E5] [B47C4C14] CRC32
01 79,1 [FCC53B94] [7B986461]
02 80,3 [DE650AAB] [FF4F458A]
03 92,2 [AD694190] [069654FA]
04 68,9 [C3BA322F] [8D1C9456]
05 71,1 [329C8C2D] [4D7ED5A2]
06 89,5 [1B80FB51] [DC2C61D6]
07 80,5 [1850F3A8] [2266A000]
08 66,6 [A9F8B55C] [2534C0B3]
09 75,8 [92095797] [91FE5E4F]
10 75,9 [A669E091] [20B4B64C]
11 75,6 [C9277561] [9C56DDB2]
12 75,6 [CE2952D7] [9E8F19E2]


The Rolling Stones: Collection (1964-1969) [11CD, 1989, Polydor Japan]

Tracklist CD3 - 1965. The Rolling Stones, Now! [1989 Japan Original, Polydor P25L 25034]:

1. Everybody Needs Somebody To Love (Version 2) (2:57)
2. Down Home Girl (4:11)
3. You Can't Catch Me (3:36)
4. Heart Of Stone (2:47)
5. What A Shame (3:03)
6. I Need You Baby (Mona) (3:33)
7. Down The Road Apiece (2:56)
8. Off The Hook (2:34)
9. Pain In My Heart (Version 1) (2:11)
10. Oh! Baby (We Got A Good Thing Goin') (Version 1) (2:07)
11. Little Red Rooster (3:05)
12. Surprise, Surprise (2:30)

Exact Audio Copy V1.0 beta 3 from 29. August 2011

EAC extraction logfile from 6. April 2013, 21:13

The Rolling Stones / The Rolling Stones, Now! (P25L 25034)

Used drive : PLEXTOR DVDR PX-891SA Adapter: 1 ID: 0

Read mode : Secure
Utilize accurate stream : Yes
Defeat audio cache : Yes
Make use of C2 pointers : No

Read offset correction : 6
Overread into Lead-In and Lead-Out : No
Fill up missing offset samples with silence : Yes
Delete leading and trailing silent blocks : No
Null samples used in CRC calculations : Yes
Used interface : Native Win32 interface for Win NT & 2000

Used output format : User Defined Encoder
Selected bitrate : 1024 kBit/s
Quality : High
Add ID3 tag : No
Command line compressor : C:\Program Files\Exact Audio Copy\Flac\flac.exe
Additional command line options : -V -8 -T "Genre=%genre%" -T "Artist=%artist%" -T "Title=%title%" -T "Album=%albumtitle%" -T "Date=%year%" -T "Tracknumber=%tracknr%" -T "Comment=%comment%" %source%


TOC of the extracted CD

Track | Start | Length | Start sector | End sector
––––––––––––––––––––––––––––-
1 | 0:00.37 | 3:01.43 | 37 | 13654
2 | 3:02.05 | 4:15.40 | 13655 | 32819
3 | 7:17.45 | 3:40.42 | 32820 | 49361
4 | 10:58.12 | 2:52.48 | 49362 | 62309
5 | 13:50.60 | 3:09.35 | 62310 | 76519
6 | 17:00.20 | 3:37.72 | 76520 | 92866
7 | 20:38.17 | 3:01.08 | 92867 | 106449
8 | 23:39.25 | 2:39.30 | 106450 | 118404
9 | 26:18.55 | 2:15.25 | 118405 | 128554
10 | 28:34.05 | 2:12.60 | 128555 | 138514
11 | 30:46.65 | 3:08.57 | 138515 | 152671
12 | 33:55.47 | 2:30.03 | 152672 | 163924


Range status and errors

Selected range

Filename H:\dafnaplus\The Rolling Stones - The Rolling Stones, Now! (P25L 25034)\The Rolling Stones - The Rolling Stones, Now! (P25L 25034).wav

Peak level 100.0 %
Extraction speed 3.0 X
Range quality 100.0 %
Test CRC 9D837151
Copy CRC 9D837151
Copy OK

No errors occurred


AccurateRip summary

Track 1 accurately ripped (confidence 1) [E8EECADC] (AR v1)
Track 2 accurately ripped (confidence 1) [E6424E91] (AR v1)
Track 3 accurately ripped (confidence 1) [80B37BF8] (AR v1)
Track 4 accurately ripped (confidence 1) [E341BC5E] (AR v1)
Track 5 accurately ripped (confidence 1) [E778487F] (AR v1)
Track 6 accurately ripped (confidence 1) [629C11EF] (AR v1)
Track 7 accurately ripped (confidence 1) [76730CD3] (AR v1)
Track 8 accurately ripped (confidence 1) [9ADC9F62] (AR v1)
Track 9 accurately ripped (confidence 1) [AC6661ED] (AR v1)
Track 10 accurately ripped (confidence 1) [0AF7F281] (AR v1)
Track 11 accurately ripped (confidence 1) [5FE6EE71] (AR v1)
Track 12 accurately ripped (confidence 1) [8BF2E903] (AR v1)

All tracks accurately ripped

End of status report

==== Log checksum BABC123539894CF959B164E7BB24231492DC15FB97C7D727F51173CA0EAED5CA ====


[CUETools log; Date: 10.06.2017 8:39:00; Version: 2.1.5]
Pregap length 00:00:37.
[CTDB TOCID: LFyFQApi3.tHkVa.I2JBKSOGCc8-] found.
Track | CTDB Status
1 | (6/6) Accurately ripped
2 | (6/6) Accurately ripped
3 | (6/6) Accurately ripped
4 | (6/6) Accurately ripped
5 | (6/6) Accurately ripped
6 | (6/6) Accurately ripped
7 | (6/6) Accurately ripped
8 | (6/6) Accurately ripped
9 | (6/6) Accurately ripped
10 | (6/6) Accurately ripped
11 | (6/6) Accurately ripped
12 | (6/6) Accurately ripped
[AccurateRip ID: 001155dd-009f3407-8a08890c] found.
Track [ CRC | V2 ] Status
01 [e8eecadc|48855155] (0+3/3) Accurately ripped
02 [e6424e91|8b148bc7] (0+3/3) Accurately ripped
03 [80b37bf8|64c654ba] (0+3/3) Accurately ripped
04 [e341bc5e|5d00575d] (0+3/3) Accurately ripped
05 [e778487f|3a4625fe] (0+3/3) Accurately ripped
06 [629c11ef|c9be5b5c] (0+3/3) Accurately ripped
07 [76730cd3|db5f57c4] (0+3/3) Accurately ripped
08 [9adc9f62|bb143d86] (0+3/3) Accurately ripped
09 [ac6661ed|0734b4c3] (0+3/3) Accurately ripped
10 [0af7f281|02ca791b] (0+3/3) Accurately ripped
11 [5fe6ee71|2dfdd2f5] (0+3/3) Accurately ripped
12 [8bf2e903|050dc9dd] (0+3/3) Accurately ripped

Track Peak [ CRC32 ] [W/O NULL] [ LOG ]
– 100,0 [9D837151] [F38EBFB4] CRC32
01 100,0 [9A1D82EB] [59038EFE]
02 88,6 [448AC4ED] [A96CFBE3]
03 89,8 [C7ED14F5] [0762F146]
04 100,0 [F3F6E2FD] [4966C96F]
05 64,3 [94C19AF1] [32591940]
06 94,6 [C6296C62] [E31B2429]
07 67,7 [BE7F49EE] [DFA8C6B8]
08 95,1 [30163507] [FC03C326]
09 89,5 [F26D1A71] [6F7CAABC]
10 93,7 [4863548F] [6681C64B]
11 96,6 [CB366D0A] [E410ED5F]
12 100,0 [E6B504C0] [46B56A2C]


The Rolling Stones: Collection (1964-1969) [11CD, 1989, Polydor Japan]

Tracklist CD4 - 1965. The Rolling Stones No. 2 [1989 Japan Original, Polydor P25L 25033]:

1. Everybody Needs Somebody To Love (5:07)
2. Down Home Girl (4:17)
3. You Can't Catch Me (3:38)
4. Time Is On My Side (3:00)
5. What A Shame (3:09)
6. Grown Up Wrong (2:08)
7. Down The Road Apiece (3:00)
8. Under The Boardwalk (2:50)
9. I Can't Be Satisfied (3:31)
10. Pain In My Heart (2:14)
11. Off The Hook (2:37)
12. Suzie Q (1:54)

Exact Audio Copy V1.0 beta 3 from 29. August 2011

EAC extraction logfile from 7. April 2014, 17:38

The Rolling Stones / The Rolling Stones No2 [P25L 25033]

Used drive : HL-DT-STDVD+-RW GH50N Adapter: 0 ID: 1

Read mode : Secure
Utilize accurate stream : Yes
Defeat audio cache : Yes
Make use of C2 pointers : No

Read offset correction : 667
Overread into Lead-In and Lead-Out : No
Fill up missing offset samples with silence : Yes
Delete leading and trailing silent blocks : No
Null samples used in CRC calculations : Yes
Used interface : Native Win32 interface for Win NT & 2000

Used output format : User Defined Encoder
Selected bitrate : 768 kBit/s
Quality : High
Add ID3 tag : No
Command line compressor : C:\Program Files (x86)\Exact Audio Copy\FLAC\FLAC.EXE
Additional command line options : -V -8 -T "Date=%year%" -T "Genre=%genre%" %source%


TOC of the extracted CD

Track | Start | Length | Start sector | End sector
––––––––––––––––––––––––––––-
1 | 0:00.37 | 5:07.00 | 37 | 23061
2 | 5:07.37 | 4:16.38 | 23062 | 42299
3 | 9:24.00 | 3:38.37 | 42300 | 58686
4 | 13:02.37 | 3:00.00 | 58687 | 72186
5 | 16:02.37 | 3:08.50 | 72187 | 86336
6 | 19:11.12 | 2:08.25 | 86337 | 95961
7 | 21:19.37 | 2:59.50 | 95962 | 109436
8 | 24:19.12 | 2:50.25 | 109437 | 122211
9 | 27:09.37 | 3:30.38 | 122212 | 137999
10 | 30:40.00 | 2:14.00 | 138000 | 148049
11 | 32:54.00 | 2:37.37 | 148050 | 159861
12 | 35:31.37 | 1:53.38 | 159862 | 168374


Range status and errors

Selected range

Filename C:\222\London\Japan\1965 - No2\The Rolling Stones - The Rolling Stones No2 [P25L 25033].wav

Peak level 97.6 %
Extraction speed 2.8 X
Range quality 99.9 %
Test CRC 9A5A43C1
Copy CRC 9A5A43C1
Copy OK

No errors occurred


AccurateRip summary

Track 1 accurately ripped (confidence 8) [D3DECA0B] (AR v2)
Track 2 accurately ripped (confidence 8) [3A743448] (AR v2)
Track 3 accurately ripped (confidence 8) [5326CA99] (AR v2)
Track 4 accurately ripped (confidence 8) [C6C5CB46] (AR v2)
Track 5 accurately ripped (confidence 8) [7C8ABDE4] (AR v2)
Track 6 accurately ripped (confidence 8) [1C41CE0A] (AR v2)
Track 7 accurately ripped (confidence 8) [1422FAF1] (AR v2)
Track 8 accurately ripped (confidence 8) [2D570C94] (AR v2)
Track 9 accurately ripped (confidence 8) [C29672D5] (AR v2)
Track 10 accurately ripped (confidence 8) [747C4C24] (AR v2)
Track 11 accurately ripped (confidence 8) [6121DDA7] (AR v2)
Track 12 accurately ripped (confidence 8) [DAB5CA19] (AR v2)

All tracks accurately ripped

End of status report

==== Log checksum 6A95C18DCD819FEEC4DDEABC54F7D25A96315710D1D5857DEBDC72EA79FD3CCF ====


[CUETools log; Date: 10.06.2017 8:39:15; Version: 2.1.5]
Pregap length 00:00:37.
[CTDB TOCID: Img2EyJGnblKl79eEy3Uy7rt7uQ-] found.
Track | CTDB Status
1 | (14/14) Accurately ripped
2 | (14/14) Accurately ripped
3 | (14/14) Accurately ripped
4 | (14/14) Accurately ripped
5 | (14/14) Accurately ripped
6 | (14/14) Accurately ripped
7 | (14/14) Accurately ripped
8 | (14/14) Accurately ripped
9 | (14/14) Accurately ripped
10 | (14/14) Accurately ripped
11 | (14/14) Accurately ripped
12 | (14/14) Accurately ripped
[AccurateRip ID: 0012af3c-00a89ac9-a108c50c] found.
Track [ CRC | V2 ] Status
01 [3d743907|d3deca0b] (03+10/15) Accurately ripped
02 [953f5195|3a743448] (03+10/15) Accurately ripped
03 [9a5dead7|5326ca99] (03+10/15) Accurately ripped
04 [05fa8628|c6c5cb46] (03+10/15) Accurately ripped
05 [f1967c36|7c8abde4] (03+10/15) Accurately ripped
06 [cc0738d4|1c41ce0a] (03+10/15) Accurately ripped
07 [dc81c6af|1422faf1] (03+10/15) Accurately ripped
08 [3c260fce|2d570c94] (03+10/15) Accurately ripped
09 [aabf9d0d|c29672d5] (03+10/15) Accurately ripped
10 [73734634|747c4c24] (03+10/15) Accurately ripped
11 [d96bdee5|6121dda7] (03+10/15) Accurately ripped
12 [49946ef2|dab5ca19] (03+10/15) Accurately ripped
Offsetted by -1134:
01 [6b827165] (02/15) Accurately ripped
02 [4b2e5ce9] (02/15) Accurately ripped
03 [f20d947d] (02/15) Accurately ripped
04 [cfd49988] (02/15) Accurately ripped
05 [1b07d0cc] (02/15) Accurately ripped
06 [cfb16b72] (02/15) Accurately ripped
07 [f896eaa5] (02/15) Accurately ripped
08 [4192d6c2] (02/15) Accurately ripped
09 [d88c9d73] (02/15) Accurately ripped
10 [02c0283c] (02/15) Accurately ripped
11 [445b7b69] (02/15) Accurately ripped
12 [d424c2ac] (02/15) Accurately ripped

Track Peak [ CRC32 ] [W/O NULL] [ LOG ]
– 97,6 [9A5A43C1] [53545349] CRC32
01 97,6 [6EBE310E] [36146150]
02 91,7 [77A2A770] [6E238BC6]
03 81,3 [2D9A8DCF] [94E1AE9C]
04 75,8 [07E46185] [F8A84011]
05 71,2 [3427B990] [804AB28A]
06 69,3 [79A3F56F] [071CC342]
07 71,2 [35E92D2F] [D253CBBA]
08 59,4 [8D09AD5B] [DC85F230]
09 63,1 [E0F3B1D9] [A8F90541]
10 96,7 [F09BDE28] [CAD0A790]
11 65,3 [1B7DDCDB] [F552A364]
12 66,8 [5BB120E6] [201869BF]


The Rolling Stones: Collection (1964-1969) [11CD, 1989, Polydor Japan]

Tracklist CD5 - 1965. Out Of Our Heads [1989 Japan Original, Polydor P25L 25035]:

1. Mercy Mercy (2:48)
2. Hitch Hike (2:27)
3. The Last Time (3:43)
4. That's How Strong My Love Is (2:26)
5. Good Times (2:01)
6. I'm All Right (2:24)
7. Satisfaction (3:46)
8. Cry To Me (3:10)
9. The Under Assistant West Coast Promotion Man (3:10)
10. Play With Fire (2:17)
11. The Spider And The Fly (3:41)
12. One More Try (1:57)

Exact Audio Copy V1.0 beta 3 from 29. August 2011

EAC extraction logfile from 13. January 2015, 15:22

The Rolling Stones / Out Of Our Heads [P25L 25035]

Used drive : HL-DT-STDVD+-RW GH50N Adapter: 0 ID: 1

Read mode : Secure
Utilize accurate stream : Yes
Defeat audio cache : Yes
Make use of C2 pointers : No

Read offset correction : 667
Overread into Lead-In and Lead-Out : No
Fill up missing offset samples with silence : Yes
Delete leading and trailing silent blocks : No
Null samples used in CRC calculations : Yes
Used interface : Native Win32 interface for Win NT & 2000

Used output format : User Defined Encoder
Selected bitrate : 768 kBit/s
Quality : High
Add ID3 tag : No
Command line compressor : C:\Program Files (x86)\Exact Audio Copy\FLAC\FLAC.EXE
Additional command line options : -V -8 -T "Date=%year%" -T "Genre=%genre%" %source%


TOC of the extracted CD

Track | Start | Length | Start sector | End sector
––––––––––––––––––––––––––––-
1 | 0:00.37 | 2:48.35 | 37 | 12671
2 | 2:48.72 | 2:27.05 | 12672 | 23701
3 | 5:16.02 | 3:43.12 | 23702 | 40438
4 | 8:59.14 | 2:26.48 | 40439 | 51436
5 | 11:25.62 | 2:01.17 | 51437 | 60528
6 | 13:27.04 | 2:24.25 | 60529 | 71353
7 | 15:51.29 | 3:46.25 | 71354 | 88328
8 | 19:37.54 | 3:10.65 | 88329 | 102643
9 | 22:48.44 | 3:10.25 | 102644 | 116918
10 | 25:58.69 | 2:17.43 | 116919 | 127236
11 | 28:16.37 | 3:41.12 | 127237 | 143823
12 | 31:57.49 | 1:57.45 | 143824 | 152643


Range status and errors

Selected range

Filename C:\222\London\Japan\1965 - Out Of Our Heads\The Rolling Stones - Out Of Our Heads [P25L 25035].wav

Peak level 94.0 %
Extraction speed 2.8 X
Range quality 100.0 %
Test CRC 6E5E0D90
Copy CRC 6E5E0D90
Copy OK

No errors occurred


AccurateRip summary

Track 1 not present in database
Track 2 not present in database
Track 3 not present in database
Track 4 not present in database
Track 5 not present in database
Track 6 not present in database
Track 7 not present in database
Track 8 not present in database
Track 9 not present in database
Track 10 not present in database
Track 11 not present in database
Track 12 not present in database

None of the tracks are present in the AccurateRip database

End of status report

==== Log checksum 87FD9CE3052906FC2922BC1DA32FBBF6D5AEF9F63777B9D6C6DC3BF05C93E1A8 ====


[CUETools log; Date: 05.06.2019 11:35:10; Version: 2.1.4]
Pregap length 00:00:37.
[AccurateRip ID: 000f2217-008db78d-ac07f30c] found.
Track [ CRC | V2 ] Status
01 [3ca4bd12|ab1944ca] (0+1/2) Accurately ripped
02 [063b5eab|4129796b] (0+1/2) Accurately ripped
03 [ac2e7199|7f396cd1] (0+1/2) Accurately ripped
04 [b8cdb6a8|f801cf27] (0+1/2) Accurately ripped
05 [aa094b3b|092aa7fc] (0+1/2) Accurately ripped
06 [43e19737|423da476] (0+1/2) Accurately ripped
07 [2c70d8c9|91419c98] (0+1/2) Accurately ripped
08 [447a6e24|4b9906bc] (0+1/2) Accurately ripped
09 [e5d14ca1|e3b6828b] (0+1/2) Accurately ripped
10 [0448e940|ba7ed97f] (0+1/2) Accurately ripped
11 [2a4b6061|dcba8f75] (0+1/2) Accurately ripped
12 [9d4daab4|e73fd92e] (0+1/2) Accurately ripped

Track Peak [ CRC32 ] [W/O NULL] [ LOG ]
– 94,0 [6E5E0D90] [692CCEF8] CRC32
01 89,3 [E5DAF248] [E5F0275D]
02 94,0 [72A572E7] [01B8C227]
03 77,6 [110DB77C] [FD34171F]
04 85,7 [D5BC5A40] [AFBDF55C]
05 81,1 [23C74B61] [D01062D6]
06 70,4 [80BBBFB9] [422C125D]
07 90,8 [93B7DDD6] [C3AE4159]
08 87,5 [D0F93940] [E57F4BC8]
09 78,1 [9AC7457B] [6FC9CC9B]
10 75,7 [8EC51AC7] [E8CEC8BC]
11 79,3 [8EDAA72E] [C7DB880B]
12 74,4 [1D3D3D8F] [41286657]


The Rolling Stones: Collection (1964-1969) [11CD, 1989, Polydor Japan]

Tracklist CD6 - 1965. December's Children (And Everybody's) [1989 Japan Original, Polydor P25L 25036]:

1. She Said Yeah (1:37)
2. Talkin' About You (2:34)
3. You Better Move On (2:41)
4. Look What You've Done (2:18)
5. The Singer Not The Song (2:26)
6. Route 66 (Live) (2:41)
7. Get Off My Cloud (2:58)
8. I'm Free (2:27)
9. As Tears Go By (2:45)
10. Gotta Get Away (2:10)
11. Blue Turns To Grey (2:33)
12. I'm Moving On (2:19)

Exact Audio Copy V1.0 beta 3 from 29. August 2011

EAC extraction logfile from 6. April 2013, 20:02

The Rolling Stones / December's Children (And Everybody's) (P25L 25036)

Used drive : PLEXTOR DVDR PX-891SA Adapter: 1 ID: 0

Read mode : Secure
Utilize accurate stream : Yes
Defeat audio cache : Yes
Make use of C2 pointers : No

Read offset correction : 6
Overread into Lead-In and Lead-Out : No
Fill up missing offset samples with silence : Yes
Delete leading and trailing silent blocks : No
Null samples used in CRC calculations : Yes
Used interface : Native Win32 interface for Win NT & 2000

Used output format : User Defined Encoder
Selected bitrate : 1024 kBit/s
Quality : High
Add ID3 tag : No
Command line compressor : C:\Program Files\Exact Audio Copy\Flac\flac.exe
Additional command line options : -V -8 -T "Genre=%genre%" -T "Artist=%artist%" -T "Title=%title%" -T "Album=%albumtitle%" -T "Date=%year%" -T "Tracknumber=%tracknr%" -T "Comment=%comment%" %source%


TOC of the extracted CD

Track | Start | Length | Start sector | End sector
––––––––––––––––––––––––––––-
1 | 0:00.37 | 1:39.23 | 37 | 7484
2 | 1:39.60 | 2:36.07 | 7485 | 19191
3 | 4:15.67 | 2:43.08 | 19192 | 31424
4 | 6:59.00 | 2:20.27 | 31425 | 41951
5 | 9:19.27 | 2:28.20 | 41952 | 53071
6 | 11:47.47 | 2:43.03 | 53072 | 65299
7 | 14:30.50 | 3:00.07 | 65300 | 78806
8 | 17:30.57 | 2:28.48 | 78807 | 89954
9 | 19:59.30 | 2:47.57 | 89955 | 102536
10 | 22:47.12 | 2:11.73 | 102537 | 112434
11 | 24:59.10 | 2:35.30 | 112435 | 124089
12 | 27:34.40 | 2:18.35 | 124090 | 134474


Range status and errors

Selected range

Filename H:\dafnaplus\The Rolling Stones - December's Children (And Everybody's)\The Rolling Stones - December's Children (And Everybody's) (P25L 25036).wav

Peak level 88.2 %
Extraction speed 2.9 X
Range quality 100.0 %
Test CRC 690F1B2B
Copy CRC 690F1B2B
Copy OK

No errors occurred


AccurateRip summary

Track 1 not present in database
Track 2 not present in database
Track 3 not present in database
Track 4 not present in database
Track 5 not present in database
Track 6 not present in database
Track 7 accurately ripped (confidence 1) [BC174AC4] (AR v1)
Track 8 accurately ripped (confidence 1) [F2C61124] (AR v1)
Track 9 accurately ripped (confidence 1) [10F7D577] (AR v1)
Track 10 not present in database
Track 11 not present in database
Track 12 not present in database

3 track(s) accurately ripped
9 track(s) not present in the AccurateRip database

Some tracks could not be verified as accurate

End of status report

==== Log checksum 505AE7D9A298F162EB9E6B7378F307E3A5A03B1F382D574B3BA6DC14D2A9DF7B ====


[CUETools log; Date: 10.06.2017 8:41:25; Version: 2.1.5]
Pregap length 00:00:37.
[CTDB TOCID: UWMbkVMBKBpyM3ns7zv2_qznWnE-] found.
Track | CTDB Status
1 | (6/6) Accurately ripped
2 | (6/6) Accurately ripped
3 | (6/6) Accurately ripped
4 | (6/6) Accurately ripped
5 | (6/6) Accurately ripped
6 | (6/6) Accurately ripped
7 | (6/6) Accurately ripped
8 | (6/6) Accurately ripped
9 | (6/6) Accurately ripped
10 | (6/6) Accurately ripped
11 | (6/6) Accurately ripped
12 | (6/6) Accurately ripped
[AccurateRip ID: 000d225a-007bf29c-7e07010c] found.
Track [ CRC | V2 ] Status
01 [7c3c7f88|c6efed25] (0+1/1) Accurately ripped
02 [5e339e09|41af81a9] (0+1/1) Accurately ripped
03 [9ca27b87|5af179c0] (0+1/1) Accurately ripped
04 [28a544f5|2d46e0db] (0+1/1) Accurately ripped
05 [4dd7ea12|b1acbdd7] (0+1/1) Accurately ripped
06 [0f22bde8|5f76889d] (0+1/1) Accurately ripped
07 [bc174ac4|46db3293] (1+1/2) Accurately ripped
08 [f2c61124|674cf34d] (1+1/2) Accurately ripped
09 [10f7d577|1c1a4f95] (1+1/2) Accurately ripped
10 [11600e07|5c08b4a7] (0+1/1) Accurately ripped
11 [43e4fe68|fc301189] (0+1/1) Accurately ripped
12 [ca0363d1|5463bb8a] (0+1/1) Accurately ripped

Track Peak [ CRC32 ] [W/O NULL] [ LOG ]
– 88,2 [690F1B2B] [F74FE315] CRC32
01 86,4 [2D5920DA] [B69906EE]
02 86,6 [855FCB9A] [B0D911B0]
03 63,3 [25A23209] [1C77C259]
04 82,4 [6773A0D2] [ECB62425]
05 87,4 [59B63EC9] [4347E5B0]
06 72,7 [7E003516] [65037BA3]
07 88,2 [55B454C5] [C0DC3CE6]
08 69,5 [8FD7F475] [35A40FC9]
09 52,1 [7F64F400] [1FDBFC95]
10 81,7 [90E3CA7B] [AC8C0F14]
11 83,7 [06D4C9C6] [D05D4EBC]
12 76,6 [F6FC5E75] [0093E282]


The Rolling Stones: Collection (1964-1969) [11CD, 1989, Polydor Japan]

Tracklist CD7 - 1966. Aftermath [1989 Japan Original, Polydor P25L-25037]:

1. Mother's Little Helper (2:46)
2. Stupid Girl (2:55)
3. Lady Jane (3:08)
4. Under My Thumb (3:40)
5. Doncha Bother Me (2:40)
6. Goin' Home (11:14)
7. Flight 505 (3:27)
8. High And Dry (3:08)
9. Out Of Time (5:36)
10. It's Not Easy (2:54)
11. I Am Waiting (3:09)
12. Take It Or Leave It (2:46)
13. Think (3:08)
14. What To Do (2:31)

Exact Audio Copy V1.0 beta 3 from 29. August 2011

EAC extraction logfile from 6. April 2013, 22:13

The Rolling Stones / Aftermath UK (P25L-25037)

Used drive : PLEXTOR DVDR PX-891SA Adapter: 1 ID: 0

Read mode : Secure
Utilize accurate stream : Yes
Defeat audio cache : Yes
Make use of C2 pointers : No

Read offset correction : 6
Overread into Lead-In and Lead-Out : No
Fill up missing offset samples with silence : Yes
Delete leading and trailing silent blocks : No
Null samples used in CRC calculations : Yes
Used interface : Native Win32 interface for Win NT & 2000

Used output format : User Defined Encoder
Selected bitrate : 1024 kBit/s
Quality : High
Add ID3 tag : No
Command line compressor : C:\Program Files\Exact Audio Copy\Flac\flac.exe
Additional command line options : -V -8 -T "Genre=%genre%" -T "Artist=%artist%" -T "Title=%title%" -T "Album=%albumtitle%" -T "Date=%year%" -T "Tracknumber=%tracknr%" -T "Comment=%comment%" %source%


TOC of the extracted CD

Track | Start | Length | Start sector | End sector
––––––––––––––––––––––––––––-
1 | 0:00.37 | 2:48.38 | 37 | 12674
2 | 2:49.00 | 2:58.00 | 12675 | 26024
3 | 5:47.00 | 3:11.00 | 26025 | 40349
4 | 8:58.00 | 3:43.00 | 40350 | 57074
5 | 12:41.00 | 2:43.20 | 57075 | 69319
6 | 15:24.20 | 11:16.17 | 69320 | 120036
7 | 26:40.37 | 3:29.63 | 120037 | 135774
8 | 30:10.25 | 3:10.50 | 135775 | 150074
9 | 33:21.00 | 5:39.00 | 150075 | 175499
10 | 39:00.00 | 2:57.00 | 175500 | 188774
11 | 41:57.00 | 3:12.25 | 188775 | 203199
12 | 45:09.25 | 2:48.50 | 203200 | 215849
13 | 47:58.00 | 3:11.00 | 215850 | 230174
14 | 51:09.00 | 2:31.72 | 230175 | 241571


Range status and errors

Selected range

Filename H:\dafnaplus\The Rolling Stones - Aftermath UK [Polydor P25L-25037]\The Rolling Stones - Aftermath UK (P25L-25037).wav

Peak level 91.3 %
Extraction speed 8.5 X
Range quality 100.0 %
Test CRC 660F61A1
Copy CRC 660F61A1
Copy OK

No errors occurred


AccurateRip summary

Track 1 not present in database
Track 2 not present in database
Track 3 not present in database
Track 4 not present in database
Track 5 not present in database
Track 6 not present in database
Track 7 not present in database
Track 8 not present in database
Track 9 not present in database
Track 10 not present in database
Track 11 not present in database
Track 12 not present in database
Track 13 not present in database
Track 14 not present in database

None of the tracks are present in the AccurateRip database

End of status report

==== Log checksum 7F7B7E0AC02C93CBFD62C482775A05D229920F5A1969A8D928FD92626D0577EB ====


[CUETools log; Date: 10.06.2017 8:42:22; Version: 2.1.5]
Pregap length 00:00:37.
[CTDB TOCID: ynZb2uoFkYE.EUUs0Rk70LalYF8-] found.
Track | CTDB Status
1 | (13/14) Accurately ripped
2 | (14/14) Accurately ripped
3 | (14/14) Accurately ripped
4 | (14/14) Accurately ripped
5 | (14/14) Accurately ripped
6 | (14/14) Accurately ripped
7 | (14/14) Accurately ripped
8 | (14/14) Accurately ripped
9 | (14/14) Accurately ripped
10 | (14/14) Accurately ripped
11 | (14/14) Accurately ripped
12 | (14/14) Accurately ripped
13 | (14/14) Accurately ripped
14 | (13/14) Accurately ripped
[AccurateRip ID: 001c7ac9-0133b2b0-a30c940e] found.
Track [ CRC | V2 ] Status
01 [28b6caa0|ab1a6848] (0+6/6) Accurately ripped
02 [69404d73|45845383] (0+5/5) Accurately ripped
03 [0ebdf2c3|1bd1dcfb] (0+5/5) Accurately ripped
04 [5170b9f7|065b6cac] (0+5/5) Accurately ripped
05 [d419c54e|581fa978] (0+5/5) Accurately ripped
06 [541a0c36|4c7342b3] (0+5/5) Accurately ripped
07 [1a85597a|6eda4273] (0+5/5) Accurately ripped
08 [1ccfcfde|8357ec01] (0+5/5) Accurately ripped
09 [9b6c1d85|f0d8a740] (0+5/5) Accurately ripped
10 [87ba5dfb|0f9adbd5] (0+5/5) Accurately ripped
11 [e4e86ea7|2eb28046] (0+5/5) Accurately ripped
12 [862210fc|ea589758] (0+5/5) Accurately ripped
13 [271c28c1|a9934dfa] (0+5/5) Accurately ripped
14 [ab1edcf4|db3365d6] (0+5/5) Accurately ripped

Track Peak [ CRC32 ] [W/O NULL] [ LOG ]
– 91,3 [660F61A1] [390E1E78] CRC32
01 83,5 [C59E1545] [F54C2E6A]
02 80,2 [E73D93C5] [96E2BEB3]
03 52,9 [B70DF249] [33B25FA4]
04 74,6 [1240FF5B] [9DF152DD]
05 75,1 [0E45333F] [2C5899D1]
06 91,3 [0E3BFC4F] [B906E12E]
07 86,6 [DA3B7F94] [79013B85]
08 63,2 [44B5092A] [F35151D8]
09 66,0 [2EDDDED1] [C3BB36AC]
10 73,8 [4CF2FA4A] [1C3B133D]
11 90,8 [A99605BF] [190686B6]
12 74,1 [2BBF955C] [E4E9BF4D]
13 72,8 [E8960869] [6539195A]
14 74,4 [E63C5E98] [A5B2F748]


The Rolling Stones: Collection (1964-1969) [11CD, 1989, Polydor Japan]

Tracklist CD8 - 1967. Between The Buttons [1989 Japan Original, Polydor P25L 25042]:

1. Let's Spend The Night Together (3:39)
2. Yesterday's Papers (2:04)
3. Ruby Tuesday (3:17)
4. Connection (2:07)
5. She Smiled Sweetly (2:42)
6. Cool, Calm, & Collected (4:12)
7. All Sold Out (2:15)
8. My Obsession (3:16)
9. Who's Been Sleeping Here? (3:50)
10. Complicated (3:10)
11. Miss Amanda Jones (2:41)
12. Something Happened To Me Yesterday (4:54)

Exact Audio Copy V1.0 beta 3 from 29. August 2011

EAC extraction logfile from 7. April 2013, 9:21

The Rolling Stones / Between The Buttons US (P25L 25040)

Used drive : PLEXTOR DVDR PX-891SA Adapter: 1 ID: 0

Read mode : Secure
Utilize accurate stream : Yes
Defeat audio cache : Yes
Make use of C2 pointers : No

Read offset correction : 6
Overread into Lead-In and Lead-Out : No
Fill up missing offset samples with silence : Yes
Delete leading and trailing silent blocks : No
Null samples used in CRC calculations : Yes
Used interface : Native Win32 interface for Win NT & 2000

Used output format : User Defined Encoder
Selected bitrate : 1024 kBit/s
Quality : High
Add ID3 tag : No
Command line compressor : C:\Program Files\Exact Audio Copy\Flac\flac.exe
Additional command line options : -V -8 -T "Genre=%genre%" -T "Artist=%artist%" -T "Title=%title%" -T "Album=%albumtitle%" -T "Date=%year%" -T "Tracknumber=%tracknr%" -T "Comment=%comment%" %source%


TOC of the extracted CD

Track | Start | Length | Start sector | End sector
––––––––––––––––––––––––––––-
1 | 0:00.37 | 3:40.25 | 37 | 16561
2 | 3:40.62 | 2:05.63 | 16562 | 25999
3 | 5:46.50 | 3:18.40 | 26000 | 40889
4 | 9:05.15 | 2:09.15 | 40890 | 50579
5 | 11:14.30 | 2:44.02 | 50580 | 62881
6 | 13:58.32 | 4:14.40 | 62882 | 81971
7 | 18:12.72 | 2:16.25 | 81972 | 92196
8 | 20:29.22 | 3:17.35 | 92197 | 107006
9 | 23:46.57 | 3:51.43 | 107007 | 124374
10 | 27:38.25 | 3:11.72 | 124375 | 138771
11 | 30:50.22 | 2:43.50 | 138772 | 151046
12 | 33:33.72 | 4:53.58 | 151047 | 173079


Range status and errors

Selected range

Filename H:\dafnaplus\The Rolling Stones - Between The Buttons US (P25L 25040)\The Rolling Stones - Between The Buttons US (P25L 25040).wav

Peak level 76.5 %
Extraction speed 7.2 X
Range quality 99.9 %
Test CRC 09C2B8F5
Copy CRC 09C2B8F5
Copy OK

No errors occurred


AccurateRip summary

Track 1 not present in database
Track 2 not present in database
Track 3 not present in database
Track 4 not present in database
Track 5 not present in database
Track 6 not present in database
Track 7 not present in database
Track 8 not present in database
Track 9 not present in database
Track 10 not present in database
Track 11 not present in database
Track 12 not present in database

None of the tracks are present in the AccurateRip database

End of status report

==== Log checksum 692D872C503946C3A5737EFDBF642268E72BE6865097AD92818487BBDF957615 ====


[CUETools log; Date: 09.06.2017 23:16:37; Version: 2.1.5]
Pregap length 00:00:37.
[CTDB TOCID: ojg4m.Xz53R.QHrGH1jBtC0TToU-] found.
Track | CTDB Status
1 | (10/10) Accurately ripped
2 | (10/10) Accurately ripped
3 | (10/10) Accurately ripped
4 | (10/10) Accurately ripped
5 | (10/10) Accurately ripped
6 | (10/10) Accurately ripped
7 | (10/10) Accurately ripped
8 | (10/10) Accurately ripped
9 | (10/10) Accurately ripped
10 | (10/10) Accurately ripped
11 | (10/10) Accurately ripped
12 | ( 9/10) Accurately ripped
[AccurateRip ID: 001041b9-0098c62a-8f09030c] found.
Track [ CRC | V2 ] Status
01 [d179c1e8|44bf191c] (0+0/2) No match
02 [490bbc76|0d81f93e] (0+0/2) No match
03 [55b17c22|419f273a] (0+0/2) No match
04 [984faa0d|f35e8957] (0+0/2) No match
05 [a3b5c05b|01e22168] (0+0/2) No match
06 [09453b07|65590965] (0+0/2) No match
07 [649706af|ac17163b] (0+0/2) No match
08 [c73b3f5d|820bff50] (0+0/2) No match
09 [9dfa5263|cc96e293] (0+0/2) No match
10 [1f0a4c5e|5e0e98e5] (0+0/2) No match
11 [29215de4|9c162520] (0+0/2) No match
12 [402d3b29|b5258449] (0+0/2) No match
Offsetted by -2094:
01 [fa3ee831] (0/2) No match (V2 was not tested)
02 [536b0a79] (0/2) No match (V2 was not tested)
03 [2545020f] (0/2) No match (V2 was not tested)
04 [a464a5d1] (0/2) No match (V2 was not tested)
05 [8208779a] (0/2) No match (V2 was not tested)
06 [0ed0617d] (0/2) No match (V2 was not tested)
07 [2a0fb4b5] (0/2) No match (V2 was not tested)
08 [73a6a596] (0/2) No match (V2 was not tested)
09 [f82a27b9] (0/2) No match (V2 was not tested)
10 [47e6467c] (0/2) No match (V2 was not tested)
11 [07ab7640] (0/2) No match (V2 was not tested)
12 [74fb062f] (0/2) No match (V2 was not tested)

Track Peak [ CRC32 ] [W/O NULL] [ LOG ]
– 76,5 [09C2B8F5] [F0B095F3] CRC32
01 67,5 [5718D37A] [080F8A3A]
02 68,7 [AAAD1287] [1354EAF2]
03 66,3 [C693F6F5] [A009A2EF]
04 71,8 [5001D5E7] [40896441]
05 64,2 [B0C15D8D] [D01944C6]
06 75,3 [7F9B2558] [332D9A4F]
07 76,5 [7BA84548] [08AF0C19]
08 70,0 [C34AAEE2] [C54BC26B]
09 71,2 [9F26F8E0] [E7911303]
10 71,3 [BB9E9B7C] [D5EA4518]
11 64,3 [952B8FDC] [93A33B75]
12 61,8 [2E690066] [057942AC]


The Rolling Stones: Collection (1964-1969) [11CD, 1989, Polydor Japan]

Tracklist CD9 - 1967. Their Satanic Majesties Request [1989 Japan Original, Polydor P25L 25042]:

1. Sing This All Together (3:48)
2. Citadel (2:50)
3. In Another Land (3:14)
4. 2,000 Man (3:07)
5. Sing This All Together (See What Happens) (8:35)
6. She's A Rainbow (4:35)
7. The Lantern (4:24)
8. Gomper (5:09)
9. 2,000 Light Years From Home (4:45)
10. On With The Show (3:40)

Exact Audio Copy V1.0 beta 3 from 29. August 2011

Отчёт EAC об извлечении, выполненном 6. мая 2015, 14:04

The Rolling Stones / Their Satanic Majesties Request

Дисковод: Optiarc DVD RW AD-7203S Adapter: 0 ID: 0

Режим чтения : Достоверность
Использование точного потока : Да
Отключение кэша аудио : Да
Использование указателей C2 : Нет

Коррекция смещения при чтении : 48
Способность читать области Lead-in и Lead-out : Нет
Заполнение пропущенных сэмплов тишиной : Да
Удаление блоков с тишиной в начале и конце : Нет
При вычислениях CRC использовались нулевые сэмплы : Да
Интерфейс : Встроенный Win32-интерфейс для Win NT/2000

Выходной формат : Пользовательский кодировщик
Выбранный битрейт : 128 kBit/s
Качество : Высокий
Добавление ID3-тега : Нет
Утилита сжатия : C:\Program Files\Exact Audio Copy\Flac\flac.exe
Дополнительные параметры : -V -8 -T "Date=%year%" -T "Genre=%genre%" %source%


TOC извлечённого CD

Трек | Старт | Длительность | Начальный сектор | Конечный сектор
––––––––––––––––––––––––––––––––––-
1 | 0:00.37 | 3:47.45 | 37 | 17106
2 | 3:48.07 | 2:50.53 | 17107 | 29909
3 | 6:38.60 | 3:13.45 | 29910 | 44429
4 | 9:52.30 | 3:07.37 | 44430 | 58491
5 | 12:59.67 | 8:34.10 | 58492 | 97051
6 | 21:34.02 | 4:35.53 | 97052 | 117729
7 | 26:09.55 | 4:23.27 | 117730 | 137481
8 | 30:33.07 | 5:09.08 | 137482 | 160664
9 | 35:42.15 | 4:45.00 | 160665 | 182039
10 | 40:27.15 | 3:40.47 | 182040 | 198586


Характеристики диапазона извлечения и сообщения об ошибках

Выбранный диапазон

Имя файла F:\EAC\The Rolling Stones - Their Satanic Majesties Request (P25L-25042)\The Rolling Stones - Their Satanic Majesties Request (P25L-25042)\The Rolling Stones - Their Satanic Majesties Request.wav

Пиковый уровень 100.0 %
Скорость извлечения 3.6 X
Качество диапазона 100.0 %
CRC теста AEE02FB9
CRC копии AEE02FB9
Копирование… OK

Ошибок не произошло


AccurateRip: сводка

Трек 1 точность не определена (достоверность 3) [1A05ADAB], AccurateRip вернул [F981A40D] (AR v2)
Трек 2 точность не определена (достоверность 3) [5E0003CF], AccurateRip вернул [FDF1FE64] (AR v2)
Трек 3 точность не определена (достоверность 3) [50EE694D], AccurateRip вернул [EF8B7FEE] (AR v2)
Трек 4 точность не определена (достоверность 3) [AECEE600], AccurateRip вернул [059BA0AD] (AR v2)
Трек 5 точность не определена (достоверность 3) [811D9CBA], AccurateRip вернул [D8048DA5] (AR v2)
Трек 6 точность не определена (достоверность 3) [50B3B903], AccurateRip вернул [A98250B5] (AR v2)
Трек 7 точность не определена (достоверность 3) [9B33C9D3], AccurateRip вернул [2995EC10] (AR v2)
Трек 8 точность не определена (достоверность 3) [8C37AAC1], AccurateRip вернул [C810AEE2] (AR v2)
Трек 9 точность не определена (достоверность 3) [9B8018C7], AccurateRip вернул [F277A3F9] (AR v2)
Трек 10 точность не определена (достоверность 3) [449DDC00], AccurateRip вернул [482C6A17] (AR v2)

Ни один трек не прошёл проверки на точность
В вашей базе может быть иной вариант штамповки диска

Конец отчёта

==== Контрольная сумма отчёта 71BEDDE262C8FE0D1AA620BFF6DF67F37439E357BBF1B269D3BFCD2B77A7F654 ====


[CUETools log; Date: 09.06.2017 23:17:40; Version: 2.1.5]
Pregap length 00:00:37.
[CTDB TOCID: i1bJSAsvRfK0ugwne9hsce3.eqw-] found.
Track | CTDB Status
1 | (12/12) Accurately ripped
2 | (12/12) Accurately ripped
3 | (12/12) Accurately ripped
4 | (12/12) Accurately ripped
5 | (12/12) Accurately ripped
6 | (12/12) Accurately ripped
7 | (12/12) Accurately ripped
8 | (11/12) Accurately ripped, or (1/12) differs in 27 samples @01:11:41
9 | (12/12) Accurately ripped
10 | (11/12) Accurately ripped
[AccurateRip ID: 000fec4c-00827b71-7a0a570a] found.
Track [ CRC | V2 ] Status
01 [4aff7590|1a05adab] (0+2/4) Accurately ripped
02 [26064f71|5e0003cf] (0+2/4) Accurately ripped
03 [bb99d7ee|50ee694d] (0+2/4) Accurately ripped
04 [ca6fcf00|aecee600] (0+2/4) Accurately ripped
05 [e973ed5d|811d9cba] (0+2/4) Accurately ripped
06 [1c044979|50b3b903] (0+2/4) Accurately ripped
07 [3c15c002|9b33c9d3] (0+2/4) Accurately ripped
08 [c6f0c254|8c37aac1] (0+2/4) Accurately ripped
09 [7f963325|9b8018c7] (0+2/4) Accurately ripped
10 [433ec5ef|449ddc00] (0+2/4) Accurately ripped
Offsetted by -217:
01 [535859f5] (0/4) No match (V2 was not tested)
02 [b9e301db] (0/4) No match (V2 was not tested)
03 [4c4d1eee] (0/4) No match (V2 was not tested)
04 [08c45b2b] (0/4) No match (V2 was not tested)
05 [104e484e] (0/4) No match (V2 was not tested)
06 [823dcd49] (0/4) No match (V2 was not tested)
07 [c1632012] (0/4) No match (V2 was not tested)
08 [f8710b62] (0/4) No match (V2 was not tested)
09 [e4cd2205] (0/4) No match (V2 was not tested)
10 [643f38cc] (0/4) No match (V2 was not tested)

Track Peak [ CRC32 ] [W/O NULL] [ LOG ]
– 100,0 [AEE02FB9] [252A89B8] CRC32
01 79,8 [F4754EE5] [3DEC1346]
02 90,3 [C9E51342] [00193205]
03 85,4 [82C1FEE2] [76E5B0FE]
04 95,1 [42AA3703] [0D392E04]
05 84,0 [E9515005] [E404A7D8]
06 90,9 [49FE112B] [4DD12D6C]
07 97,6 [400FC2B8] [D44A10FC]
08 100,0 [784CCE7E] [24A9DE18]
09 83,1 [75C7B923] [AA514A21]
10 98,8 [BEA47FE0] [69543F01]


The Rolling Stones: Collection (1964-1969) [11CD, 1989, Polydor Japan]

Tracklist CD10 - 1968. Beggars Banquet [1989 Japan Original, Polydor P25L 25043]:

1. Sympathy For The Devil (6:26)
2. No Expectations (4:02)
3. Dear Doctor (3:28)
4. Parachute Woman (2:24)
5. Jig-Saw Puzzle (6:18)
6. Street Fighting Man (3:18)
7. Prodigal Son (2:54)
8. Stray Cat Blues (4:40)
9. Factory Girl (2:11)
10. Salt Of The Earth (4:53)

Exact Audio Copy V1.0 beta 3 from 29. August 2011

Отчёт EAC об извлечении, выполненном 28. апреля 2015, 0:02

The Rolling Stones / Beggars Banquet

Дисковод: ATAPI iHES108 2 Adapter: 3 ID: 1

Режим чтения : Достоверность
Использование точного потока : Да
Отключение кэша аудио : Да
Использование указателей C2 : Нет

Коррекция смещения при чтении : 6
Способность читать области Lead-in и Lead-out : Нет
Заполнение пропущенных сэмплов тишиной : Да
Удаление блоков с тишиной в начале и конце : Нет
При вычислениях CRC использовались нулевые сэмплы : Да
Интерфейс : Встроенный Win32-интерфейс для Win NT/2000

Выходной формат : Пользовательский кодировщик
Выбранный битрейт : 1024 kBit/s
Качество : Высокий
Добавление ID3-тега : Нет
Утилита сжатия : C:\Program Files\Exact Audio Copy\Flac\flac.exe
Дополнительные параметры : -V -8 -T "Date=%year%" -T "Genre=%genre%" %source%


TOC извлечённого CD

Трек | Старт | Длительность | Начальный сектор | Конечный сектор
––––––––––––––––––––––––––––––––––-
1 | 0:00.37 | 6:28.67 | 37 | 29203
2 | 6:29.29 | 4:05.13 | 29204 | 47591
3 | 10:34.42 | 3:30.17 | 47592 | 63358
4 | 14:04.59 | 2:26.58 | 63359 | 74366
5 | 16:31.42 | 6:21.45 | 74367 | 102986
6 | 22:53.12 | 3:20.35 | 102987 | 118021
7 | 26:13.47 | 2:56.17 | 118022 | 131238
8 | 29:09.64 | 4:43.43 | 131239 | 152506
9 | 33:53.32 | 2:13.50 | 152507 | 162531
10 | 36:07.07 | 4:53.22 | 162532 | 184528


Характеристики диапазона извлечения и сообщения об ошибках

Выбранный диапазон

Имя файла D:\EAC-FOLDER\The Rolling Stones - Beggars Banquet P25L\The Rolling Stones - Beggars Banquet P25L\The Rolling Stones - Beggars Banquet.wav

Пиковый уровень 93.1 %
Скорость извлечения 8.0 X
Качество диапазона 100.0 %
CRC теста AAEE228C
CRC копии AAEE228C
Копирование… OK

Ошибок не произошло


AccurateRip: сводка

Трек 1 : извлечено точно (доверие 1) [72171856] (AR v2)
Трек 2 : извлечено точно (доверие 1) [32130F2E] (AR v2)
Трек 3 : извлечено точно (доверие 1) [20D29820] (AR v2)
Трек 4 : извлечено точно (доверие 1) [DB33AB0E] (AR v2)
Трек 5 : извлечено точно (доверие 1) [F1F9D903] (AR v2)
Трек 6 : извлечено точно (доверие 1) [A46003D8] (AR v2)
Трек 7 : извлечено точно (доверие 1) [4F290771] (AR v2)
Трек 8 : извлечено точно (доверие 1) [DC7A4F2A] (AR v2)
Трек 9 : извлечено точно (доверие 1) [EEB38123] (AR v2)
Трек 10 : извлечено точно (доверие 1) [B6A0007C] (AR v2)

Все треки извлечены точно

Конец отчёта

==== Контрольная сумма отчёта 6B86A3D8EAF1B91C515FA4ED16533167C3E6B0AC6447DD9AC901C4E3067643D9 ====


[CUETools log; Date: 09.06.2017 23:18:29; Version: 2.1.5]
Pregap length 00:00:37.
[CTDB TOCID: jM0ncOccdwWJjzMSeiUYmaPdWTs-] found.
Track | CTDB Status
1 | (4/4) Accurately ripped
2 | (4/4) Accurately ripped
3 | (4/4) Accurately ripped
4 | (4/4) Accurately ripped
5 | (4/4) Accurately ripped
6 | (4/4) Accurately ripped
7 | (4/4) Accurately ripped
8 | (4/4) Accurately ripped
9 | (4/4) Accurately ripped
10 | (4/4) Accurately ripped
[AccurateRip ID: 00104587-007f6216-91099c0a] found.
Track [ CRC | V2 ] Status
01 [7fd99d84|72171856] (0+1/1) Accurately ripped
02 [023748b4|32130f2e] (0+1/1) Accurately ripped
03 [52f4f944|20d29820] (0+1/1) Accurately ripped
04 [b00069f4|db33ab0e] (0+1/1) Accurately ripped
05 [d1f87270|f1f9d903] (0+1/1) Accurately ripped
06 [9bd03d4e|a46003d8] (0+1/1) Accurately ripped
07 [d46e7b7c|4f290771] (0+1/1) Accurately ripped
08 [0029856c|dc7a4f2a] (0+1/1) Accurately ripped
09 [1ada93c7|eeb38123] (0+1/1) Accurately ripped
10 [7cb9f7e5|b6a0007c] (0+1/1) Accurately ripped

Track Peak [ CRC32 ] [W/O NULL] [ LOG ]
– 93,1 [AAEE228C] [3C2E70C4] CRC32
01 80,0 [C0B1B937] [856FB48A]
02 76,9 [6C6AFD1F] [24737732]
03 93,1 [BF423A91] [C85BEA34]
04 87,4 [3AB525B7] [B77797D3]
05 84,0 [43C75DB4] [47637AA2]
06 77,3 [E20D2DEA] [2F3EC546]
07 81,3 [F3C2827F] [C5AA4AE6]
08 79,3 [4EC0504F] [2851F701]
09 84,6 [60EC7734] [F1B8D08B]
10 87,9 [72EF93A1] [E57B232F]


The Rolling Stones: Collection (1964-1969) [11CD, 1989, Polydor Japan]

Tracklist CD11 - 1969. Let It Bleed [1986 Japan Original, Polydor P33L 25002]:

1. Gimme Shelter (4:33)
2. Love In Vain (4:21)
3. Country Honk (3:08)
4. Live With Me (3:34)
5. Let It Bleed (5:29)
6. Midnight Rambler (6:56)
7. You Got The Silver (2:53)
8. Monkey Man (4:13)
9. You Can't Always Get What You Want (7:33)

Exact Audio Copy V1.0 beta 4 from 7. December 2014

EAC extraction logfile from 6. April 2015, 20:17

The Rolling Stones / Let It Bleed (1986, P33L 25002)

Used drive : ATAPI iHAS124 B Adapter: 1 ID: 0

Read mode : Secure
Utilize accurate stream : Yes
Defeat audio cache : Yes
Make use of C2 pointers : No

Read offset correction : 6
Overread into Lead-In and Lead-Out : No
Fill up missing offset samples with silence : Yes
Delete leading and trailing silent blocks : No
Null samples used in CRC calculations : Yes
Used interface : Installed external ASPI interface

Used output format : User Defined Encoder
Selected bitrate : 128 kBit/s
Quality : High
Add ID3 tag : Yes
Command line compressor : C:\Program Files (x86)\Exact Audio Copy\Flac\flac.exe
Additional command line options : -V -8 -T "Date=%year%" -T "Genre=%genre%" %source%


TOC of the extracted CD

Track | Start | Length | Start sector | End sector
––––––––––––––––––––––––––––-
1 | 0:00.37 | 4:35.38 | 37 | 20699
2 | 4:36.00 | 4:24.47 | 20700 | 40546
3 | 9:00.47 | 3:11.20 | 40547 | 54891
4 | 12:11.67 | 3:35.45 | 54892 | 71061
5 | 15:47.37 | 5:32.20 | 71062 | 95981
6 | 21:19.57 | 6:59.55 | 95982 | 127461
7 | 28:19.37 | 2:56.65 | 127462 | 140726
8 | 31:16.27 | 4:16.15 | 140727 | 159941
9 | 35:32.42 | 7:32.33 | 159942 | 193874


Range status and errors

Selected range

Filename G:\CD\The Rolling Stones - Let It Bleed.wav

Peak level 98.9 %
Extraction speed 8.3 X
Range quality 100.0 %
Test CRC EA436ECC
Copy CRC EA436ECC
Copy OK

No errors occurred


AccurateRip summary

Track 1 cannot be verified as accurate (confidence 4) [9AE2B091], AccurateRip returned [6F5528A9] (AR v2)
Track 2 cannot be verified as accurate (confidence 4) [54E8EDA9], AccurateRip returned [9E12F03B] (AR v2)
Track 3 cannot be verified as accurate (confidence 4) [C954CBE8], AccurateRip returned [11946792] (AR v2)
Track 4 cannot be verified as accurate (confidence 4) [0F0D5B6F], AccurateRip returned [F240698F] (AR v2)
Track 5 cannot be verified as accurate (confidence 4) [9F1C4A0C], AccurateRip returned [6F381651] (AR v2)
Track 6 cannot be verified as accurate (confidence 4) [F98CC215], AccurateRip returned [15AD64AD] (AR v2)
Track 7 cannot be verified as accurate (confidence 4) [355EE0B8], AccurateRip returned [44A178C3] (AR v2)
Track 8 cannot be verified as accurate (confidence 4) [A5D452DF], AccurateRip returned [506216B9] (AR v2)
Track 9 cannot be verified as accurate (confidence 4) [6D08997C], AccurateRip returned [840FC493] (AR v2)

No tracks could be verified as accurate
You may have a different pressing from the one(s) in the database

End of status report

–– CUETools DB Plugin V2.1.4

[CTDB TOCID: 2I16c6c_rQXHhas3lY6fOmVNQlk-] found
Submit result: already submitted
Track | CTDB Status
1 | (3/3) Accurately ripped
2 | (3/3) Accurately ripped
3 | (3/3) Accurately ripped
4 | (1/3) Accurately ripped, or (2/3) differs in 1470 samples @01:22:47-01:22:49
5 | (3/3) Accurately ripped
6 | (3/3) Accurately ripped
7 | (3/3) Accurately ripped
8 | (3/3) Accurately ripped
9 | (3/3) Accurately ripped
If you are sure that your rip contains errors, you can use CUETools to repair it.


==== Log checksum 60D2B72D63911A10905D4E7B60536E7A8F8FD14D944110ED2A19AC2FB99ECBD2 ====


[CUETools log; Date: 09.06.2017 23:19:50; Version: 2.1.5]
Pregap length 00:00:37.
[CTDB TOCID: 2I16c6c_rQXHhas3lY6fOmVNQlk-] found.
Track | CTDB Status
1 | (24/25) Accurately ripped
2 | (25/25) Accurately ripped
3 | (25/25) Accurately ripped
4 | (17/25) Accurately ripped, or (6/25) differs in 1470 samples @01:22:47-01:22:49
5 | (25/25) Accurately ripped
6 | (25/25) Accurately ripped
7 | (25/25) Accurately ripped
8 | (25/25) Accurately ripped
9 | (23/25) Accurately ripped
[AccurateRip ID: 000dd00a-0066636e-780a1909] found.
Track [ CRC | V2 ] Status
01 [df0e1a6d|9ae2b091] (00+03/15) Accurately ripped
02 [dd86c214|54e8eda9] (00+03/15) Accurately ripped
03 [caffeffb|c954cbe8] (00+03/16) Accurately ripped
04 [75a40548|0f0d5b6f] (00+03/13) Accurately ripped
05 [77f4098e|9f1c4a0c] (00+03/15) Accurately ripped
06 [b67c769d|f98cc215] (00+03/16) Accurately ripped
07 [6c55624d|355ee0b8] (00+03/15) Accurately ripped
08 [02c1d885|a5d452df] (00+03/15) Accurately ripped
09 [8f052732|6d08997c] (00+03/15) Accurately ripped
Offsetted by -233:
01 [0c1bb00b] (00/15) No match (V2 was not tested)
02 [8f756d74] (00/15) No match (V2 was not tested)
03 [b98a68b9] (00/16) No match (V2 was not tested)
04 [70e041d1] (00/13) No match (V2 was not tested)
05 [100096c5] (00/15) No match (V2 was not tested)
06 [5b2582d6] (00/16) No match (V2 was not tested)
07 [d7fa7ae0] (00/15) No match (V2 was not tested)
08 [4607ba37] (00/15) No match (V2 was not tested)
09 [47b7d8c6] (00/15) No match (V2 was not tested)
Offsetted by 81:
01 [b667d05f] (02/15) Accurately ripped
02 [2c934850] (02/15) Accurately ripped
03 [0a049178] (02/16) Accurately ripped
04 [599e1b7a] (00/13) No match (V2 was not tested)
05 [41e775ec] (02/15) Accurately ripped
06 [d0d2564e] (02/16) Accurately ripped
07 [7b5ec0db] (02/15) Accurately ripped
08 [a2265b51] (02/15) Accurately ripped
09 [95be6e17] (02/15) Accurately ripped

Track Peak [ CRC32 ] [W/O NULL] [ LOG ]
– 98,9 [EA436ECC] [662E09A6] CRC32
01 88,9 [23156F34] [87AF26FB]
02 81,6 [E23A8CC1] [30FAE3E6]
03 94,1 [28CC7997] [E639BA0E]
04 91,1 [B5396304] [7E34A1F7]
05 78,3 [A44C7A5F] [47777726]
06 89,7 [F9A4E0C3] [991C1016]
07 79,6 [571376F7] [6DA01410]
08 94,9 [113576E6] [43E8C371]
09 98,9 [4FEC91D6] [6BFA03C5]


All thanks go to Ironbelly, jlhjlh, dafnaplus & gerrV

The Rolling Stones in my Blog

Download The Rolling Stones: Collection (1964-1969):