Ron Hacker - Live In San Francisco (2012)

Posted By: popsakov
Ron Hacker - Live In San Francisco (2012)

Ron Hacker - Live In San Francisco (2012)
XLD Rip | FLAC (Img) + Cue + Log ~ 388 Mb | MP3 CBR320 ~ 145 Mb
Scans Included (JPG, 300 dpi) | RAR 5% Recovery
Blues | Label: Ron Hacker | 884501744904

Ron Hacker, former protege of blues legend Yank Rachell, has made a name for himself as one of the most exciting blues entertainers in the SF Bay Area. After releasing 9 studio albums Ron has released his first live recording, Live In San Francisco. The album was recorded at SF Biscuits & Blues November 30th, 2011. Fueled by a driving rhythm section, Ron's gritty vocals and signature slide guitar, Live In San Francisco captures the bands explosive style at it's best…

Ron Hacker Biography by Steve Leggett:

One could easily say that the blues saved Ron Hacker's life. It certainly changed his life and gave him a purpose and a structure, and he developed into a powerful slide guitar player with a too-little-known but sturdy musical legacy. Born January 25, 1945 in Indianapolis, Indiana, he grew up essentially without a family, raised by an assortment of aunts, uncles, and church women. He got in trouble early and was sent to a juvenile facility after he was caught breaking into parking meters when he was 11 years old. He discovered blues music while in the facility, and after relocating to the San Francisco area, fell under the slide guitar spell of Elmore James upon hearing one of the guitarist’s tracks at a drug dealer’s house. Hacker paid five dollars for a guitar and the rest was history. After a DJ introduced Hacker to James “Yank” Rachell, who had once been a musical partner with Sleepy John Estes, he began to learn and understand Delta country-blues in earnest. He started to play solo gigs in the Bay area, developing a strong slide guitar style, and after eight years or so of playing solo sets, he formed the Hacksaws at the end of the '70s. The band has had several membership incarnations, but Hacker has always been the driving force. He released his first album, No Pretty Songs, in 1988 (the album was re-released with two bonus tracks in 1994). Barstool Blues followed in 1990, with I Got Tatooed (a live acoustic album) arriving in 1995, Back Door Man in 2000, Burnin’ in 2003, and both The Hacksaws Live in London and Mr. Bad Boy (a solo outing) in 2007. He also wrote a book about his life, 2005’s White Trash Bluesman, which he distributed through his website. Always crediting the blues with giving his life meaning and shape, Hacker has stated in recent years that he would rather play the blues than live them; his eighth album, Filthy Animal, released in 2011, just further proved his point.
Ron Hacker - Live In San Francisco (2012)

Track List:

01. Ax Sweet Mamma [04:21]
02. Meet Me at the Bottom [03:48]
03. Baby Please Don't Go [04:33]
04. Welfare Store [05:50]
05. My Bad Boy [06:13]
06. Death Letter [05:06]
07. It Hurts Me Too [04:44]
08. Two Timin' Woman [04:59]
09. Leavin' Blues [05:12]
10. House Rent Blues [09:24]

Ron Hacker - guitar and vocals,
Ronnie Smith - drums,
Steve Ehrmann - bass.

X Lossless Decoder version 20130720 (144.0)

XLD extraction logfile from 2013-10-14 17:24:54 +0300

Ron Hacker / Live in San Francisco

Used drive : MATSHITA DVD-R UJ-898 (revision HC09)
Media type : Pressed CD

Ripper mode : XLD Secure Ripper
Disable audio cache : OK for the drive with a cache less than 1375KiB
Make use of C2 pointers : NO
Read offset correction : 102
Max retry count : 20
Gap status : Analyzed, Appended

TOC of the extracted CD
Track | Start | Length | Start sector | End sector
––––––––––––––––––––––––––––-
1 | 00:00:00 | 04:21:09 | 0 | 19583
2 | 04:21:09 | 03:48:71 | 19584 | 36754
3 | 08:10:05 | 04:33:41 | 36755 | 57270
4 | 12:43:46 | 05:50:20 | 57271 | 83540
5 | 18:33:66 | 06:13:56 | 83541 | 111571
6 | 24:47:47 | 05:06:39 | 111572 | 134560
7 | 29:54:11 | 04:44:23 | 134561 | 155883
8 | 34:38:34 | 04:59:23 | 155884 | 178331
9 | 39:37:57 | 05:12:35 | 178332 | 201766
10 | 44:50:17 | 09:24:39 | 201767 | 244105

AccurateRip Summary (DiscID: 0012aacd-009803ee-950cb60a)
Track 01 : OK (v2, confidence 1/1)
Track 02 : OK (v2, confidence 1/1)
Track 03 : OK (v2, confidence 1/1)
Track 04 : OK (v2, confidence 1/1)
Track 05 : OK (v2, confidence 1/1)
Track 06 : OK (v2, confidence 1/1)
Track 07 : Not Found
Track 08 : OK (v2, confidence 1/1)
Track 09 : Not Found
Track 10 : OK (v2, confidence 1/1)
->8 tracks accurately ripped, 2 tracks not found

All Tracks
Filename : /Users/Home/Music/my rips/ron hacker-live in san francisco-2012/Ron Hacker-Live in San Francisco-2012.flac
Album gain : -9.64 dB
Peak : 0.977142
CRC32 hash (test run) : DA11A642
CRC32 hash : DA11A642
CRC32 hash (skip zero) : 88D08BB8
Statistics
Read error : 0
Jitter error (maybe fixed) : 0
Retry sector count : 0
Damaged sector count : 0

Track 01
Pre-gap length : 00:02:00

Track gain : -9.81 dB
Peak : 0.977142
CRC32 hash (test run) : F866154E
CRC32 hash : F866154E
CRC32 hash (skip zero) : FBC17258
AccurateRip v1 signature : 463F29D3
AccurateRip v2 signature : 266014DB
->Accurately ripped (v2, confidence 1/1)
Statistics
Read error : 0
Jitter error (maybe fixed) : 0
Retry sector count : 0
Damaged sector count : 0

Track 02

Track gain : -10.22 dB
Peak : 0.977142
CRC32 hash (test run) : 41C9E976
CRC32 hash : 41C9E976
CRC32 hash (skip zero) : 7AE260B6
AccurateRip v1 signature : 77C3E34F
AccurateRip v2 signature : FF0A0F82
->Accurately ripped (v2, confidence 1/1)
Statistics
Read error : 0
Jitter error (maybe fixed) : 0
Retry sector count : 0
Damaged sector count : 0

Track 03

Track gain : -10.13 dB
Peak : 0.977142
CRC32 hash (test run) : D5FF7430
CRC32 hash : D5FF7430
CRC32 hash (skip zero) : 47C6292A
AccurateRip v1 signature : 42432EE7
AccurateRip v2 signature : 6ED89894
->Accurately ripped (v2, confidence 1/1)
Statistics
Read error : 0
Jitter error (maybe fixed) : 0
Retry sector count : 0
Damaged sector count : 0

Track 04

Track gain : -10.08 dB
Peak : 0.977142
CRC32 hash (test run) : 47707002
CRC32 hash : 47707002
CRC32 hash (skip zero) : B7717DAB
AccurateRip v1 signature : 36977616
AccurateRip v2 signature : 5826B740
->Accurately ripped (v2, confidence 1/1)
Statistics
Read error : 0
Jitter error (maybe fixed) : 0
Retry sector count : 0
Damaged sector count : 0

Track 05

Track gain : -9.39 dB
Peak : 0.977142
CRC32 hash (test run) : 6890C264
CRC32 hash : 6890C264
CRC32 hash (skip zero) : 80C308B2
AccurateRip v1 signature : 732DDAD3
AccurateRip v2 signature : 3C3B8727
->Accurately ripped (v2, confidence 1/1)
Statistics
Read error : 0
Jitter error (maybe fixed) : 0
Retry sector count : 0
Damaged sector count : 0

Track 06

Track gain : -10.02 dB
Peak : 0.977142
CRC32 hash (test run) : 22C8990E
CRC32 hash : 22C8990E
CRC32 hash (skip zero) : A5B46444
AccurateRip v1 signature : 50992AD6
AccurateRip v2 signature : 3D53C957
->Accurately ripped (v2, confidence 1/1)
Statistics
Read error : 0
Jitter error (maybe fixed) : 0
Retry sector count : 0
Damaged sector count : 0

Track 07

Track gain : -8.97 dB
Peak : 0.977142
CRC32 hash (test run) : 2ABF4650
CRC32 hash : 2ABF4650
CRC32 hash (skip zero) : CB64C261
AccurateRip v1 signature : 076861F3
AccurateRip v2 signature : CDBC3C11
->Track not present in AccurateRip database.
Statistics
Read error : 0
Jitter error (maybe fixed) : 0
Retry sector count : 0
Damaged sector count : 0

Track 08

Track gain : -9.81 dB
Peak : 0.977142
CRC32 hash (test run) : E05CF507
CRC32 hash : E05CF507
CRC32 hash (skip zero) : 0C21172C
AccurateRip v1 signature : 50B7813F
AccurateRip v2 signature : C1BBC278
->Accurately ripped (v2, confidence 1/1)
Statistics
Read error : 0
Jitter error (maybe fixed) : 0
Retry sector count : 0
Damaged sector count : 0

Track 09

Track gain : -8.95 dB
Peak : 0.977142
CRC32 hash (test run) : 42065750
CRC32 hash : 42065750
CRC32 hash (skip zero) : 559F48E6
AccurateRip v1 signature : 33C141EE
AccurateRip v2 signature : FCBE253B
->Track not present in AccurateRip database.
Statistics
Read error : 0
Jitter error (maybe fixed) : 0
Retry sector count : 0
Damaged sector count : 0

Track 10

Track gain : -8.46 dB
Peak : 0.977142
CRC32 hash (test run) : C169008E
CRC32 hash : C169008E
CRC32 hash (skip zero) : 3ED2F33D
AccurateRip v1 signature : A04FDFA1
AccurateRip v2 signature : 1EF5D94D
->Accurately ripped (v2, confidence 1/1)
Statistics
Read error : 0
Jitter error (maybe fixed) : 0
Retry sector count : 0
Damaged sector count : 0

No errors occurred

End of status report

foobar2000 1.2.6 / Dynamic Range Meter 1.1.1
log date: 2013-11-13 16:35:20

––––––––––––––––––––––––––––––––––––––––
Analyzed: Ron Hacker / Live in San Francisco
––––––––––––––––––––––––––––––––––––––––

DR Peak RMS Duration Track
––––––––––––––––––––––––––––––––––––––––
DR6 -0.20 dB -8.12 dB 4:21 01-Ax Sweet Mamma
DR6 -0.20 dB -7.53 dB 3:49 02-Meet Me at the Bottom
DR5 -0.20 dB -6.55 dB 4:34 03-Baby Please Don't Go
DR7 -0.20 dB -8.12 dB 5:50 04-Welfare Store
DR6 -0.20 dB -7.21 dB 6:14 05-My Bad Boy
DR6 -0.20 dB -6.93 dB 5:07 06-Death Letter
DR7 -0.20 dB -9.12 dB 4:44 07-It Hurts Me Too
DR6 -0.20 dB -7.74 dB 4:59 08-Two Timin' Woman
DR6 -0.20 dB -8.02 dB 5:12 09-Leavin' Blues
DR7 -0.20 dB -9.27 dB 9:25 10-House Rent Blues
––––––––––––––––––––––––––––––––––––––––

Number of tracks: 10
Official DR value: DR6

Samplerate: 44100 Hz
Channels: 2
Bits per sample: 16
Bitrate: 918 kbps
Codec: FLAC
================================================================================

Ron Hacker - Live In San Francisco (2012)

All thanks go to igaann

Visit my blog!

Download: