Subcategories
Tags
Language
Tags

Ronald Brautigam, Michael Alexander Willens - Carl Maria von Weber: Complete Works for Piano & Orchestra (2021)

Posted By: ArlegZ
Ronald Brautigam, Michael Alexander Willens - Carl Maria von Weber: Complete Works for Piano & Orchestra (2021)

Ronald Brautigam, Michael Alexander Willens, Kölner Akademie - Carl Maria von Weber: Complete Works for Piano & Orchestra (2021)
EAC | FLAC | Image (Cue & Log) ~ 215 Mb | Total time: 56:18 | Scans included
Classical | Label: BIS Records | # BIS-2384 SACD | Recorded: 2018

Carl Maria von Weber wrote music that has been admired by composers as diverse as Schumann, Berlioz, Tchaikovsky, Debussy, Ravel and Stravinsky. But in his lifetime he was also recognised as one of the finest pianists of the period, with an exceptional technique and a brilliant gift for improvisation. Especially during the 1810s he toured extensively, and like other composer-pianists he wrote works to use as his personal calling cards, among them the two piano concertos recorded here. They were both composed in 1811-12, but while the First Concerto takes Mozart's concertos as its model, Piano Concerto No. 2 looks towards Beethoven. This change of direction was probably influenced by the fact that Weber had acquired a score of Beethoven's recently published Emperor Concerto. In any case there are some striking similarities between his concerto and Beethoven's: the use of identical keys, and the inclusion of a slow, subtly orchestrated Adagio and a closing playful rondo in 6/8. Following highly acclaimed recordings of the complete concertos by Mozart and Beethoven as well as Mendelssohn, this disc brings the team of Ronald Brautigam and Kölner Akademie to the very crossroads of Classicism and Romanticism.

Performer:
Ronald Brautigam, piano
Die Kölner Akademie
Michael Alexander Willens, conductor

Track List:
Piano Concerto No. 1 in C major, WeV N. 9 (Op. 11)
01. I. Allegro
02. II. Adagio
03. III. Finale. Presto
Piano Concerto No. 2 in E flat major, WeV N. 15 (Op. 32)
04. I. Allegro maestoso
05. II. Adagio
06. III. Rondo. Presto
Konzertstück in F minor, WeV N. 17 (Op. 79)
07. Larghetto affettuoso
08. Allegro passionato
09. Adagio
10. Tempo di Marcia
11. Più mosso


Exact Audio Copy V1.3 from 2. September 2016

EAC extraction logfile from 3. April 2021, 13:17

Ronald Brautigam, Michael Alexander Willens, Kölner Akademie / Weber - Complete Works for Piano & Orchestra

Used drive : HL-DT-STDVDRAM GH24NS95 Adapter: 1 ID: 0

Read mode : Secure
Utilize accurate stream : Yes
Defeat audio cache : Yes
Make use of C2 pointers : No

Read offset correction : 6
Overread into Lead-In and Lead-Out : No
Fill up missing offset samples with silence : Yes
Delete leading and trailing silent blocks : No
Null samples used in CRC calculations : Yes
Used interface : Native Win32 interface for Win NT & 2000

Used output format : User Defined Encoder
Selected bitrate : 768 kBit/s
Quality : High
Add ID3 tag : No
Command line compressor : C:\Program Files\Exact Audio Copy\FLAC\FLAC.EXE
Additional command line options : -6 -V -T "ARTIST=%artist%" -T "TITLE=%title%" -T "ALBUM=%albumtitle%" -T "DATE=%year%" -T "TRACKNUMBER=%tracknr%" -T "GENRE=%genre%" -T "COMMENT=%comment%" -T "BAND=%albuminterpret%" -T "ALBUMARTIST=%albuminterpret%" -T "COMPOSER=%composer%" %haslyrics%–tag-from-file=LYRICS="%lyricsfile%"%haslyrics% -T "DISCNUMBER=%cdnumber%" -T "TOTALDISCS=%totalcds%" -T "TOTALTRACKS=%numtracks%" %hascover%–picture="%coverfile%"%hascover% %source% -o %dest%


TOC of the extracted CD

Track | Start | Length | Start sector | End sector
––––––––––––––––––––––––––––-
1 | 0:00.00 | 8:17.13 | 0 | 37287
2 | 8:17.13 | 3:24.15 | 37288 | 52602
3 | 11:41.28 | 7:22.17 | 52603 | 85769
4 | 19:03.45 | 9:00.01 | 85770 | 126270
5 | 28:03.46 | 4:35.07 | 126271 | 146902
6 | 32:38.53 | 6:58.37 | 146903 | 178289
7 | 39:37.15 | 4:52.38 | 178290 | 200227
8 | 44:29.53 | 4:00.49 | 200228 | 218276
9 | 48:30.27 | 0:26.59 | 218277 | 220285
10 | 48:57.11 | 1:54.05 | 220286 | 228840
11 | 50:51.16 | 5:07.00 | 228841 | 251865


Range status and errors

Selected range

Filename C:\Program Files\Exact Audio Copy\Ronald Brautigam - Weber - Complete Works for Piano & Orchestra.wav

Peak level 92.7 %
Extraction speed 1.9 X
Range quality 99.9 %
Test CRC 412021DD
Copy CRC 412021DD
Copy OK

No errors occurred


AccurateRip summary

Track 1 not present in database
Track 2 not present in database
Track 3 not present in database
Track 4 not present in database
Track 5 not present in database
Track 6 not present in database
Track 7 not present in database
Track 8 not present in database
Track 9 not present in database
Track 10 not present in database
Track 11 not present in database

None of the tracks are present in the AccurateRip database

End of status report

Ronald Brautigam, Michael Alexander Willens - Carl Maria von Weber: Complete Works for Piano & Orchestra (2021)

Thanks to the original releaser