Subcategories

Ronnie Aldrich - Webb Country (1977) + The World of Burt Bacharach (1972) 2LP in 1CD, 2008

Posted By: Designol
Ronnie Aldrich - Webb Country (1977) + The World of Burt Bacharach (1972) 2LP in 1CD, 2008

Ronnie Aldrich - Webb Country (1977) + The World of Burt Bacharach (1972) 2LP in 1CD, 2008
EAC | FLAC | Image (Cue&Log) ~ 394 Mb (incl 5%) | Mp3 (CBR320) ~ 196 Mb (incl 5%) | Scans included
Genre: Easy Listening, Instrumental Pop | Label: Vocalion | # CDLK 4353 | Time: 01:16:18

This two-fer from Dutton Vocalion features a pair of out of print Ronnie Aldrich LPs: The World of Burt Bacharach and Webb Country, originally issued in 1972 and 1977, respectively. These 21 tracks are dominated by Muzak versions of popular songs of the era written by Bacharach and Hal David and include "(They Long to Be) Close to You," "Raindrops Keep Fallin' on My Head," and "This Guy's in Love with You." The remaining tunes are from the songbook of Jimmy Webb and include "MacArthur Park," "Wichita Lineman," and "Up, Up and Away." This is an enjoyably relaxing reissue from Aldrich's deleted catalog on London Records.

Review by Al Campbell, Allmusic.com

Ronnie Aldrich at Allmusic
Ronnie Aldrich at Wiki

Tracklist:

Webb Country (1977):

01. MacArthur Park (05:28)
02. Lovers Such As I (03:35)
03. By the Time I Get to Phoenix (04:01)
04. Paper Chase (03:00)
05. Wichita Lineman (04:11)
06. Galveston (03:27)
07. Didn't We (04:03)
08. Walk Your Feet in the Sunshine (02:55)
09. The Moon Is a Harsh Mistress (03:55)
10. Up, Up and Away (03:05)

The World of Burt Bacharach (1972):

11. Wives and Lovers (03:20)
12. Alfie (02:50)
13. Odds and Ends (03:22)
14. Where There's a Heartache (03:47)
15. This Guy's in Love With You (03:45)
16. (They Long to Be) Close to You (03:49)
17. What the World Needs Now Is Love (03:16)
18. Raindrops Keep Fallin' on My Head (03:18)
19. The April Fools (03:09)
20. Paper Mache (03:58)
21. The Look of Love (03:55)


Exact Audio Copy V1.0 beta 3 from 29. August 2011

EAC extraction logfile from 11. December 2015, 14:33

Ronnie Aldrich / Webb Country / The World of Burt Bacharach

Used drive : HL-DT-STDVDRAM GH22NS50 Adapter: 3 ID: 0

Read mode : Secure
Utilize accurate stream : Yes
Defeat audio cache : Yes
Make use of C2 pointers : No

Read offset correction : 667
Overread into Lead-In and Lead-Out : No
Fill up missing offset samples with silence : Yes
Delete leading and trailing silent blocks : No
Null samples used in CRC calculations : Yes
Used interface : Native Win32 interface for Win NT & 2000

Used output format : User Defined Encoder
Selected bitrate : 192 kBit/s
Quality : High
Add ID3 tag : No
Command line compressor : C:\Program Files\Exact Audio Copy\FLAC\FLAC.EXE
Additional command line options : -V -8 -T "Date=%year%" -T "Genre=%genre%" %source%


TOC of the extracted CD

Track | Start | Length | Start sector | End sector
––––––––––––––––––––––––––––-
1 | 0:01.00 | 5:28.58 | 75 | 24732
2 | 5:29.58 | 3:35.44 | 24733 | 40901
3 | 9:05.27 | 4:01.38 | 40902 | 59014
4 | 13:06.65 | 3:00.53 | 59015 | 72567
5 | 16:07.43 | 4:11.40 | 72568 | 91432
6 | 20:19.08 | 3:27.58 | 91433 | 107015
7 | 23:46.66 | 4:03.13 | 107016 | 125253
8 | 27:50.04 | 2:55.60 | 125254 | 138438
9 | 30:45.64 | 3:55.39 | 138439 | 156102
10 | 34:41.28 | 3:05.44 | 156103 | 170021
11 | 37:46.72 | 3:20.23 | 170022 | 185044
12 | 41:07.20 | 2:50.15 | 185045 | 197809
13 | 43:57.35 | 3:22.45 | 197810 | 213004
14 | 47:20.05 | 3:47.21 | 213005 | 230050
15 | 51:07.26 | 3:45.46 | 230051 | 246971
16 | 54:52.72 | 3:49.16 | 246972 | 264162
17 | 58:42.13 | 3:16.44 | 264163 | 278906
18 | 61:58.57 | 3:18.53 | 278907 | 293809
19 | 65:17.35 | 3:09.05 | 293810 | 307989
20 | 68:26.40 | 3:58.28 | 307990 | 325867
21 | 72:24.68 | 3:55.07 | 325868 | 343499


Range status and errors

Selected range

Filename D:\Uploads\Ronnie Aldrich\Ronnie Aldrich - 2008 Webb Country + The World of Burt Bacharach\Ronnie Aldrich - Webb Country + The World of Burt Bacharach.wav

Peak level 95.6 %
Extraction speed 2.1 X
Range quality 100.0 %
Test CRC 006A8C2F
Copy CRC 006A8C2F
Copy OK

No errors occurred

End of status report

==== Log checksum 0E2CA467DA15707F2ECC9A0AADF85F39ED81B6D74A7F30F68C0D10DF6335088F ====

foobar2000 1.3.8 / Dynamic Range Meter 1.1.1
log date: 2015-12-12 14:18:01

––––––––––––––––––––––––––––––––––––––––
Analyzed: Ronnie Aldrich / Webb Country / The World of Burt Bacharach
––––––––––––––––––––––––––––––––––––––––

DR Peak RMS Duration Track
––––––––––––––––––––––––––––––––––––––––
DR12 -0.79 dB -18.77 dB 5:29 01-MacArthur Park
DR12 -3.04 dB -21.73 dB 3:36 02-Lovers Such As I
DR12 -5.88 dB -22.27 dB 4:02 03-By the Time I Get to Phoenix
DR13 -3.17 dB -19.67 dB 3:01 04-Paper Chase
DR13 -3.26 dB -21.37 dB 4:12 05-Wichita Lineman
DR13 -0.38 dB -18.02 dB 3:28 06-Galveston
DR12 -4.70 dB -20.95 dB 4:03 07-Didn't We
DR13 -3.12 dB -20.03 dB 2:56 08-Walk Your Feet in the Sunshine
DR13 -3.87 dB -22.17 dB 3:56 09-The Moon Is a Harsh Mistress
DR12 -4.47 dB -19.69 dB 3:06 10-Up, Up and Away
DR11 -4.85 dB -18.82 dB 3:20 11-Wives and Lovers
DR12 -6.68 dB -22.40 dB 2:50 12-Alfie
DR12 -5.61 dB -21.34 dB 3:23 13-Odds and Ends
DR11 -4.56 dB -20.64 dB 3:47 14-Where There's a Heartache
DR11 -6.37 dB -21.84 dB 3:46 15-This Guy's in Love With You
DR11 -5.46 dB -20.86 dB 3:49 16-(They Long to Be) Close to You
DR10 -6.43 dB -20.68 dB 3:17 17-What the World Needs Now Is Love
DR12 -5.52 dB -21.49 dB 3:19 18-Raindrops Keep Fallin' on My Head
DR12 -3.80 dB -21.08 dB 3:09 19-The April Fools
DR10 -6.66 dB -21.77 dB 3:58 20-Paper Mache
DR11 -4.83 dB -20.60 dB 3:55 21-The Look of Love
––––––––––––––––––––––––––––––––––––––––

Number of tracks: 21
Official DR value: DR12

Samplerate: 44100 Hz
Channels: 2
Bits per sample: 16
Bitrate: 665 kbps
Codec: FLAC
================================================================================

Ronnie Aldrich - Webb Country (1977) + The World of Burt Bacharach (1972) 2LP in 1CD, 2008

Ronnie Aldrich - Webb Country (1977) + The World of Burt Bacharach (1972) 2LP in 1CD, 2008