Subcategories

Maurizio Benini, The Metropolitan Opera Orchestra, Juan Diego Florez, Joyce Di Donato - Rossini - Le Comte Ory (2012) [Blu-Ray]

Posted By: Vilboa
Maurizio Benini, The Metropolitan Opera Orchestra, Juan Diego Florez, Joyce Di Donato - Rossini - Le Comte Ory (2012) [Blu-Ray]

Rossini - Le Comte Ory (Maurizio Benini) (2012) [Blu-Ray]
BluRay | BDMV | MPEG-4 AVC Video / 1080i / 29,970 fps | 144 min | 32,1 Gb
Audio1: French / LPCM Audio / 2.0 / 24-bit | Audio2: DTS-HD Master Audio / 5.1 / 48 kHz / 24-bit

BluRay-rip | AVC | MKV 1920x1080 / 6215 kbps / 29,97 fps | 144 min | 7,81 Gb
Audio: French / DTS / 6ch / 48.0 KHz / 24 bits
Classical | Erato | Sub: English, French, German, Italian, Spanish

In spring 2011, the first-ever performances at New York's Metropolitan Opera of Rossini's Le Comte Ory brought standing ovations and critical-acclaim. The spectacular trio of Juan Diego Florez, Diana Damrau and Joyce DiDonato ignited vocal and theatrical fireworks.
Le Comte Ory tells the story of a libidinous and cunning nobleman who disguises himself first as a hermit and then as a nun ("Sister Colette") in order to gain access to the virtuous Countess Adele, whose brother is away at the Crusades. The 2011 Met production was directed by the Tony Award-winning Broadway director Bartlett Sher, who in recent years has also staged Il barbiere di Siviglia and Les Contes d'Hoffman for the Met. Sher presented the action as an opera within an opera, updated the action by a few centuries and giving the costume designer, Catherine Zuber, the opportunity to create some particularly extravagant headgear. Juan Diego Florez starred as the title role while Diana Damrau plays his love interest, Countess Adele, and Joyce DiDonato was in breeches as his pageboy Isolier. The trio had appeared in Sher's production of Rossini's Il barbiere di Siviglia.
The New York Times praised "the terrific cast", citing Damrau's "lustrous, agile coloratura soprano voice, and charisma galore" and describing how DiDonato, "who sang with plush sound and impeccable passagework, sent top notes soaring and conveyed all the swagger of a smitten page."
The Financial Times named Florez, "a bel-canto paragon virtually without peer. He attacks and/or floats top tones with laughing ease, phrases with slender grace and exudes charm even when impersonating a singing nun". The Wall Street Journal said: "It was a treat to hear Mr. Florez navigate the vocal extremes of the role, popping out high C's while adopting a rascally but winning demeanor."
Conducted with verve and finesse by Rossini specialist Maurizio Benini, the production also features the stylish French baritone Stephane Degout as Ory's bibulous conspirator Raimbaud (quite a change from his previous Met role - Debussy's gentle Pelleas), charismatic Italian bass Michele Pertusi as the Count's long-suffering Tutor, and, formidable as Adele's housekeeper Ragonde, the Swedish dramatic mezzo Susanne Resmark.

Cast:
Raimbaud - Stéphane Degout
Alice - Monica Yunus
Ragonde - Susanne Resmark
Le Comte Ory - Juan Diego Flórez
Le Gouverneur - Michele Pertusi
Isolier - Joyce Di Donato
La Comtesse Adèle - Diana Damrau
The Metropolitan Opera Orchestra and Chorus
Conductor - Maurizio Benini


General
ID : 0 (0x0)
Complete name : C:\LE_COMTE_ORY\BDMV\STREAM\00000.m2ts
Format : BDAV
Format/Info : Blu-ray Video
File size : 15.5 GiB
Duration : 1h 13mn
Overall bit rate mode : Variable
Overall bit rate : 30.1 Mbps
Maximum Overall bit rate : 48.0 Mbps

Video
ID : 4113 (0x1011)
Menu ID : 1 (0x1)
Format : AVC
Format/Info : Advanced Video Codec
Format profile : High@L4.1
Format settings, CABAC : Yes
Format settings, ReFrames : 4 frames
Codec ID : 27
Duration : 1h 13mn
Bit rate mode : Variable
Maximum bit rate : 38.0 Mbps
Width : 1 920 pixels
Height : 1 080 pixels
Display aspect ratio : 16:9
Frame rate : 29.970 fps
Color space : YUV
Chroma subsampling : 4:2:0
Bit depth : 8 bits
Scan type : MBAFF
Scan order : Top Field First

Audio #1
ID : 4352 (0x1100)
Menu ID : 1 (0x1)
Format : PCM
Format settings, Endianness : Big
Format settings, Sign : Signed
Muxing mode : Blu-ray
Codec ID : 128
Duration : 1h 13mn
Bit rate mode : Constant
Bit rate : 2 304 Kbps
Channel(s) : 2 channels
Channel positions : Front: L R
Sampling rate : 48.0 KHz
Bit depth : 24 bits
Stream size : 1.19 GiB (8%)

Audio #2
ID : 4353 (0x1101)
Menu ID : 1 (0x1)
Format : DTS
Format/Info : Digital Theater Systems
Format profile : MA / Core
Mode : 16
Format settings, Endianness : Big
Muxing mode : Stream extension
Codec ID : 134
Duration : 1h 13mn
Bit rate mode : Variable
Bit rate : Unknown / 1 509 Kbps
Channel(s) : 6 channels
Channel positions : Front: L C R, Side: L R, LFE
Sampling rate : 48.0 KHz
Bit depth : 24 bits
Compression mode : Lossless / Lossy

Text #1
ID : 4608 (0x1200)
Menu ID : 1 (0x1)
Format : PGS
Codec ID : 144

Text #2
ID : 4609 (0x1201)
Menu ID : 1 (0x1)
Format : PGS
Codec ID : 144

Text #3
ID : 4610 (0x1202)
Menu ID : 1 (0x1)
Format : PGS
Codec ID : 144

Text #4
ID : 4611 (0x1203)
Menu ID : 1 (0x1)
Format : PGS
Codec ID : 144

Text #5
ID : 4612 (0x1204)
Menu ID : 1 (0x1)
Format : PGS
Codec ID : 144


General
Unique ID : 180727934041305877447807222464119432427 (0x87F6EF1A5842940091233D444F49E4EB)
Complete name : C:\Le_Comte_Ory.mkv
Format : Matroska
Format version : Version 2
File size : 7.81 GiB
Duration : 2h 23mn
Overall bit rate : 7 771 Kbps
Movie name : Le_Comte_Ory
Encoded date : UTC 2017-04-17 11:30:59
Writing application : DVDFab 9.1.6.8
Writing library : libebml v0.7.8 + libmatroska v0.8.1

Video
ID : 1
Format : AVC
Format/Info : Advanced Video Codec
Format profile : High@L4.1
Format settings, CABAC : Yes
Format settings, ReFrames : 2 frames
Codec ID : V_MPEG4/ISO/AVC
Duration : 2h 23mn
Bit rate : 6 215 Kbps
Width : 1 920 pixels
Height : 1 080 pixels
Display aspect ratio : 16:9
Frame rate mode : Constant
Frame rate : 29.970 fps
Color space : YUV
Chroma subsampling : 4:2:0
Bit depth : 8 bits
Scan type : Progressive
Bits/(Pixel*Frame) : 0.100
Stream size : 6.14 GiB (79%)
Writing library : x264 core 142
Encoding settings : cabac=1 / ref=1 / deblock=1:-1:-1 / analyse=0x3:0 / me=hex / subme=5 / psy=0 / mixed_ref=0 / me_range=16 / chroma_me=1 / trellis=0 / 8x8dct=1 / cqm=0 / deadzone=21,11 / fast_pskip=1 / chroma_qp_offset=0 / threads=8 / lookahead_threads=2 / sliced_threads=0 / nr=0 / decimate=1 / interlaced=0 / bluray_compat=0 / constrained_intra=0 / bframes=2 / b_pyramid=0 / b_adapt=1 / b_bias=0 / direct=1 / weightb=1 / open_gop=0 / weightp=0 / keyint=24 / keyint_min=13 / scenecut=40 / intra_refresh=0 / rc=abr / mbtree=0 / bitrate=6215 / ratetol=1.0 / qcomp=0.60 / qpmin=0 / qpmax=69 / qpstep=4 / ip_ratio=1.40 / pb_ratio=1.30 / aq=1:1.00
Default : Yes
Forced : No
Color primaries : BT.709
Transfer characteristics : BT.709
Matrix coefficients : BT.709
Color range : Limited

Audio
ID : 2
Format : DTS
Format/Info : Digital Theater Systems
Mode : 16
Format settings, Endianness : Big
Codec ID : A_DTS
Duration : 2h 23mn
Bit rate mode : Constant
Bit rate : 1 509 Kbps
Channel(s) : 6 channels
Channel positions : Front: L C R, Side: L R, LFE
Sampling rate : 48.0 KHz
Bit depth : 24 bits
Compression mode : Lossy
Stream size : 1.52 GiB (19%)
Language : French
Default : Yes
Forced : No

Text #1
ID : 3
Format : VobSub
Codec ID : S_VOBSUB
Codec ID/Info : The same subtitle format used on DVDs
Language : English
Default : Yes
Forced : No

Text #2
ID : 4
Format : VobSub
Codec ID : S_VOBSUB
Codec ID/Info : The same subtitle format used on DVDs
Language : French
Default : No
Forced : No

Text #3
ID : 5
Format : VobSub
Codec ID : S_VOBSUB
Codec ID/Info : The same subtitle format used on DVDs
Language : German
Default : No
Forced : No

Text #4
ID : 6
Format : VobSub
Codec ID : S_VOBSUB
Codec ID/Info : The same subtitle format used on DVDs
Language : Italian
Default : No
Forced : No

Text #5
ID : 7
Format : VobSub
Codec ID : S_VOBSUB
Codec ID/Info : The same subtitle format used on DVDs
Language : Spanish
Default : No
Forced : No

Menu
00:00:00.000 : en:Chapter 01
00:00:51.918 : en:Chapter 02
00:02:37.457 : en:Chapter 03
00:10:07.573 : en:Chapter 04
00:12:28.314 : en:Chapter 05
00:17:39.458 : en:Chapter 06
00:18:34.079 : en:Chapter 07
00:21:09.534 : en:Chapter 08
00:23:09.788 : en:Chapter 09
00:25:22.988 : en:Chapter 10
00:30:34.432 : en:Chapter 11
00:36:28.119 : en:Chapter 12
00:39:22.560 : en:Chapter 13
00:46:40.397 : en:Chapter 14
00:48:18.262 : en:Chapter 15
00:54:34.471 : en:Chapter 16
01:00:25.221 : en:Chapter 17
01:02:20.269 : en:Chapter 18
01:05:27.156 : en:Chapter 19
01:07:59.008 : en:Chapter 20
01:12:07.656 : en:Chapter 21
01:13:46.622 : en:Chapter 22
01:14:21.290 : en:Chapter 23
01:22:58.273 : en:Chapter 24
01:27:10.091 : en:Chapter 25
01:29:46.714 : en:Chapter 26
01:37:12.092 : en:Chapter 27
01:40:26.587 : en:Chapter 28
01:41:25.913 : en:Chapter 29
01:44:48.749 : en:Chapter 30
01:45:30.223 : en:Chapter 31
01:51:10.830 : en:Chapter 32
01:55:30.023 : en:Chapter 33
02:03:04.143 : en:Chapter 34
02:14:24.923 : en:Chapter 35
02:19:11.643 : en:Chapter 36
02:21:10.195 : en:Chapter 37


All screenshots taken from Blu-ray

Maurizio Benini, The Metropolitan Opera Orchestra, Juan Diego Florez, Joyce Di Donato - Rossini - Le Comte Ory (2012) [Blu-Ray]
Maurizio Benini, The Metropolitan Opera Orchestra, Juan Diego Florez, Joyce Di Donato - Rossini - Le Comte Ory (2012) [Blu-Ray]
Maurizio Benini, The Metropolitan Opera Orchestra, Juan Diego Florez, Joyce Di Donato - Rossini - Le Comte Ory (2012) [Blu-Ray]
Maurizio Benini, The Metropolitan Opera Orchestra, Juan Diego Florez, Joyce Di Donato - Rossini - Le Comte Ory (2012) [Blu-Ray]
Maurizio Benini, The Metropolitan Opera Orchestra, Juan Diego Florez, Joyce Di Donato - Rossini - Le Comte Ory (2012) [Blu-Ray]