Subcategories

Roxette - The Rox Box: Roxette 86-06 (2006) 4 CD + 2 DVD Box Set

Posted By: Designol
Roxette - The Rox Box: Roxette 86-06 (2006) 4 CD + 2 DVD Box Set

Roxette - The Rox Box: Roxette 86-06 (2006) 4 CD + 2 DVD Box Set
EAC | FLAC | Tracks (Cue&Log) ~ 2.16 Gb | Mp3 (CBR320) ~ 709 Mb | Time: 05:09:11
DVD10 (2xDVD5) | PAL | 720x576 (4:3) VBR | AC3 192 Kbps or DTS (only MTV) | 03:23:17 | ~ 9 Gb
Pop/Rock, Adult Contemporary | Label: EMI | # 0946 3 67972 2 9 | Scans ~109 Mb

The Roxbox (Roxette 86-06) is a boxed set compilation by Swedish pop duo Roxette, released on 18 October 2006 by Roxette Recordings and Capitol. It is an expanded companion piece to the single-disc greatest hits album A Collection of Roxette Hits - Their 20 Greatest Songs!, which was also released on the same date. The box set consists of four CDs containing singles, album tracks, non-album singles and b-sides, as well as previously unreleased outtakes, alternate versions and demos. It also includes two DVDs: the first is of their previously unreleased 9 January 1993 performance at the Cirkus arena in Stockholm for MTV Unplugged; the second contains every music video ever recorded by the duo.

Roxette were one of the biggest global pop acts of the '90s, selling over 75 million records around the world and dominating the charts with songs like "The Look," "Listen to Your Heart," "Joyride," and "It Must Have Been Love," all four of which hit the top of the Billboard Hot 100. Hailing from Halmstad, Sweden, Roxette are a duo featuring vocalist Marie Fredriksson and songwriter, vocalist, and multi-instrumentalist Per Gessle. Fredriksson and Gessle first met in the late '70s, when she was a member of the pop combo Strul & Ma Mas Barn and he played with Gyllene Tider, one of Sweden's biggest groups of the late '70s and early '80s. In 1981, after Fredriksson's group broke up, she joined Gyllene Tider as backing vocalist for a concert tour, and later worked with them in the studio in the same capacity. In 1984, Fredriksson released her first solo album, Het Vind (Hot Wind) and Gessle contributed a song for the sessions; the same year, Gyllene Tider recorded their only English-language album, The Heartland Café, and Gessle once again invited Fredriksson to contribute to the sessions. For the American release, Gyllene Tider's American label, Capitol Records, edited the 11-song album down to a six-track EP, and shortened the title to Heartland. Capitol also felt the name Gyllene Tider might not register with U.S. listeners, so the group adopted the name Roxette, taken from a song by British pub rock icons Dr. Feelgood.

Pearls of PassionThe Heartland Café proved to be Gyllene Tider's last album for a 20-year period, and Gessle decided it was finally time for him and Fredriksson to record a project together. As Roxette, they cut a single in 1986, "Neverending Love," which was a major hit in Sweden, and a number of songs Fredriksson and Gessle had earmarked for her third solo album became the basis of the first proper Roxette album, Pearls of Passion. In hopes of greater international success, Roxette wrote and recorded their material in English, but while Pearls of Passion was a hit at home, Capitol/EMI didn't bother to release the album in the United States. The same fate initially befell 1988's Look Sharp! until an American student studying in Sweden brought a copy of the album home to Minneapolis and persuaded a DJ at a local radio station to give "The Look" a spin. The song clicked with listeners, and soon Capitol rush-released Look Sharp! in the United States; both "The Look" and "It Must Have Been Love" went to number one on the singles charts, and the album went platinum, establishing Roxette in the States and kickstarting their career in Europe.

Joyride Their next album, 1991's Joyride, also went platinum in America, and it was followed in 1992 by Tourism: Songs from Studios, Stages, Hotel Rooms and Other Strange Places, a collection of material recorded during the group's 1991 world tour. In 1994, Roxette released Crash! Boom! Bang!, which was successful in Sweden and Europe but failed to live up to the sales figures of their second and third albums in America. In 1996, Roxette went on hiatus after recording a Spanish-language album, as Gyllene Tider staged a reunion tour and Gessle released a solo album. Roxette returned to duty in 1999 with the album Have a Nice Day, and Room Service followed in 2001, with the duo making a high-profile appearance as part of the Eurovision Song Contest. However, in the fall of 2002, Roxette was forced to curtail their activities when Fredriksson was diagnosed with a brain tumor; over the next several years, she focused on her recovery and recorded solo material, while Gessle also pursued solo projects and staged another Gyllene Tider reunion.

Charm School In 2008, Gessle surprised fans at a concert in Amsterdam when he brought out Fredriksson to sing several Roxette hits, and in 2009, the duo staged a comeback tour that sold out halls all across Europe and the Netherlands. With Fredriksson back in fighting shape, Roxette returned to the recording studio and 2011's Charm School was their first album of new material in ten years, and was followed by another successful world concert tour that stretched for two years. The lead single from the album – "She's Got Nothing On (But the Radio)" – hit the top of the European Airplay charts that January. 2012 saw the release of their ninth effort, entitled Travelling. It was originally going to be called Tourism 2, a direct sequel to their 1992 album, but EMI insisted on avoiding album titles with numbers. The album featured the lead single "It's Possible," and went on to enter the Top 10 album chart in four countries. 2016 would mark the duo's 30th year together, and a huge tour was planned for the occasion. After brief stints pursuing other projects – Gessle once again reunited with his boy band and Fredriksson promoted her solo album Nu – the RoXXXette 30th Anniversary tour kicked off in late 2014. It was scheduled to coincide with the release of their tenth studio album, 2016's Good Karma, but due to Fredriksson's recurring ill health, the tour had to be cut short in February 2016.

Mark Deming, Allmusic.com

Roxette - The Rox Box: Roxette 86-06 (2006) 4 CD + 2 DVD Box Set



Tracklist:

CD1 (1:17:38)

01. Neverending Love (3:28)
02. Secrets That She Keeps (3:42)
03. Goodbye To You (4:01)
04. Soul Deep (3:34)
05. The Look (3:57)
06. Dressed For Success (4:12)
07. Sleeping Single (4:39)
08. Paint (3:32)
09. Dangerous (3:51)
10. Listen To Your Heart (5:16)
11. The Voice (4:16)
12. Cry (Demo) (5:10)
13. It Must Have Been Love (4:20)
14. Joyride (4:01)
15. Fading Like A Flower (Every Time You Leave) (3:54)
16. Spending My Time (4:37)
17. Watercolours In The Rain (3:40)
18. Church Of Your Heart (3:23)
19. Perfect Day (4:06)


CD2 (1:17:55)

01. The Big L. (4:29)
02. (Do You Get) Excited? (4:17)
03. Things Will Never Be The Same (4:28)
04. The Sweet Hello, The Sad Goodbye (4:49)
05. Love Spins (Demo) (3:31)
06. Seduce Me (Demo) (3:56)
07. How Do You Do! (3:11)
08. The Heart Shaped Sea (4:19)
09. The Rain (4:50)
10. Never Is A Long Time (3:47)
11. Silver Blue (4:08)
12. Come Back (Before You Leave) (4:32)
13. Queen Of Rain (4:57)
14. Almost Unreal (3:59)
15. Sleeping In My Car (3:34)
16. Crash! Boom! Bang! (4:28)
17. Vulnerable (4:29)
18. The First Girl On The Moon (2:58)
19. I'm Sorry (3:12)


CD3 (1:19:20)

01. Run To You (3:38)
02. See Me (3:45)
03. June Afternoon (4:11)
04. You Don't Understand Me (4:27)
05. She Doesn't Live Here Anymore (4:05)
06. I Don't Want To Get Hurt (4:17)
07. Always Breaking My Heart (Demo) (3:08)
08. Help! (2:58)
09. Wish I Could Fly (4:43)
10. You Can't Put Your Arms Around What's Already Gone (3:33)
11. Waiting For The Rain (3:39)
12. Anyone (4:32)
13. Stars (3:58)
14. Salvation (4:38)
15. Cooper (4:20)
16. Beautiful Things (3:50)
17. It Hurts (3:52)
18. Little Miss Sorrow (3:57)
19. Happy Together (3:57)
20. Staring At The Ground (Demo) (3:50)


CD4 (1:14:18)

01. 7Twenty7 (Demo) (3:28)
02. It Will Take A Long Long Time (4:00)
03. Anyone / I Love How You Love Me (Demo) (4:13)
04. Myth (Demo) (4:26)
05. New World (Demo) (3:39)
06. Better Off On Her Own (Demo) (2:51)
07. Real Sugar (3:17)
08. The Centre Of The Heart (3:23)
09. Milk And Toast And Honey (4:05)
10. Jefferson (3:53)
11. Little Girl (3:39)
12. The Weight Of The World (2:52)
13. Every Day (3:25)
14. Bla Bla Bla Bla Bla (You Broke My Heart) (Demo) (4:37)
15. A Thing About You (3:49)
16. Breathe (4:35)
17. Opportunity Nox (3:02)
18. All I Ever Wanted (Demo) (4:17)
19. One Wish (3:03)
20. Reveal (3:44)


Exact Audio Copy V0.99 prebeta 4 from 23. January 2008

EAC extraction logfile from 26. May 2008, 12:04

Roxette / The RoxBox Roxette 86-06 (CD1)

Used drive : ASUS DRW-1608P2S Adapter: 0 ID: 1

Read mode : Secure
Utilize accurate stream : Yes
Defeat audio cache : Yes
Make use of C2 pointers : No

Read offset correction : 48
Overread into Lead-In and Lead-Out : No
Fill up missing offset samples with silence : Yes
Delete leading and trailing silent blocks : No
Null samples used in CRC calculations : Yes
Used interface : Installed external ASPI interface
Gap handling : Appended to previous track

Used output format : User Defined Encoder
Selected bitrate : 128 kBit/s
Quality : High
Add ID3 tag : No
Command line compressor : C:\Program Files\FLAC\flac.exe
Additional command line options : -V -8 -T "artist=%a" -T "title=%t" -T "album=%g" -T "date=%y" -T "tracknumber=%n" -T "genre=%m" %s


TOC of the extracted CD

Track | Start | Length | Start sector | End sector
––––––––––––––––––––––––––––-
1 | 0:00.00 | 3:27.43 | 0 | 15567
2 | 3:27.43 | 3:41.55 | 15568 | 32197
3 | 7:09.23 | 4:00.63 | 32198 | 50260
4 | 11:10.11 | 3:33.66 | 50261 | 66301
5 | 14:44.02 | 3:57.15 | 66302 | 84091
6 | 18:41.17 | 4:12.27 | 84092 | 103018
7 | 22:53.44 | 4:38.56 | 103019 | 123924
8 | 27:32.25 | 3:32.18 | 123925 | 139842
9 | 31:04.43 | 3:51.02 | 139843 | 157169
10 | 34:55.45 | 5:15.56 | 157170 | 180850
11 | 40:11.26 | 4:16.36 | 180851 | 200086
12 | 44:27.62 | 5:09.38 | 200087 | 223299
13 | 49:37.25 | 4:19.44 | 223300 | 242768
14 | 53:56.69 | 4:01.15 | 242769 | 260858
15 | 57:58.09 | 3:53.42 | 260859 | 278375
16 | 61:51.51 | 4:36.40 | 278376 | 299115
17 | 66:28.16 | 3:39.73 | 299116 | 315613
18 | 70:08.14 | 3:23.21 | 315614 | 330859
19 | 73:31.35 | 4:06.03 | 330860 | 349312


Track 1

Filename H:\Music\Roxette\The RoxBox Roxette 86-06 (CD1)\01 - Neverending Love.wav

Pre-gap length 0:00:02.00

Peak level 97.7 %
Track quality 100.0 %
Copy CRC 632744FC
Accurately ripped (confidence 3) [5F2A2B9B]
Copy OK

Track 2

Filename H:\Music\Roxette\The RoxBox Roxette 86-06 (CD1)\02 - Secrets That She Keeps.wav

Peak level 97.7 %
Track quality 100.0 %
Copy CRC 7C2E45F1
Accurately ripped (confidence 3) [34E2419F]
Copy OK

Track 3

Filename H:\Music\Roxette\The RoxBox Roxette 86-06 (CD1)\03 - Goodbye To You.wav

Peak level 97.7 %
Track quality 100.0 %
Copy CRC 95909BDB
Accurately ripped (confidence 3) [44899B8A]
Copy OK

Track 4

Filename H:\Music\Roxette\The RoxBox Roxette 86-06 (CD1)\04 - Soul Deep.wav

Peak level 97.7 %
Track quality 100.0 %
Copy CRC E4738E8D
Accurately ripped (confidence 3) [3FC835BF]
Copy OK

Track 5

Filename H:\Music\Roxette\The RoxBox Roxette 86-06 (CD1)\05 - The Look.wav

Peak level 98.8 %
Track quality 100.0 %
Copy CRC B31F970A
Accurately ripped (confidence 3) [78B441ED]
Copy OK

Track 6

Filename H:\Music\Roxette\The RoxBox Roxette 86-06 (CD1)\06 - Dressed For Success.wav

Peak level 98.8 %
Track quality 99.9 %
Copy CRC 14B2ACAA
Accurately ripped (confidence 3) [920ADA0B]
Copy OK

Track 7

Filename H:\Music\Roxette\The RoxBox Roxette 86-06 (CD1)\07 - Sleeping Single.wav

Peak level 97.7 %
Track quality 100.0 %
Copy CRC A555394D
Accurately ripped (confidence 3) [578FCF29]
Copy OK

Track 8

Filename H:\Music\Roxette\The RoxBox Roxette 86-06 (CD1)\08 - Paint.wav

Peak level 97.7 %
Track quality 100.0 %
Copy CRC 3EDCCA94
Accurately ripped (confidence 3) [B7955516]
Copy OK

Track 9

Filename H:\Music\Roxette\The RoxBox Roxette 86-06 (CD1)\09 - Dangerous.wav

Peak level 98.8 %
Track quality 100.0 %
Copy CRC E24C3282
Accurately ripped (confidence 3) [3AC04B18]
Copy OK

Track 10

Filename H:\Music\Roxette\The RoxBox Roxette 86-06 (CD1)\10 - Listen To Your Heart.wav

Peak level 98.8 %
Track quality 100.0 %
Copy CRC B28B2B54
Accurately ripped (confidence 3) [246A3849]
Copy OK

Track 11

Filename H:\Music\Roxette\The RoxBox Roxette 86-06 (CD1)\11 - The Voice.wav

Peak level 97.7 %
Track quality 100.0 %
Copy CRC E75129C2
Accurately ripped (confidence 3) [7E49C301]
Copy OK

Track 12

Filename H:\Music\Roxette\The RoxBox Roxette 86-06 (CD1)\12 - Cry (Demo).wav

Peak level 97.7 %
Track quality 100.0 %
Copy CRC 7599596C
Accurately ripped (confidence 3) [8870FC7A]
Copy OK

Track 13

Filename H:\Music\Roxette\The RoxBox Roxette 86-06 (CD1)\13 - It Must Have Been Love.wav

Peak level 98.8 %
Track quality 100.0 %
Copy CRC 756DDE99
Accurately ripped (confidence 3) [CD2921C9]
Copy OK

Track 14

Filename H:\Music\Roxette\The RoxBox Roxette 86-06 (CD1)\14 - Joyride.wav

Peak level 98.8 %
Track quality 100.0 %
Copy CRC 285399B9
Accurately ripped (confidence 3) [F48A0FAE]
Copy OK

Track 15

Filename H:\Music\Roxette\The RoxBox Roxette 86-06 (CD1)\15 - Fading Like A Flower (Every Time You Leave).wav

Peak level 98.8 %
Track quality 100.0 %
Copy CRC 971EFBF8
Accurately ripped (confidence 3) [C909BBAA]
Copy OK

Track 16

Filename H:\Music\Roxette\The RoxBox Roxette 86-06 (CD1)\16 - Spending My Time.wav

Peak level 98.8 %
Track quality 100.0 %
Copy CRC B6B13635
Accurately ripped (confidence 3) [6F916594]
Copy OK

Track 17

Filename H:\Music\Roxette\The RoxBox Roxette 86-06 (CD1)\17 - Watercolours In The Rain.wav

Peak level 97.7 %
Track quality 100.0 %
Copy CRC 3897FB9C
Accurately ripped (confidence 3) [126706DE]
Copy OK

Track 18

Filename H:\Music\Roxette\The RoxBox Roxette 86-06 (CD1)\18 - Church Of Your Heart.wav

Peak level 98.8 %
Track quality 100.0 %
Copy CRC 3FC22B5B
Accurately ripped (confidence 3) [1ECF5A79]
Copy OK

Track 19

Filename H:\Music\Roxette\The RoxBox Roxette 86-06 (CD1)\19 - Perfect Day.wav

Peak level 97.7 %
Track quality 99.9 %
Copy CRC 1ADBBE5F
Accurately ripped (confidence 3) [C5998C06]
Copy OK


All tracks accurately ripped

No errors occurred

End of status report

[CUETools log; Date: 02.03.2018 22:55:36; Version: 2.1.4]
HDCD: peak extend: none, transient filter: none, gain: none
[CTDB TOCID: md9W0kBJrc.RkhVOFWVSJS8Cp7s-] found.
Track | CTDB Status
1 | (37/37) Accurately ripped
2 | (37/37) Accurately ripped
3 | (37/37) Accurately ripped
4 | (37/37) Accurately ripped
5 | (37/37) Accurately ripped
6 | (37/37) Accurately ripped
7 | (37/37) Accurately ripped
8 | (37/37) Accurately ripped
9 | (37/37) Accurately ripped
10 | (37/37) Accurately ripped
11 | (36/37) Accurately ripped
12 | (37/37) Accurately ripped
13 | (37/37) Accurately ripped
14 | (36/37) Accurately ripped
15 | (37/37) Accurately ripped
16 | (37/37) Accurately ripped
17 | (37/37) Accurately ripped
18 | (37/37) Accurately ripped
19 | (37/37) Accurately ripped
[AccurateRip ID: 0034b253-02e8b585-1a123113] found.
Track [ CRC | V2 ] Status
01 [5f2a2b9b|33861c03] (10+10/28) Accurately ripped
02 [34e2419f|41a04d5d] (09+10/27) Accurately ripped
03 [44899b8a|242ed5f1] (10+10/28) Accurately ripped
04 [3fc835bf|1cba0642] (10+10/28) Accurately ripped
05 [78b441ed|8323473e] (10+10/28) Accurately ripped
06 [920ada0b|f17a6993] (10+10/28) Accurately ripped
07 [578fcf29|5c2ed81c] (10+10/28) Accurately ripped
08 [b7955516|c36c8a16] (10+10/28) Accurately ripped
09 [3ac04b18|5309f560] (10+10/28) Accurately ripped
10 [246a3849|d820148b] (10+09/27) Accurately ripped
11 [7e49c301|b26661fb] (10+10/27) Accurately ripped
12 [8870fc7a|b90304e8] (10+10/28) Accurately ripped
13 [cd2921c9|9b9f41d5] (10+10/27) Accurately ripped
14 [f48a0fae|a94f6534] (10+10/26) Accurately ripped
15 [c909bbaa|a015369d] (10+10/26) Accurately ripped
16 [6f916594|653e45f5] (10+10/26) Accurately ripped
17 [126706de|a9963354] (10+10/26) Accurately ripped
18 [1ecf5a79|06f41dc5] (10+10/26) Accurately ripped
19 [c5998c06|69c5805d] (09+09/24) Accurately ripped
Offsetted by -86:
01 [2e3cf2c2] (00/28) No match (V2 was not tested)
02 [46eb0144] (00/27) No match (V2 was not tested)
03 [9bf1aef9] (00/28) No match (V2 was not tested)
04 [83bb1da6] (00/28) No match (V2 was not tested)
05 [5b37ff4c] (00/28) No match (V2 was not tested)
06 [a3fc1dbc] (00/28) No match (V2 was not tested)
07 [812b0d8b] (00/28) No match (V2 was not tested)
08 [45bebf6a] (00/28) No match (V2 was not tested)
09 [a6e3bc19] (00/28) No match (V2 was not tested)
10 [09c4f2de] (00/27) No match (V2 was not tested)
11 [4f3a174e] (00/27) No match (V2 was not tested)
12 [5a74cde5] (00/28) No match (V2 was not tested)
13 [f92d8c26] (00/27) No match (V2 was not tested)
14 [ed49aa13] (00/26) No match (V2 was not tested)
15 [e217228f] (00/26) No match (V2 was not tested)
16 [b556290f] (00/26) No match (V2 was not tested)
17 [7df0f104] (00/26) No match (V2 was not tested)
18 [12f34b37] (00/26) No match (V2 was not tested)
19 [f3f1e04b] (00/24) No match (V2 was not tested)

Track Peak [ CRC32 ] [W/O NULL] [ LOG ]
– 98,8 [1DE6E513] [A250BE74]
01 97,7 [632744FC] [A3FE5C0E] CRC32
02 97,7 [7C2E45F1] [E4C29B45] CRC32
03 97,7 [95909BDB] [D05F883B] CRC32
04 97,7 [E4738E8D] [0E316C0D] CRC32
05 98,8 [B31F970A] [8B322F77] CRC32
06 98,8 [14B2ACAA] [36CA1F09] CRC32
07 97,7 [A555394D] [C13149B6] CRC32
08 97,7 [3EDCCA94] [B6C21021] CRC32
09 98,8 [E24C3282] [695B3B3C] CRC32
10 98,8 [B28B2B54] [B7634217] CRC32
11 97,7 [E75129C2] [0CD5F666] CRC32
12 97,7 [7599596C] [954CC69B] CRC32
13 98,8 [756DDE99] [83C3880F] CRC32
14 98,8 [285399B9] [CB3D6F89] CRC32
15 98,8 [971EFBF8] [D432ED49] CRC32
16 98,8 [B6B13635] [CFB77B7A] CRC32
17 97,7 [3897FB9C] [E001AE63] CRC32
18 98,8 [3FC22B5B] [5FD1E350] CRC32
19 97,7 [1ADBBE5F] [C306A5C8] CRC32

foobar2000 1.2 / Dynamic Range Meter 1.1.1
log date: 2018-03-02 23:39:19

––––––––––––––––––––––––––––––––––––––––
Analyzed: Roxette / The RoxBox Roxette 86-06 (Disc 1)
––––––––––––––––––––––––––––––––––––––––

DR Peak RMS Duration Track
––––––––––––––––––––––––––––––––––––––––
DR6 -0.20 dB -7.73 dB 3:28 01-Neverending Love
DR7 -0.20 dB -7.95 dB 3:42 02-Secrets That She Keeps
DR7 -0.20 dB -7.74 dB 4:01 03-Goodbye To You
DR6 -0.20 dB -7.29 dB 3:34 04-Soul Deep
DR7 -0.10 dB -8.84 dB 3:57 05-The Look
DR8 -0.10 dB -9.24 dB 4:12 06-Dressed For Success
DR8 -0.20 dB -9.65 dB 4:39 07-Sleeping Single
DR7 -0.20 dB -8.05 dB 3:32 08-Paint
DR7 -0.10 dB -8.75 dB 3:51 09-Dangerous
DR7 -0.10 dB -10.12 dB 5:16 10-Listen To Your Heart
DR8 -0.20 dB -9.27 dB 4:16 11-The Voice
DR6 -0.20 dB -8.57 dB 5:10 12-Cry (Demo)
DR8 -0.10 dB -10.46 dB 4:20 13-It Must Have Been Love
DR7 -0.10 dB -9.24 dB 4:01 14-Joyride
DR8 -0.10 dB -10.24 dB 3:54 15-Fading Like A Flower (Every Time You Leave)
DR7 -0.10 dB -9.88 dB 4:37 16-Spending My Time
DR8 -0.20 dB -12.24 dB 3:40 17-Watercolours In The Rain
DR7 -0.10 dB -8.52 dB 3:23 18-Church Of Your Heart
DR7 -0.20 dB -9.62 dB 4:06 19-Perfect Day
––––––––––––––––––––––––––––––––––––––––

Number of tracks: 19
Official DR value: DR7

Samplerate: 44100 Hz
Channels: 2
Bits per sample: 16
Bitrate: 965 kbps
Codec: FLAC
================================================================================


Exact Audio Copy V0.99 prebeta 4 from 23. January 2008

EAC extraction logfile from 26. May 2008, 12:37

Roxette / The RoxBox Roxette 86-06 (CD2)

Used drive : ASUS DRW-1608P2S Adapter: 0 ID: 1

Read mode : Secure
Utilize accurate stream : Yes
Defeat audio cache : Yes
Make use of C2 pointers : No

Read offset correction : 48
Overread into Lead-In and Lead-Out : No
Fill up missing offset samples with silence : Yes
Delete leading and trailing silent blocks : No
Null samples used in CRC calculations : Yes
Used interface : Installed external ASPI interface
Gap handling : Appended to previous track

Used output format : User Defined Encoder
Selected bitrate : 128 kBit/s
Quality : High
Add ID3 tag : No
Command line compressor : C:\Program Files\FLAC\flac.exe
Additional command line options : -V -8 -T "artist=%a" -T "title=%t" -T "album=%g" -T "date=%y" -T "tracknumber=%n" -T "genre=%m" %s


TOC of the extracted CD

Track | Start | Length | Start sector | End sector
––––––––––––––––––––––––––––-
1 | 0:00.00 | 4:28.72 | 0 | 20171
2 | 4:28.72 | 4:17.01 | 20172 | 39447
3 | 8:45.73 | 4:28.13 | 39448 | 59560
4 | 13:14.11 | 4:48.63 | 59561 | 81223
5 | 18:02.74 | 3:31.15 | 81224 | 97063
6 | 21:34.14 | 3:56.00 | 97064 | 114763
7 | 25:30.14 | 3:10.73 | 114764 | 129086
8 | 28:41.12 | 4:19.19 | 129087 | 148530
9 | 33:00.31 | 4:50.23 | 148531 | 170303
10 | 37:50.54 | 3:46.41 | 170304 | 187294
11 | 41:37.20 | 4:08.14 | 187295 | 205908
12 | 45:45.34 | 4:32.08 | 205909 | 226316
13 | 50:17.42 | 4:56.56 | 226317 | 248572
14 | 55:14.23 | 3:58.46 | 248573 | 266468
15 | 59:12.69 | 3:34.13 | 266469 | 282531
16 | 62:47.07 | 4:28.36 | 282532 | 302667
17 | 67:15.43 | 4:29.21 | 302668 | 322863
18 | 71:44.64 | 2:57.68 | 322864 | 336206
19 | 74:42.57 | 3:11.71 | 336207 | 350602


Track 1

Filename H:\Music\Roxette\The RoxBox Roxette 86-06 (CD2)\01 - The Big L..wav

Pre-gap length 0:00:02.00

Peak level 98.8 %
Track quality 99.9 %
Test CRC 4C786FCF
Copy CRC 4C786FCF
Track not present in AccurateRip database
Copy OK

Track 2

Filename H:\Music\Roxette\The RoxBox Roxette 86-06 (CD2)\02 - (Do You Get) Excited .wav

Peak level 97.7 %
Track quality 99.9 %
Test CRC 466183EE
Copy CRC 466183EE
Track not present in AccurateRip database
Copy OK

Track 3

Filename H:\Music\Roxette\The RoxBox Roxette 86-06 (CD2)\03 - Things Will Never Be The Same.wav

Peak level 97.7 %
Track quality 100.0 %
Test CRC 5988A17A
Copy CRC 5988A17A
Track not present in AccurateRip database
Copy OK

Track 4

Filename H:\Music\Roxette\The RoxBox Roxette 86-06 (CD2)\04 - The Sweet Hello, The Sad Goodbye.wav

Peak level 97.7 %
Track quality 100.0 %
Test CRC 46240BF2
Copy CRC 46240BF2
Track not present in AccurateRip database
Copy OK

Track 5

Filename H:\Music\Roxette\The RoxBox Roxette 86-06 (CD2)\05 - Love Spins (Demo).wav

Peak level 97.7 %
Track quality 99.9 %
Test CRC 55F27E55
Copy CRC 55F27E55
Track not present in AccurateRip database
Copy OK

Track 6

Filename H:\Music\Roxette\The RoxBox Roxette 86-06 (CD2)\06 - Seduce Me (Demo).wav

Peak level 97.7 %
Track quality 100.0 %
Test CRC B8EB2101
Copy CRC B8EB2101
Track not present in AccurateRip database
Copy OK

Track 7

Filename H:\Music\Roxette\The RoxBox Roxette 86-06 (CD2)\07 - How Do You Do!.wav

Peak level 93.3 %
Track quality 100.0 %
Test CRC F9136281
Copy CRC F9136281
Track not present in AccurateRip database
Copy OK

Track 8

Filename H:\Music\Roxette\The RoxBox Roxette 86-06 (CD2)\08 - The Heart Shaped Sea.wav

Peak level 97.7 %
Track quality 100.0 %
Test CRC 63AC0EB6
Copy CRC 63AC0EB6
Track not present in AccurateRip database
Copy OK

Track 9

Filename H:\Music\Roxette\The RoxBox Roxette 86-06 (CD2)\09 - The Rain.wav

Peak level 97.7 %
Track quality 100.0 %
Test CRC DB5D48BA
Copy CRC DB5D48BA
Track not present in AccurateRip database
Copy OK

Track 10

Filename H:\Music\Roxette\The RoxBox Roxette 86-06 (CD2)\10 - Never Is A Long Time.wav

Peak level 97.2 %
Track quality 100.0 %
Test CRC 4D5D1E90
Copy CRC 4D5D1E90
Track not present in AccurateRip database
Copy OK

Track 11

Filename H:\Music\Roxette\The RoxBox Roxette 86-06 (CD2)\11 - Silver Blue.wav

Peak level 97.7 %
Track quality 100.0 %
Test CRC F111BDA1
Copy CRC F111BDA1
Track not present in AccurateRip database
Copy OK

Track 12

Filename H:\Music\Roxette\The RoxBox Roxette 86-06 (CD2)\12 - Come Back (Before You Leave).wav

Peak level 97.7 %
Track quality 100.0 %
Test CRC 7F8CBE6B
Copy CRC 7F8CBE6B
Track not present in AccurateRip database
Copy OK

Track 13

Filename H:\Music\Roxette\The RoxBox Roxette 86-06 (CD2)\13 - Queen Of Rain.wav

Peak level 98.8 %
Track quality 100.0 %
Test CRC BDB1A293
Copy CRC BDB1A293
Track not present in AccurateRip database
Copy OK

Track 14

Filename H:\Music\Roxette\The RoxBox Roxette 86-06 (CD2)\14 - Almost Unreal.wav

Peak level 98.8 %
Track quality 100.0 %
Test CRC E5D6362B
Copy CRC E5D6362B
Track not present in AccurateRip database
Copy OK

Track 15

Filename H:\Music\Roxette\The RoxBox Roxette 86-06 (CD2)\15 - Sleeping In My Car.wav

Peak level 98.8 %
Track quality 99.8 %
Test CRC 469869DA
Copy CRC 469869DA
Track not present in AccurateRip database
Copy OK

Track 16

Filename H:\Music\Roxette\The RoxBox Roxette 86-06 (CD2)\16 - Crash! Boom! Bang!.wav

Peak level 98.8 %
Track quality 100.0 %
Test CRC 536BD9FC
Copy CRC 536BD9FC
Track not present in AccurateRip database
Copy OK

Track 17

Filename H:\Music\Roxette\The RoxBox Roxette 86-06 (CD2)\17 - Vulnerable.wav

Peak level 98.8 %
Track quality 99.9 %
Test CRC 9035149B
Copy CRC 9035149B
Track not present in AccurateRip database
Copy OK

Track 18

Filename H:\Music\Roxette\The RoxBox Roxette 86-06 (CD2)\18 - The First Girl On The Moon.wav

Peak level 97.4 %
Track quality 100.0 %
Test CRC F5F2E39B
Copy CRC F5F2E39B
Track not present in AccurateRip database
Copy OK

Track 19

Filename H:\Music\Roxette\The RoxBox Roxette 86-06 (CD2)\19 - I'm Sorry.wav

Peak level 97.6 %
Track quality 99.9 %
Test CRC B9CF28F4
Copy CRC B9CF28F4
Track not present in AccurateRip database
Copy OK


None of the tracks are present in the AccurateRip database

No errors occurred

End of status report

[CUETools log; Date: 02.03.2018 22:56:03; Version: 2.1.4]
HDCD: peak extend: none, transient filter: none, gain: none
[CTDB TOCID: 0ZEXYkr007QrnIhRgtOwAtMMLNc-] found.
Track | CTDB Status
1 | (36/36) Accurately ripped
2 | (36/36) Accurately ripped
3 | (36/36) Accurately ripped
4 | (36/36) Accurately ripped
5 | (36/36) Accurately ripped
6 | (36/36) Accurately ripped
7 | (36/36) Accurately ripped
8 | (36/36) Accurately ripped
9 | (36/36) Accurately ripped
10 | (36/36) Accurately ripped
11 | (36/36) Accurately ripped
12 | (36/36) Accurately ripped
13 | (36/36) Accurately ripped
14 | (36/36) Accurately ripped
15 | (36/36) Accurately ripped
16 | (36/36) Accurately ripped
17 | (36/36) Accurately ripped
18 | (35/36) Accurately ripped
19 | (36/36) Accurately ripped
[AccurateRip ID: 0036c5d8-02fc4c54-27124213] found.
Track [ CRC | V2 ] Status
01 [cae587cf|36f5fee1] (11+10/27) Accurately ripped
02 [f7cea8a1|aac295cc] (11+10/27) Accurately ripped
03 [5bf21cff|bc871eb1] (11+10/27) Accurately ripped
04 [4cc8eea6|ceaa6796] (11+10/27) Accurately ripped
05 [34713aa3|258b11fb] (10+10/26) Accurately ripped
06 [432ab3e3|5b51f9d0] (11+10/27) Accurately ripped
07 [7cfc5727|05556933] (11+10/27) Accurately ripped
08 [1b66e3d4|5fee873f] (11+10/27) Accurately ripped
09 [3b3b76ef|7d657a5d] (11+10/27) Accurately ripped
10 [7f9e31b6|e73edaac] (11+10/27) Accurately ripped
11 [1e2c3797|cb331149] (11+10/28) Accurately ripped
12 [372f84d0|1e7710a2] (11+10/27) Accurately ripped
13 [97ab3b40|332e1559] (11+10/27) Accurately ripped
14 [c7f6819b|d4568a13] (11+10/27) Accurately ripped
15 [a7874717|4fca2c33] (11+10/27) Accurately ripped
16 [cee6d2b5|a3ddb7c3] (11+10/27) Accurately ripped
17 [e63158cd|df181876] (11+10/27) Accurately ripped
18 [8506a9b9|1781e594] (11+09/26) Accurately ripped
19 [e98c13b4|c340ddd6] (10+09/25) Accurately ripped
Offsetted by -36:
01 [520241a7] (00/27) No match (V2 was not tested)
02 [0ae1c00b] (00/27) No match (V2 was not tested)
03 [d61d67e2] (00/27) No match (V2 was not tested)
04 [2849c59a] (00/27) No match (V2 was not tested)
05 [93c09a47] (00/26) No match (V2 was not tested)
06 [84170d17] (00/27) No match (V2 was not tested)
07 [991c4a6b] (00/27) No match (V2 was not tested)
08 [b57e7394] (00/27) No match (V2 was not tested)
09 [9d11663d] (00/27) No match (V2 was not tested)
10 [1c6e7c37] (00/27) No match (V2 was not tested)
11 [19445ce8] (00/28) No match (V2 was not tested)
12 [84b106e7] (00/27) No match (V2 was not tested)
13 [7827903e] (00/27) No match (V2 was not tested)
14 [b0ebe221] (00/27) No match (V2 was not tested)
15 [4dd834d1] (00/27) No match (V2 was not tested)
16 [4f12cd2c] (00/27) No match (V2 was not tested)
17 [cb0357ec] (00/27) No match (V2 was not tested)
18 [be093e05] (00/26) No match (V2 was not tested)
19 [b135329c] (00/25) No match (V2 was not tested)

Track Peak [ CRC32 ] [W/O NULL] [ LOG ]
– 98,8 [55FB1D21] [DABDFF67]
01 98,8 [4C786FCF] [3FA2C956] CRC32
02 97,7 [466183EE] [7A1661E9] CRC32
03 97,7 [5988A17A] [2EB022DF] CRC32
04 97,7 [46240BF2] [77AC628D] CRC32
05 97,7 [55F27E55] [0DC0ACD9] CRC32
06 97,7 [B8EB2101] [1C9B5A96] CRC32
07 93,3 [F9136281] [8045A763] CRC32
08 97,7 [63AC0EB6] [D0869DF2] CRC32
09 97,7 [DB5D48BA] [E6B12E5B] CRC32
10 97,2 [4D5D1E90] [E527D05A] CRC32
11 97,7 [F111BDA1] [9849FA88] CRC32
12 97,7 [7F8CBE6B] [39FF2871] CRC32
13 98,8 [BDB1A293] [E6834747] CRC32
14 98,8 [E5D6362B] [F676D71C] CRC32
15 98,8 [469869DA] [85F4D02A] CRC32
16 98,8 [536BD9FC] [A1ECA2EA] CRC32
17 98,8 [9035149B] [3BB02771] CRC32
18 97,4 [F5F2E39B] [57A77317] CRC32
19 97,6 [B9CF28F4] [4D3C7AD6] CRC32

foobar2000 1.2 / Dynamic Range Meter 1.1.1
log date: 2018-03-02 23:40:20

––––––––––––––––––––––––––––––––––––––––
Analyzed: Roxette / The RoxBox Roxette 86-06 (Disc 2)
––––––––––––––––––––––––––––––––––––––––

DR Peak RMS Duration Track
––––––––––––––––––––––––––––––––––––––––
DR7 -0.10 dB -8.94 dB 4:29 01-The Big L.
DR6 -0.20 dB -8.93 dB 4:17 02-(Do You Get) Excited?
DR7 -0.20 dB -9.60 dB 4:28 03-Things Will Never Be The Same
DR7 -0.20 dB -8.94 dB 4:49 04-The Sweet Hello, The Sad Goodbye
DR7 -0.20 dB -9.45 dB 3:31 05-Love Spins (Demo)
DR6 -0.20 dB -8.31 dB 3:56 06-Seduce Me (Demo)
DR8 -0.60 dB -9.76 dB 3:11 07-How Do You Do!
DR9 -0.20 dB -11.85 dB 4:19 08-The Heart Shaped Sea
DR7 -0.20 dB -8.65 dB 4:50 09-The Rain
DR12 -0.24 dB -14.66 dB 3:47 10-Never Is A Long Time
DR8 -0.20 dB -9.83 dB 4:08 11-Silver Blue
DR7 -0.20 dB -8.13 dB 4:32 12-Come Back (Before You Leave)
DR7 -0.10 dB -9.18 dB 4:57 13-Queen Of Rain
DR8 -0.10 dB -10.64 dB 3:59 14-Almost Unreal
DR7 -0.10 dB -8.48 dB 3:34 15-Sleeping In My Car
DR8 -0.10 dB -10.66 dB 4:28 16-Crash! Boom! Bang!
DR8 -0.10 dB -10.21 dB 4:29 17-Vulnerable
DR8 -0.23 dB -10.75 dB 2:58 18-The First Girl On The Moon
DR7 -0.21 dB -8.77 dB 3:12 19-I'm Sorry
––––––––––––––––––––––––––––––––––––––––

Number of tracks: 19
Official DR value: DR8

Samplerate: 44100 Hz
Channels: 2
Bits per sample: 16
Bitrate: 1011 kbps
Codec: FLAC
================================================================================


Exact Audio Copy V0.99 prebeta 4 from 23. January 2008

EAC extraction logfile from 26. May 2008, 13:34

Roxette / The RoxBox Roxette 86-06 (CD3)

Used drive : ASUS DRW-1608P2S Adapter: 0 ID: 1

Read mode : Secure
Utilize accurate stream : Yes
Defeat audio cache : Yes
Make use of C2 pointers : No

Read offset correction : 48
Overread into Lead-In and Lead-Out : No
Fill up missing offset samples with silence : Yes
Delete leading and trailing silent blocks : No
Null samples used in CRC calculations : Yes
Used interface : Installed external ASPI interface
Gap handling : Appended to previous track

Used output format : User Defined Encoder
Selected bitrate : 128 kBit/s
Quality : High
Add ID3 tag : No
Command line compressor : C:\Program Files\FLAC\flac.exe
Additional command line options : -V -8 -T "artist=%a" -T "title=%t" -T "album=%g" -T "date=%y" -T "tracknumber=%n" -T "genre=%m" %s


TOC of the extracted CD

Track | Start | Length | Start sector | End sector
––––––––––––––––––––––––––––-
1 | 0:00.00 | 3:38.36 | 0 | 16385
2 | 3:38.36 | 3:45.22 | 16386 | 33282
3 | 7:23.58 | 4:11.24 | 33283 | 52131
4 | 11:35.07 | 4:27.34 | 52132 | 72190
5 | 16:02.41 | 4:04.56 | 72191 | 90546
6 | 20:07.22 | 4:17.22 | 90547 | 109843
7 | 24:24.44 | 3:07.71 | 109844 | 123939
8 | 27:32.40 | 2:57.57 | 123940 | 137271
9 | 30:30.22 | 4:42.50 | 137272 | 158471
10 | 35:12.72 | 3:33.01 | 158472 | 174447
11 | 38:45.73 | 3:38.43 | 174448 | 190840
12 | 42:24.41 | 4:32.23 | 190841 | 211263
13 | 46:56.64 | 3:57.52 | 211264 | 229090
14 | 50:54.41 | 4:38.37 | 229091 | 249977
15 | 55:33.03 | 4:20.32 | 249978 | 269509
16 | 59:53.35 | 3:50.28 | 269510 | 286787
17 | 63:43.63 | 3:52.33 | 286788 | 304220
18 | 67:36.21 | 3:57.28 | 304221 | 322023
19 | 71:33.49 | 3:56.50 | 322024 | 339773
20 | 75:30.24 | 3:50.09 | 339774 | 357032


Track 1

Filename H:\Music\Roxette\The RoxBox Roxette 86-06 (CD3)\01 - Run To You.wav

Pre-gap length 0:00:02.00

Peak level 97.7 %
Track quality 99.9 %
Test CRC 0555054C
Copy CRC 0555054C
Accurately ripped (confidence 3) [3F0F9B97]
Copy OK

Track 2

Filename H:\Music\Roxette\The RoxBox Roxette 86-06 (CD3)\02 - See Me.wav

Peak level 97.7 %
Track quality 100.0 %
Test CRC BD1738F5
Copy CRC BD1738F5
Accurately ripped (confidence 3) [968CF07D]
Copy OK

Track 3

Filename H:\Music\Roxette\The RoxBox Roxette 86-06 (CD3)\03 - June Afternoon.wav

Peak level 98.8 %
Track quality 100.0 %
Test CRC F48495AF
Copy CRC F48495AF
Accurately ripped (confidence 3) [E40B921D]
Copy OK

Track 4

Filename H:\Music\Roxette\The RoxBox Roxette 86-06 (CD3)\04 - You Don't Understand Me.wav

Peak level 97.7 %
Track quality 100.0 %
Test CRC 773961A8
Copy CRC 773961A8
Accurately ripped (confidence 3) [4D5B6647]
Copy OK

Track 5

Filename H:\Music\Roxette\The RoxBox Roxette 86-06 (CD3)\05 - She Doesn't Live Here Anymore.wav

Peak level 97.7 %
Track quality 100.0 %
Test CRC 4D8ADA2C
Copy CRC 4D8ADA2C
Accurately ripped (confidence 3) [D7D40837]
Copy OK

Track 6

Filename H:\Music\Roxette\The RoxBox Roxette 86-06 (CD3)\06 - I Don't Want To Get Hurt.wav

Peak level 97.7 %
Track quality 100.0 %
Test CRC 8C3A6A7D
Copy CRC 8C3A6A7D
Accurately ripped (confidence 3) [B5965E5D]
Copy OK

Track 7

Filename H:\Music\Roxette\The RoxBox Roxette 86-06 (CD3)\07 - Always Breaking My Heart (Demo).wav

Peak level 97.7 %
Track quality 99.9 %
Test CRC C17BFF76
Copy CRC C17BFF76
Accurately ripped (confidence 3) [F40E2EFB]
Copy OK

Track 8

Filename H:\Music\Roxette\The RoxBox Roxette 86-06 (CD3)\08 - Help!.wav

Peak level 97.7 %
Track quality 100.0 %
Test CRC A5591F11
Copy CRC A5591F11
Accurately ripped (confidence 3) [4036A0E7]
Copy OK

Track 9

Filename H:\Music\Roxette\The RoxBox Roxette 86-06 (CD3)\09 - Wish I Could Fly.wav

Peak level 98.8 %
Track quality 100.0 %
Test CRC 8C3B98AF
Copy CRC 8C3B98AF
Accurately ripped (confidence 3) [BA018D78]
Copy OK

Track 10

Filename H:\Music\Roxette\The RoxBox Roxette 86-06 (CD3)\10 - You Can't Put Your Arms Around What's Already Gone.wav

Peak level 98.8 %
Track quality 100.0 %
Test CRC FDCB8CBF
Copy CRC FDCB8CBF
Accurately ripped (confidence 3) [BDDB1445]
Copy OK

Track 11

Filename H:\Music\Roxette\The RoxBox Roxette 86-06 (CD3)\11 - Waiting For The Rain.wav

Peak level 98.8 %
Track quality 100.0 %
Test CRC 2F3F35D5
Copy CRC 2F3F35D5
Accurately ripped (confidence 3) [54998A91]
Copy OK

Track 12

Filename H:\Music\Roxette\The RoxBox Roxette 86-06 (CD3)\12 - Anyone.wav

Peak level 98.8 %
Track quality 99.9 %
Test CRC 693EEF97
Copy CRC 693EEF97
Accurately ripped (confidence 3) [B92CA73F]
Copy OK

Track 13

Filename H:\Music\Roxette\The RoxBox Roxette 86-06 (CD3)\13 - Stars.wav

Peak level 98.8 %
Track quality 100.0 %
Test CRC A94756C8
Copy CRC A94756C8
Accurately ripped (confidence 3) [5D30EB61]
Copy OK

Track 14

Filename H:\Music\Roxette\The RoxBox Roxette 86-06 (CD3)\14 - Salvation.wav

Peak level 98.8 %
Track quality 100.0 %
Test CRC 98F63212
Copy CRC 98F63212
Accurately ripped (confidence 3) [0F094210]
Copy OK

Track 15

Filename H:\Music\Roxette\The RoxBox Roxette 86-06 (CD3)\15 - Cooper.wav

Peak level 98.8 %
Track quality 100.0 %
Test CRC B178CF1F
Copy CRC B178CF1F
Accurately ripped (confidence 3) [F2C9C676]
Copy OK

Track 16

Filename H:\Music\Roxette\The RoxBox Roxette 86-06 (CD3)\16 - Beautiful Things.wav

Peak level 98.8 %
Track quality 100.0 %
Test CRC DE633334
Copy CRC DE633334
Accurately ripped (confidence 3) [78C1A3CA]
Copy OK

Track 17

Filename H:\Music\Roxette\The RoxBox Roxette 86-06 (CD3)\17 - It Hurts.wav

Peak level 98.8 %
Track quality 99.9 %
Test CRC 910F06B9
Copy CRC 910F06B9
Accurately ripped (confidence 3) [22DADAAB]
Copy OK

Track 18

Filename H:\Music\Roxette\The RoxBox Roxette 86-06 (CD3)\18 - Little Miss Sorrow.wav

Peak level 98.8 %
Track quality 100.0 %
Test CRC 8D2FAAF4
Copy CRC 8D2FAAF4
Accurately ripped (confidence 3) [39175F7A]
Copy OK

Track 19

Filename H:\Music\Roxette\The RoxBox Roxette 86-06 (CD3)\19 - Happy Together.wav

Peak level 98.8 %
Track quality 100.0 %
Test CRC A818C5D2
Copy CRC A818C5D2
Accurately ripped (confidence 3) [E88A8BD4]
Copy OK

Track 20

Filename H:\Music\Roxette\The RoxBox Roxette 86-06 (CD3)\20 - Staring At The Ground (Demo).wav

Peak level 97.7 %
Track quality 99.9 %
Test CRC 4679C18C
Copy CRC 4679C18C
Accurately ripped (confidence 3) [3D67DFEF]
Copy OK


All tracks accurately ripped

No errors occurred

End of status report

[CUETools log; Date: 02.03.2018 22:56:29; Version: 2.1.4]
HDCD: peak extend: none, transient filter: none, gain: none
[CTDB TOCID: haVZ_ko8z1EGWojehAgBuMb4gTU-] found.
Track | CTDB Status
1 | (34/34) Accurately ripped
2 | (34/34) Accurately ripped
3 | (34/34) Accurately ripped
4 | (34/34) Accurately ripped
5 | (34/34) Accurately ripped
6 | (34/34) Accurately ripped
7 | (34/34) Accurately ripped
8 | (34/34) Accurately ripped
9 | (34/34) Accurately ripped
10 | (34/34) Accurately ripped
11 | (34/34) Accurately ripped
12 | (34/34) Accurately ripped
13 | (33/34) Accurately ripped
14 | (33/34) Accurately ripped
15 | (34/34) Accurately ripped
16 | (34/34) Accurately ripped
17 | (34/34) Accurately ripped
18 | (34/34) Accurately ripped
19 | (34/34) Accurately ripped
20 | (34/34) Accurately ripped
[AccurateRip ID: 0038e68f-03446366-29129814] found.
Track [ CRC | V2 ] Status
01 [3f0f9b97|ff7efafc] (10+11/27) Accurately ripped
02 [968cf07d|85115ac4] (10+11/27) Accurately ripped
03 [e40b921d|e72343aa] (10+11/27) Accurately ripped
04 [4d5b6647|b1183f04] (10+11/27) Accurately ripped
05 [d7d40837|685122bf] (10+11/27) Accurately ripped
06 [b5965e5d|6f38ef6a] (10+11/27) Accurately ripped
07 [f40e2efb|68018343] (10+11/27) Accurately ripped
08 [4036a0e7|4ae87d03] (09+11/26) Accurately ripped
09 [ba018d78|7145ae17] (10+11/27) Accurately ripped
10 [bddb1445|acddefa0] (10+11/27) Accurately ripped
11 [54998a91|d7a14148] (10+11/27) Accurately ripped
12 [b92ca73f|ded0166d] (10+11/27) Accurately ripped
13 [5d30eb61|20246cf7] (10+11/27) Accurately ripped
14 [0f094210|dbea472d] (10+11/27) Accurately ripped
15 [f2c9c676|5fd2bc17] (10+11/27) Accurately ripped
16 [78c1a3ca|af5eae03] (10+11/27) Accurately ripped
17 [22dadaab|b244dbb7] (10+11/27) Accurately ripped
18 [39175f7a|7bb37662] (10+11/27) Accurately ripped
19 [e88a8bd4|079d2f39] (10+11/27) Accurately ripped
20 [3d67dfef|e6d094b5] (10+11/27) Accurately ripped
Offsetted by -86:
01 [d7cebd63] (00/27) No match (V2 was not tested)
02 [aeed00f7] (00/27) No match (V2 was not tested)
03 [596b035c] (00/27) No match (V2 was not tested)
04 [6dd43174] (00/27) No match (V2 was not tested)
05 [3758b1ec] (00/27) No match (V2 was not tested)
06 [a6a8fbc4] (00/27) No match (V2 was not tested)
07 [f98042c8] (00/27) No match (V2 was not tested)
08 [34e4730e] (00/26) No match (V2 was not tested)
09 [ebaa351a] (00/27) No match (V2 was not tested)
10 [66b74b3a] (00/27) No match (V2 was not tested)
11 [c06e8070] (00/27) No match (V2 was not tested)
12 [65f303f6] (00/27) No match (V2 was not tested)
13 [acd83af9] (00/27) No match (V2 was not tested)
14 [6e34217c] (00/27) No match (V2 was not tested)
15 [c5f64a8c] (00/27) No match (V2 was not tested)
16 [03624156] (00/27) No match (V2 was not tested)
17 [4d303d70] (00/27) No match (V2 was not tested)
18 [4d952cf1] (00/27) No match (V2 was not tested)
19 [e193deb7] (00/27) No match (V2 was not tested)
20 [61a6a643] (00/27) No match (V2 was not tested)

Track Peak [ CRC32 ] [W/O NULL] [ LOG ]
– 98,8 [AF9A29DA] [A6265987]
01 97,7 [0555054C] [83429EC3] CRC32
02 97,7 [BD1738F5] [D42C4C5B] CRC32
03 98,8 [F48495AF] [E4BB5C03] CRC32
04 97,7 [773961A8] [F0BD7E14] CRC32
05 97,7 [4D8ADA2C] [132957C2] CRC32
06 97,7 [8C3A6A7D] [55E1EFFE] CRC32
07 97,7 [C17BFF76] [BCF3C1BC] CRC32
08 97,7 [A5591F11] [8830E802] CRC32
09 98,8 [8C3B98AF] [9080D4A9] CRC32
10 98,8 [FDCB8CBF] [467DEB11] CRC32
11 98,8 [2F3F35D5] [CB0593CB] CRC32
12 98,8 [693EEF97] [17D0D2AB] CRC32
13 98,8 [A94756C8] [D5D988BE] CRC32
14 98,8 [98F63212] [97A7D550] CRC32
15 98,8 [B178CF1F] [33E2C170] CRC32
16 98,8 [DE633334] [2D9ABEC2] CRC32
17 98,8 [910F06B9] [8BFBC92B] CRC32
18 98,8 [8D2FAAF4] [B59DDBB9] CRC32
19 98,8 [A818C5D2] [2D2CD04C] CRC32
20 97,7 [4679C18C] [2E0047BB] CRC32

foobar2000 1.2 / Dynamic Range Meter 1.1.1
log date: 2018-03-02 23:41:04

––––––––––––––––––––––––––––––––––––––––
Analyzed: Roxette / The RoxBox Roxette 86-06 (Disc 3)
––––––––––––––––––––––––––––––––––––––––

DR Peak RMS Duration Track
––––––––––––––––––––––––––––––––––––––––
DR7 -0.20 dB -9.36 dB 3:38 01-Run To You
DR9 -0.20 dB -10.71 dB 3:45 02-See Me
DR7 -0.10 dB -8.37 dB 4:11 03-June Afternoon
DR8 -0.20 dB -10.09 dB 4:27 04-You Don't Understand Me
DR6 -0.20 dB -6.74 dB 4:05 05-She Doesn't Live Here Anymore
DR8 -0.20 dB -9.40 dB 4:17 06-I Don't Want To Get Hurt
DR5 -0.20 dB -6.76 dB 3:08 07-Always Breaking My Heart (Demo)
DR9 -0.20 dB -11.38 dB 2:58 08-Help!
DR7 -0.10 dB -8.50 dB 4:43 09-Wish I Could Fly
DR7 -0.10 dB -8.25 dB 3:33 10-You Can't Put Your Arms Around What's Already Gone
DR7 -0.10 dB -8.66 dB 3:39 11-Waiting For The Rain
DR7 -0.10 dB -8.77 dB 4:32 12-Anyone
DR7 -0.10 dB -8.80 dB 3:58 13-Stars
DR6 -0.10 dB -8.55 dB 4:38 14-Salvation
DR7 -0.10 dB -8.80 dB 4:20 15-Cooper
DR6 -0.10 dB -8.33 dB 3:50 16-Beautiful Things
DR7 -0.10 dB -9.42 dB 3:52 17-It Hurts
DR7 -0.10 dB -8.93 dB 3:57 18-Little Miss Sorrow
DR8 -0.10 dB -8.97 dB 3:57 19-Happy Together
DR7 -0.20 dB -9.17 dB 3:50 20-Staring At The Ground (Demo)
––––––––––––––––––––––––––––––––––––––––

Number of tracks: 20
Official DR value: DR7

Samplerate: 44100 Hz
Channels: 2
Bits per sample: 16
Bitrate: 1048 kbps
Codec: FLAC
================================================================================


Exact Audio Copy V0.99 prebeta 4 from 23. January 2008

EAC extraction logfile from 26. May 2008, 14:06

Roxette / The RoxBox Roxette 86-06 (CD4)

Used drive : ASUS DRW-1608P2S Adapter: 0 ID: 1

Read mode : Secure
Utilize accurate stream : Yes
Defeat audio cache : Yes
Make use of C2 pointers : No

Read offset correction : 48
Overread into Lead-In and Lead-Out : No
Fill up missing offset samples with silence : Yes
Delete leading and trailing silent blocks : No
Null samples used in CRC calculations : Yes
Used interface : Installed external ASPI interface
Gap handling : Appended to previous track

Used output format : User Defined Encoder
Selected bitrate : 128 kBit/s
Quality : High
Add ID3 tag : No
Command line compressor : C:\Program Files\FLAC\flac.exe
Additional command line options : -V -8 -T "artist=%a" -T "title=%t" -T "album=%g" -T "date=%y" -T "tracknumber=%n" -T "genre=%m" %s


TOC of the extracted CD

Track | Start | Length | Start sector | End sector
––––––––––––––––––––––––––––-
1 | 0:00.00 | 3:27.71 | 0 | 15595
2 | 3:27.71 | 3:59.56 | 15596 | 33576
3 | 7:27.52 | 4:12.63 | 33577 | 52539
4 | 11:40.40 | 4:25.68 | 52540 | 72482
5 | 16:06.33 | 3:38.73 | 72483 | 88905
6 | 19:45.31 | 2:51.33 | 88906 | 101763
7 | 22:36.64 | 3:17.19 | 101764 | 116557
8 | 25:54.08 | 3:23.08 | 116558 | 131790
9 | 29:17.16 | 4:04.55 | 131791 | 150145
10 | 33:21.71 | 3:53.08 | 150146 | 167628
11 | 37:15.04 | 3:39.17 | 167629 | 184070
12 | 40:54.21 | 2:52.24 | 184071 | 196994
13 | 43:46.45 | 3:25.29 | 196995 | 212398
14 | 47:11.74 | 4:36.51 | 212399 | 233149
15 | 51:48.50 | 3:49.21 | 233150 | 250345
16 | 55:37.71 | 4:34.48 | 250346 | 270943
17 | 60:12.44 | 3:01.53 | 270944 | 284571
18 | 63:14.22 | 4:16.68 | 284572 | 303839
19 | 67:31.15 | 3:03.22 | 303840 | 317586
20 | 70:34.37 | 3:43.40 | 317587 | 334351


Track 1

Filename H:\Music\Roxette\The RoxBox Roxette 86-06 (CD4)\01 - 7Twenty7 (Demo).wav

Pre-gap length 0:00:02.00

Peak level 97.7 %
Track quality 100.0 %
Test CRC 5E9CA79F
Copy CRC 5E9CA79F
Accurately ripped (confidence 3) [960742BD]
Copy OK

Track 2

Filename H:\Music\Roxette\The RoxBox Roxette 86-06 (CD4)\02 - It Will Take A Long Long Time.wav

Peak level 97.7 %
Track quality 99.9 %
Test CRC DACC6AE6
Copy CRC DACC6AE6
Accurately ripped (confidence 3) [4B3B6BD6]
Copy OK

Track 3

Filename H:\Music\Roxette\The RoxBox Roxette 86-06 (CD4)\03 - Anyone , I Love How You Love Me (Demo).wav

Peak level 97.6 %
Track quality 100.0 %
Test CRC 81CD465E
Copy CRC 81CD465E
Accurately ripped (confidence 3) [4EF60A2A]
Copy OK

Track 4

Filename H:\Music\Roxette\The RoxBox Roxette 86-06 (CD4)\04 - Myth (Demo).wav

Peak level 90.0 %
Track quality 100.0 %
Test CRC E7C32122
Copy CRC E7C32122
Accurately ripped (confidence 3) [AE2F16C0]
Copy OK

Track 5

Filename H:\Music\Roxette\The RoxBox Roxette 86-06 (CD4)\05 - New World (Demo).wav

Peak level 97.7 %
Track quality 100.0 %
Test CRC D346D1EA
Copy CRC D346D1EA
Accurately ripped (confidence 3) [D3D19018]
Copy OK

Track 6

Filename H:\Music\Roxette\The RoxBox Roxette 86-06 (CD4)\06 - Better Off On Her Own (Demo).wav

Peak level 97.7 %
Track quality 100.0 %
Test CRC 5D240C9B
Copy CRC 5D240C9B
Accurately ripped (confidence 3) [7072B99E]
Copy OK

Track 7

Filename H:\Music\Roxette\The RoxBox Roxette 86-06 (CD4)\07 - Real Sugar.wav

Peak level 98.8 %
Track quality 99.9 %
Test CRC 88874C91
Copy CRC 88874C91
Accurately ripped (confidence 3) [3E8D4A79]
Copy OK

Track 8

Filename H:\Music\Roxette\The RoxBox Roxette 86-06 (CD4)\08 - The Centre Of The Heart.wav

Peak level 98.8 %
Track quality 100.0 %
Test CRC FB4884FC
Copy CRC FB4884FC
Accurately ripped (confidence 3) [0FA8EE06]
Copy OK

Track 9

Filename H:\Music\Roxette\The RoxBox Roxette 86-06 (CD4)\09 - Milk And Toast And Honey.wav

Peak level 98.8 %
Track quality 99.9 %
Test CRC E544E392
Copy CRC E544E392
Accurately ripped (confidence 3) [8EC11B16]
Copy OK

Track 10

Filename H:\Music\Roxette\The RoxBox Roxette 86-06 (CD4)\10 - Jefferson.wav

Peak level 97.6 %
Track quality 99.9 %
Test CRC 04FB93BC
Copy CRC 04FB93BC
Accurately ripped (confidence 3) [95E475F3]
Copy OK

Track 11

Filename H:\Music\Roxette\The RoxBox Roxette 86-06 (CD4)\11 - Little Girl.wav

Peak level 97.8 %
Track quality 100.0 %
Test CRC A21ADFBA
Copy CRC A21ADFBA
Accurately ripped (confidence 3) [890DC527]
Copy OK

Track 12

Filename H:\Music\Roxette\The RoxBox Roxette 86-06 (CD4)\12 - The Weight Of The World.wav

Peak level 98.8 %
Track quality 99.9 %
Test CRC B7E7C24D
Copy CRC B7E7C24D
Accurately ripped (confidence 3) [FF091B2D]
Copy OK

Track 13

Filename H:\Music\Roxette\The RoxBox Roxette 86-06 (CD4)\13 - Every Day.wav

Peak level 98.8 %
Track quality 100.0 %
Test CRC 4D691171
Copy CRC 4D691171
Accurately ripped (confidence 3) [FEEB8762]
Copy OK

Track 14

Filename H:\Music\Roxette\The RoxBox Roxette 86-06 (CD4)\14 - Bla Bla Bla Bla Bla (You Broke My Heart) (Demo).wav

Peak level 97.7 %
Track quality 100.0 %
Test CRC A0CDA84A
Copy CRC A0CDA84A
Accurately ripped (confidence 3) [B7C099D3]
Copy OK

Track 15

Filename H:\Music\Roxette\The RoxBox Roxette 86-06 (CD4)\15 - A Thing About You.wav

Peak level 98.8 %
Track quality 100.0 %
Test CRC 087947E0
Copy CRC 087947E0
Accurately ripped (confidence 3) [9FD66EB5]
Copy OK

Track 16

Filename H:\Music\Roxette\The RoxBox Roxette 86-06 (CD4)\16 - Breathe.wav

Peak level 98.8 %
Track quality 100.0 %
Test CRC 805676BB
Copy CRC 805676BB
Accurately ripped (confidence 3) [268605B2]
Copy OK

Track 17

Filename H:\Music\Roxette\The RoxBox Roxette 86-06 (CD4)\17 - Opportunity Nox.wav

Peak level 98.8 %
Track quality 100.0 %
Test CRC 13508AC0
Copy CRC 13508AC0
Accurately ripped (confidence 3) [DE203339]
Copy OK

Track 18

Filename H:\Music\Roxette\The RoxBox Roxette 86-06 (CD4)\18 - All I Ever Wanted (Demo).wav

Peak level 97.3 %
Track quality 100.0 %
Test CRC 0018D395
Copy CRC 0018D395
Accurately ripped (confidence 3) [E6B52F08]
Copy OK

Track 19

Filename H:\Music\Roxette\The RoxBox Roxette 86-06 (CD4)\19 - One Wish.wav

Peak level 98.8 %
Track quality 99.9 %
Test CRC D057C364
Copy CRC D057C364
Accurately ripped (confidence 3) [0C9DBD7E]
Copy OK

Track 20

Filename H:\Music\Roxette\The RoxBox Roxette 86-06 (CD4)\20 - Reveal.wav

Peak level 97.7 %
Track quality 100.0 %
Test CRC 87E4F69D
Copy CRC 87E4F69D
Accurately ripped (confidence 3) [547BBD26]
Copy OK


All tracks accurately ripped

No errors occurred

End of status report

[CUETools log; Date: 02.03.2018 22:57:03; Version: 2.1.4]
HDCD: peak extend: none, transient filter: none, gain: none
[CTDB TOCID: RdNVSdoJMgBYSbjEjJOiOfruWl8-] found.
Track | CTDB Status
1 | (25/31) Accurately ripped
2 | (26/31) Accurately ripped
3 | (30/31) Accurately ripped
4 | (31/31) Accurately ripped
5 | (31/31) Accurately ripped
6 | (31/31) Accurately ripped
7 | (31/31) Accurately ripped
8 | (31/31) Accurately ripped
9 | (31/31) Accurately ripped
10 | (30/31) Accurately ripped
11 | (31/31) Accurately ripped
12 | (31/31) Accurately ripped
13 | (30/31) Accurately ripped
14 | (31/31) Accurately ripped
15 | (31/31) Accurately ripped
16 | (31/31) Accurately ripped
17 | (31/31) Accurately ripped
18 | (31/31) Accurately ripped
19 | (31/31) Accurately ripped
20 | (30/31) Accurately ripped
[AccurateRip ID: 0035b30e-03125bf8-27116a14] found.
Track [ CRC | V2 ] Status
01 [960742bd|84f84417] (11+08/25) Accurately ripped
02 [4b3b6bd6|926114b0] (10+08/24) Accurately ripped
03 [4ef60a2a|687e47a9] (11+09/26) Accurately ripped
04 [ae2f16c0|7383d845] (11+10/27) Accurately ripped
05 [d3d19018|203edb92] (11+10/27) Accurately ripped
06 [7072b99e|b90b39a8] (10+10/26) Accurately ripped
07 [3e8d4a79|c47cad2d] (11+10/27) Accurately ripped
08 [0fa8ee06|a3e25ac3] (11+10/27) Accurately ripped
09 [8ec11b16|f3e56219] (11+10/27) Accurately ripped
10 [95e475f3|44d60115] (10+09/25) Accurately ripped
11 [890dc527|07201eba] (11+10/27) Accurately ripped
12 [ff091b2d|5cbc54a4] (11+10/27) Accurately ripped
13 [feeb8762|0eaf07a3] (11+10/27) Accurately ripped
14 [b7c099d3|3230298e] (10+10/26) Accurately ripped
15 [9fd66eb5|99c79310] (11+10/27) Accurately ripped
16 [268605b2|33d8c127] (11+10/27) Accurately ripped
17 [de203339|58a0eff0] (11+10/27) Accurately ripped
18 [e6b52f08|eddff5bb] (09+10/25) Accurately ripped
19 [0c9dbd7e|2eea8395] (10+10/26) Accurately ripped
20 [547bbd26|d2179fa5] (09+09/24) Accurately ripped
Offsetted by -86:
01 [30d2f9d4] (00/25) No match (V2 was not tested)
02 [fc497bb9] (00/24) No match (V2 was not tested)
03 [de47826f] (00/26) No match (V2 was not tested)
04 [62779290] (00/27) No match (V2 was not tested)
05 [cde85140] (00/27) No match (V2 was not tested)
06 [7960f67e] (00/26) No match (V2 was not tested)
07 [f282dada] (00/27) No match (V2 was not tested)
08 [e2dc73ae] (00/27) No match (V2 was not tested)
09 [41abfdf9] (00/27) No match (V2 was not tested)
10 [b7d40ea9] (00/25) No match (V2 was not tested)
11 [4fe6ad3d] (00/27) No match (V2 was not tested)
12 [4be82945] (00/27) No match (V2 was not tested)
13 [708ec2ca] (00/27) No match (V2 was not tested)
14 [67b5d793] (00/26) No match (V2 was not tested)
15 [d115ad7b] (00/27) No match (V2 was not tested)
16 [52be58e9] (00/27) No match (V2 was not tested)
17 [dc0e54e8] (00/27) No match (V2 was not tested)
18 [460a4892] (00/25) No match (V2 was not tested)
19 [626a2a18] (00/26) No match (V2 was not tested)
20 [fe6c3d12] (00/24) No match (V2 was not tested)
Offsetted by -36:
01 [68c2fd62] (00/25) No match (V2 was not tested)
02 [339bfb73] (00/24) No match (V2 was not tested)
03 [6593f1cc] (00/26) No match (V2 was not tested)
04 [cf7a0787] (00/27) No match (V2 was not tested)
05 [f953a778] (00/27) No match (V2 was not tested)
06 [81ec3ba6] (00/26) No match (V2 was not tested)
07 [5047df61] (00/27) No match (V2 was not tested)
08 [dd4b7ce9] (00/27) No match (V2 was not tested)
09 [17d6ac0a] (00/27) No match (V2 was not tested)
10 [53211e0e] (00/25) No match (V2 was not tested)
11 [3f6ed258] (00/27) No match (V2 was not tested)
12 [1de8646e] (00/27) No match (V2 was not tested)
13 [84f7a3d8] (00/27) No match (V2 was not tested)
14 [86d2617b] (00/26) No match (V2 was not tested)
15 [92b47321] (00/27) No match (V2 was not tested)
16 [d7132ba3] (00/27) No match (V2 was not tested)
17 [96519a7e] (00/27) No match (V2 was not tested)
18 [77440318] (00/25) No match (V2 was not tested)
19 [c3400f7f] (00/26) No match (V2 was not tested)
20 [78247944] (00/24) No match (V2 was not tested)

Track Peak [ CRC32 ] [W/O NULL] [ LOG ]
– 98,8 [AB943F54] [C2519440]
01 97,7 [5E9CA79F] [499120B2] CRC32
02 97,7 [DACC6AE6] [BDDD3C8E] CRC32
03 97,6 [81CD465E] [5E935CBD] CRC32
04 90,0 [E7C32122] [8AD8D860] CRC32
05 97,7 [D346D1EA] [7B7AACFC] CRC32
06 97,7 [5D240C9B] [23D3B86B] CRC32
07 98,8 [88874C91] [ADC5EC13] CRC32
08 98,8 [FB4884FC] [2E9929BF] CRC32
09 98,8 [E544E392] [59149753] CRC32
10 97,6 [04FB93BC] [D1E77278] CRC32
11 97,8 [A21ADFBA] [2303B9D9] CRC32
12 98,8 [B7E7C24D] [B04DC39C] CRC32
13 98,8 [4D691171] [CE024E42] CRC32
14 97,7 [A0CDA84A] [87CFFB27] CRC32
15 98,8 [087947E0] [F42B1B3F] CRC32
16 98,8 [805676BB] [BDCB468E] CRC32
17 98,8 [13508AC0] [D0E77851] CRC32
18 97,3 [0018D395] [C160644D] CRC32
19 98,8 [D057C364] [912D2415] CRC32
20 97,7 [87E4F69D] [43595890] CRC32

foobar2000 1.2 / Dynamic Range Meter 1.1.1
log date: 2018-03-02 23:41:37

––––––––––––––––––––––––––––––––––––––––
Analyzed: Roxette / The RoxBox Roxette 86-06 (Disc 4)
––––––––––––––––––––––––––––––––––––––––

DR Peak RMS Duration Track
––––––––––––––––––––––––––––––––––––––––
DR5 -0.20 dB -6.67 dB 3:28 01-7Twenty7 (Demo)
DR8 -0.20 dB -10.58 dB 4:00 02-It Will Take A Long Long Time
DR8 -0.21 dB -10.37 dB 4:13 03-Anyone / I Love How You Love Me (Demo)
DR7 -0.91 dB -8.78 dB 4:26 04-Myth (Demo)
DR7 -0.20 dB -8.13 dB 3:39 05-New World (Demo)
DR7 -0.20 dB -9.15 dB 2:51 06-Better Off On Her Own (Demo)
DR7 -0.10 dB -9.44 dB 3:17 07-Real Sugar
DR8 -0.10 dB -9.05 dB 3:23 08-The Centre Of The Heart
DR6 -0.10 dB -8.36 dB 4:05 09-Milk And Toast And Honey
DR8 -0.21 dB -10.28 dB 3:53 10-Jefferson
DR7 -0.19 dB -8.94 dB 3:39 11-Little Girl
DR8 -0.10 dB -9.84 dB 2:52 12-The Weight Of The World
DR9 -0.10 dB -11.18 dB 3:25 13-Every Day
DR6 -0.20 dB -7.73 dB 4:37 14-Bla Bla Bla Bla Bla (You Broke My Heart) (Demo)
DR8 -0.10 dB -9.76 dB 3:49 15-A Thing About You
DR7 -0.10 dB -9.08 dB 4:35 16-Breathe
DR7 -0.10 dB -8.16 dB 3:02 17-Opportunity Nox
DR10 -0.23 dB -11.90 dB 4:17 18-All I Ever Wanted (Demo)
DR6 -0.10 dB -7.26 dB 3:03 19-One Wish
DR7 -0.20 dB -9.56 dB 3:44 20-Reveal
––––––––––––––––––––––––––––––––––––––––

Number of tracks: 20
Official DR value: DR7

Samplerate: 44100 Hz
Channels: 2
Bits per sample: 16
Bitrate: 899 kbps
Codec: FLAC
================================================================================




Roxette - The Rox Box: Roxette 86-06 (2006) 4 CD + 2 DVD Box Set

Roxette - The Rox Box: Roxette 86-06 (2006) 4 CD + 2 DVD Box Set

Roxette - The Rox Box: Roxette 86-06 (2006) 4 CD + 2 DVD Box Set

Roxette - The Rox Box: Roxette 86-06 (2006) 4 CD + 2 DVD Box Set

Roxette - The Rox Box: Roxette 86-06 (2006) 4 CD + 2 DVD Box Set

Roxette - The Rox Box: Roxette 86-06 (2006) 4 CD + 2 DVD Box Set

Roxette - The Rox Box: Roxette 86-06 (2006) 4 CD + 2 DVD Box Set

Roxette - The Rox Box: Roxette 86-06 (2006) 4 CD + 2 DVD Box Set

Roxette - The Rox Box: Roxette 86-06 (2006) 4 CD + 2 DVD Box Set

Roxette - The Rox Box: Roxette 86-06 (2006) 4 CD + 2 DVD Box Set

Roxette - The Rox Box: Roxette 86-06 (2006) 4 CD + 2 DVD Box Set

Roxette - The Rox Box: Roxette 86-06 (2006) 4 CD + 2 DVD Box Set

Roxette - The Rox Box: Roxette 86-06 (2006) 4 CD + 2 DVD Box Set


DVD Tracklist:

Side One: Video clips

01. Neverending Love
02. Soul Deep
03. I Call Your Name
04. Chances
05. The Look
06. Dressed For Success
07. Listen To Your Heart
08. Dangerous
09. It Must Have Been Love
10. Joyride
11. Fading Like A Flower
12. Spending My Time
13. (Do You Get) Excited
14. Church Of Your Heart
15. The Big L.
16. How Do You Do!
17. Queen Of Rain
18. Almost Unreal
19. Fingertips '93
20. Fireworks
21. Sleeping In My Car
22. Crash! Boom! Bang!
23. Run To You
24. Vulnerable
25. June Afternoon
26. You Don'T Understand Me
27. She Doesn'T Live Here Anymore
28. Un Dia Sin Ti
29. Wish I Could Fly
30. Stars
31. Salvation
32. Anyone
33. Real Sugar
34. The Centre Of The Heart
35. Milk And Toast And Honey
36. A Thing About You

Side Two: The MTV Unplugged

01. Look [DVD][Live]
02. Queen of Rain [DVD][Live]
03. Hotblooded [DVD][Live]
04. Interview [DVD][Live]
05. I Never Loved a Man (The Way I Love You) [DVD][Live]
06. It Must Have Been Love [DVD][Live]
07. Fingertips [DVD][Live]
08. Interview [DVD][Live]
09. Heart of Gold [DVD][Live]
10. Church of Your Heart [DVD][Live]
11. Listen to Your Heart [DVD][Live]
12. Interview [DVD][Live]
13. Here Comes the Weekend [DVD][Live]
14. Joyride [DVD][Live]
15. So You Wanna Be a Rock 'N' Roll Star [DVD][Live]
16. Dangerous [DVD][Live]
17. Spending My Time [DVD][Live]
18. Heart Shaped Sea [DVD][Live]
19. Cry [DVD][Live]
20. Watercolours in the Rain [DVD][Live]
21. Surrender [DVD][Live]
22. Fading Like a Flower (Every Time You Leave) [DVD][Live]
23. Perfect Day [DVD][Live]





Roxette - The Rox Box: Roxette 86-06 (2006) 4 CD + 2 DVD Box Set

All thanks to original releaser - SamAlexFry7777

More interesting music in My Blog