Subcategories
Tags
Language
Tags

Roxy Music - Avalon (1982) [2013, Japanese SHM-CD] Re-up

Posted By: v3122
Roxy Music - Avalon (1982) [2013, Japanese SHM-CD] Re-up

Roxy Music - Avalon (1982)
EAC | Flac(Image) + Cue + Log & MP3 CBR 320Kbps
Virgin / EMI Music Japan, VJCP-98144 | ~ 251 or 89 Mb | Artwork(png) -> 190 Mb
Soft Rock, Pop Rock, Ballad

Flesh + Blood suggested that Roxy Music were at the end of the line, but they regrouped and recorded the lovely Avalon, one of their finest albums. Certainly, the lush, elegant soundscapes of Avalon are far removed from the edgy avant-pop of their early records, yet it represents another landmark in their career. With its stylish, romantic washes of synthesizers and Bryan Ferry's elegant, seductive croon, Avalon simultaneously functioned as sophisticated make-out music for yuppies and as the maturation of synth pop. Ferry was never this romantic or seductive, either with Roxy or as a solo artist, and Avalon shimmers with elegance in both its music and its lyrics. "More Than This," "Take a Chance with Me," "While My Heart Is Still Beating," and the title track are immaculately crafted and subtle songs, where the shifting synthesizers and murmured vocals gradually reveal the melodies. It's a rich, textured album and a graceful way to end the band's career.

by Stephen Thomas Erlewine, allmusic
Roxy Music - Avalon (1982):

Roxy Music - Avalon (1982) [2013, Japanese SHM-CD] Re-up

Tracklist:

01. More Than This
02. The Space Between
03. Avalon
04. India
05. While My Heart Is Still Beating
06. The Main Thing
07. Take A Chance With Me
08. To Turn You On
09. True To Life
10. Tara

Exact Audio Copy V1.0 beta 3 from 29. August 2011

EAC extraction logfile from 25. August 2013, 16:44

Roxy Music / Avalon

Used drive : PLEXTOR BD-R PX-B950SA Adapter: 6 ID: 0

Read mode : Secure
Utilize accurate stream : Yes
Defeat audio cache : Yes
Make use of C2 pointers : No

Read offset correction : 6
Overread into Lead-In and Lead-Out : No
Fill up missing offset samples with silence : Yes
Delete leading and trailing silent blocks : No
Null samples used in CRC calculations : Yes
Used interface : Native Win32 interface for Win NT & 2000

Used output format : Internal WAV Routines
Sample format : 44.100 Hz; 16 Bit; Stereo


TOC of the extracted CD

Track | Start | Length | Start sector | End sector
––––––––––––––––––––––––––––-
1 | 0:00.00 | 4:31.05 | 0 | 20329
2 | 4:31.05 | 4:30.27 | 20330 | 40606
3 | 9:01.32 | 4:16.58 | 40607 | 59864
4 | 13:18.15 | 1:44.72 | 59865 | 67736
5 | 15:03.12 | 3:26.10 | 67737 | 83196
6 | 18:29.22 | 3:54.05 | 83197 | 100751
7 | 22:23.27 | 4:42.55 | 100752 | 121956
8 | 27:06.07 | 4:16.60 | 121957 | 141216
9 | 31:22.67 | 4:25.45 | 141217 | 161136
10 | 35:48.37 | 1:43.43 | 161137 | 168904


Range status and errors

Selected range

Filename C:\Users\Meijin\Desktop\ALLexxess\Roxy Music\1982 Avalon (Mini LP SHM-CD EMI Music Japan 2013)\Roxy Music - Avalon.wav

Peak level 100.0 %
Extraction speed 6.6 X
Range quality 100.0 %
Test CRC 7F366DFE
Copy CRC 7F366DFE
Copy OK

No errors occurred


AccurateRip summary

Track 1 cannot be verified as accurate (confidence 10) [F1B605BC], AccurateRip returned [4CDD5FC4] (AR v2)
Track 2 cannot be verified as accurate (confidence 10) [23E71B06], AccurateRip returned [266C17D8] (AR v2)
Track 3 cannot be verified as accurate (confidence 10) [B05CC24C], AccurateRip returned [E522F5B0] (AR v2)
Track 4 cannot be verified as accurate (confidence 10) [6B764639], AccurateRip returned [68C87585] (AR v2)
Track 5 cannot be verified as accurate (confidence 10) [9BBC1AD4], AccurateRip returned [C1CB4821] (AR v2)
Track 6 cannot be verified as accurate (confidence 10) [EDC5FA9B], AccurateRip returned [B1B75684] (AR v2)
Track 7 cannot be verified as accurate (confidence 10) [75C918E8], AccurateRip returned [03463078] (AR v2)
Track 8 cannot be verified as accurate (confidence 10) [22B63CD7], AccurateRip returned [BFDF3440] (AR v2)
Track 9 cannot be verified as accurate (confidence 10) [43A3032C], AccurateRip returned [427E3BAF] (AR v2)
Track 10 cannot be verified as accurate (confidence 9) [F80D40CC], AccurateRip returned [D9C67528] (AR v2)

No tracks could be verified as accurate
You may have a different pressing from the one(s) in the database

End of status report

==== Log checksum 3BEB37ADA9727FDC060CE21A6E046663D91EE615B6F884789934DD35E875F649 ====


[CUETools log; Date: 01.11.2019 13:27:10; Version: 2.1.4]
[AccurateRip ID: 000ebc48-0074e5cf-6f08cc0a] found.
Track [ CRC | V2 ] Status
01 [9b968a8f|f1b605bc] (00+04/41) Accurately ripped
02 [4e8c78fd|23e71b06] (00+05/41) Accurately ripped
03 [e61f5be8|b05cc24c] (00+05/41) Accurately ripped
04 [420f9b7c|6b764639] (00+05/41) Accurately ripped
05 [0d7ccbaa|9bbc1ad4] (00+05/41) Accurately ripped
06 [716a3a79|edc5fa9b] (00+05/41) Accurately ripped
07 [5b1f8bd9|75c918e8] (00+05/41) Accurately ripped
08 [8134d799|22b63cd7] (00+05/41) Accurately ripped
09 [4538104c|43a3032c] (00+05/41) Accurately ripped
10 [f788caa8|f80d40cc] (00+05/39) Accurately ripped
Offsetted by -277:
01 [29c065db] (04/41) Accurately ripped
02 [c1ff78f2] (03/41) Accurately ripped
03 [519514d9] (03/41) Accurately ripped
04 [3d263fcc] (03/41) Accurately ripped
05 [9b3e9f8e] (03/41) Accurately ripped
06 [f8d6ac99] (03/41) Accurately ripped
07 [b18b6e3b] (03/41) Accurately ripped
08 [4b9d1a32] (03/41) Accurately ripped
09 [5e3d9acd] (03/41) Accurately ripped
10 [2cd6ef43] (02/39) Accurately ripped
Offsetted by 18:
01 [f04a4d96] (08/41) Accurately ripped
02 [4ab2697e] (08/41) Accurately ripped
03 [1ceae824] (08/41) Accurately ripped
04 [3f65eaa0] (08/41) Accurately ripped
05 [351cec0d] (08/41) Accurately ripped
06 [38718025] (08/41) Accurately ripped
07 [e1e78e84] (08/41) Accurately ripped
08 [1fb7573f] (08/41) Accurately ripped
09 [44bf521d] (08/41) Accurately ripped
10 [d97cca5d] (08/39) Accurately ripped

Track Peak [ CRC32 ] [W/O NULL] [ LOG ]
– 100,0 [7F366DFE] [0F6AD7E8] CRC32
01 98,7 [F36719A5] [2F07C806]
02 100,0 [D5E28444] [AEB13D34]
03 100,0 [95BBB33A] [EA03653B]
04 96,4 [914A26C1] [552B65C7]
05 99,9 [D60FAB94] [FC4E0266]
06 97,6 [43B2FFD5] [878CADED]
07 97,6 [2B286CB6] [38C695CC]
08 99,9 [B64ED0BA] [25140424]
09 99,9 [B3BF67F2] [CD45ABBF]
10 86,6 [3BF68870] [B483CD1F]


Roxy Music - Avalon (1982) [2013, Japanese SHM-CD] Re-up

All thanks go to ALLexxess

Roxy Music in my Blog

Download Roxy Music - Avalon (1982):