Tags
Language
Tags

Roy Orbison - Big O: Singles Collection (1998)

Posted By: popsakov
Roy Orbison - Big O: Singles Collection (1998)

Roy Orbison - Big O: Singles Collection (1998)
2CD | EAC Rip | FLAC (Img) + Cue + Log ~ 850 Mb | MP3 CBR320 ~ 341 Mb
Full Scans | 01:08:22 + 01:10:40 | RAR 5% Recovery
Pop, Rock, Rock & Roll, Rockabilly | Sony Music #492743 2

Fantastic collection of all 24 of the legendary late singer's hit singles on Monument Records from the 1960's plus a couple more stereo mixes. The set also contains a few of Roy's covers of classic songs like 'Distant Drums', 'What'd I Say', 'Let The Good Times Roll', 'Beautiful Dreamer' and 'Love Hurts'. There are other notable songs here too, many of them obscure songs, all of which confirm what a talented singer Roy was. The second disc includes all the b-sides, so collectors can be satisfied that they have all his single output from the era. ~ Amazon

What it says is what you get. This double-disc collection on Monument collects all of the Roy Orbison singles recorded for the label after he left Sun, and before he left for MGM. In other words, this is CLASSIC Roy. There are 52 cuts from his biggest years, including a couple of German-language versions of "Mama" and "San Fernando." For the uninitiated, this set does leave off cuts such as "Rock House" and "Ooby Dooby," but those can be found easily elsewhere – on a comp called The Sun Years, for example. This set boils down the big Monument box set to a pair of discs that contain pure gold, revealing the diversity and depth of Orbison's genius as a writer and a singer. From "In Dreams" and "Blue Bayou" to "Shahdaroba" and "Oh, Pretty Woman," all of the bases are covered. ~ Thom Jurek, All Music

***************

Roy Orbison - Big O: Singles Collection (1998)

Roy Orbison - Big O: Singles Collection (1998)

Track List CD1:

01. Paper boy [02:10]
02. Up town [02:08]
03. Only the lonely [02:28]
04. Blue angel [02:52]
05. I'm hurtin' [02:44]
06. Running scared [02:13]
07. Crying [02:47]
08. Dream baby [02:34]
09. The crowd [02:24]
10. Workin' for the man [02:27]
11. In dreams [02:50]
12. Falling [02:24]
13. Blue bayou [02:29]
14. Pretty paper [02:48]
15. Borne on the wind [02:53]
16. It's over [02:49]
17. Oh, pretty woman (Original Single Version - Mono) [02:59]
18. Goodnight [02:30]
19. (Say) you're my girl [02:48]
20. Let the good times roll [02:34]
21. Lana [02:18]
22. Belinda [02:34]
23. (I'm a) Southern man [02:56]
24. Drifting away [03:02]
25. Oh, pretty woman (Stereo) [03:01]
26. (Say) you're my girl (Mono) [02:51]

Exact Audio Copy V1.0 beta 4 from 7. December 2014

Отчёт EAC об извлечении, выполненном 3. июля 2015, 10:17

Roy Orbison / The Big O - The Original Singles Collection - CD 1

Дисковод: ASUS DRW-24F1ST a Adapter: 1 ID: 0

Режим чтения : Достоверность
Использование точного потока : Да
Отключение кэша аудио : Да
Использование указателей C2 : Нет

Коррекция смещения при чтении : 6
Способность читать области Lead-in и Lead-out : Нет
Заполнение пропущенных сэмплов тишиной : Да
Удаление блоков с тишиной в начале и конце : Нет
При вычислениях CRC использовались нулевые сэмплы : Да
Интерфейс : Встроенный Win32-интерфейс для Win NT/2000

Выходной формат : Пользовательский кодировщик
Выбранный битрейт : 128 kBit/s
Качество : Высокий
Добавление ID3-тега : Нет
Утилита сжатия : C:\Program Files\Exact Audio Copy\Flac\flac.exe
Дополнительные параметры : -V -8 -T "Date=%year%" -T "Genre=%genre%" %source%


TOC извлечённого CD

Трек | Старт | Длительность | Начальный сектор | Конечный сектор
––––––––––––––––––––––––––––––––––-
1 | 0:00.00 | 2:09.70 | 0 | 9744
2 | 2:09.70 | 2:07.50 | 9745 | 19319
3 | 4:17.45 | 2:27.30 | 19320 | 30374
4 | 6:45.00 | 2:51.50 | 30375 | 43249
5 | 9:36.50 | 2:43.45 | 43250 | 55519
6 | 12:20.20 | 2:12.25 | 55520 | 65444
7 | 14:32.45 | 2:46.67 | 65445 | 77961
8 | 17:19.37 | 2:33.23 | 77962 | 89459
9 | 19:52.60 | 2:23.57 | 89460 | 100241
10 | 22:16.42 | 2:26.60 | 100242 | 111251
11 | 24:43.27 | 2:49.68 | 111252 | 123994
12 | 27:33.20 | 2:23.27 | 123995 | 134746
13 | 29:56.47 | 2:28.23 | 134747 | 145869
14 | 32:24.70 | 2:47.15 | 145870 | 158409
15 | 35:12.10 | 2:52.12 | 158410 | 171321
16 | 38:04.22 | 2:48.50 | 171322 | 183971
17 | 40:52.72 | 2:58.13 | 183972 | 197334
18 | 43:51.10 | 2:29.55 | 197335 | 208564
19 | 46:20.65 | 2:47.60 | 208565 | 221149
20 | 49:08.50 | 2:33.25 | 221150 | 232649
21 | 51:42.00 | 2:17.25 | 232650 | 242949
22 | 53:59.25 | 2:33.52 | 242950 | 254476
23 | 56:33.02 | 2:55.55 | 254477 | 267656
24 | 59:28.57 | 3:01.35 | 267657 | 281266
25 | 62:30.17 | 3:00.03 | 281267 | 294769
26 | 65:30.20 | 2:50.67 | 294770 | 307586


Характеристики диапазона извлечения и сообщения об ошибках

Выбранный диапазон

Имя файла C:\Users\Erik\Desktop\Roy Orbison - The Big O - The Original Singles Collection - CD 1..wav

Пиковый уровень 97.7 %
Скорость извлечения 8.0 X
Качество диапазона 100.0 %
CRC теста 08147013
CRC копии 08147013
Копирование… OK

Ошибок не произошло


AccurateRip: сводка

Трек 1 : извлечено точно (доверие 2) [FD062A8A] (AR v1)
Трек 2 : извлечено точно (доверие 2) [D0A14A9B] (AR v1)
Трек 3 : извлечено точно (доверие 2) [AEBFF94F] (AR v1)
Трек 4 : извлечено точно (доверие 2) [74D85A9F] (AR v1)
Трек 5 : извлечено точно (доверие 2) [850B29FC] (AR v1)
Трек 6 : извлечено точно (доверие 2) [74F4CAFC] (AR v1)
Трек 7 : извлечено точно (доверие 2) [B1445F20] (AR v1)
Трек 8 : извлечено точно (доверие 2) [80DB0D0F] (AR v1)
Трек 9 : извлечено точно (доверие 2) [81930A40] (AR v1)
Трек 10 : извлечено точно (доверие 2) [8B4B63E2] (AR v1)
Трек 11 : извлечено точно (доверие 2) [3588C9E8] (AR v1)
Трек 12 : извлечено точно (доверие 2) [84341D75] (AR v1)
Трек 13 : извлечено точно (доверие 2) [AFA114A8] (AR v1)
Трек 14 : извлечено точно (доверие 2) [103B2E86] (AR v1)
Трек 15 : извлечено точно (доверие 2) [606B1AFB] (AR v1)
Трек 16 : извлечено точно (доверие 2) [C3FCB225] (AR v1)
Трек 17 : извлечено точно (доверие 2) [B68EBED8] (AR v1)
Трек 18 : извлечено точно (доверие 2) [6C15B5AC] (AR v1)
Трек 19 : извлечено точно (доверие 2) [73F96874] (AR v1)
Трек 20 : извлечено точно (доверие 2) [8F6517E8] (AR v1)
Трек 21 : извлечено точно (доверие 2) [FFF76D69] (AR v1)
Трек 22 : извлечено точно (доверие 2) [62A0166E] (AR v1)
Трек 23 : извлечено точно (доверие 2) [3D3062B0] (AR v1)
Трек 24 : извлечено точно (доверие 2) [43378263] (AR v1)
Трек 25 : извлечено точно (доверие 2) [6C374D59] (AR v1)
Трек 26 : извлечено точно (доверие 2) [9A721F81] (AR v1)

Все треки извлечены точно

Конец отчёта

–– CUETools DB Plugin V2.1.4

[CTDB TOCID: _9VIsyBkAwaJG2ArCVRTfWBxHBc-] found
Submit result: _9VIsyBkAwaJG2ArCVRTfWBxHBc- has been confirmed
Track | CTDB Status
1 | (24/24) Accurately ripped
2 | (24/24) Accurately ripped
3 | (24/24) Accurately ripped
4 | (24/24) Accurately ripped
5 | (24/24) Accurately ripped
6 | (24/24) Accurately ripped
7 | (24/24) Accurately ripped
8 | (24/24) Accurately ripped
9 | (24/24) Accurately ripped
10 | (24/24) Accurately ripped
11 | (24/24) Accurately ripped
12 | (24/24) Accurately ripped
13 | (24/24) Accurately ripped
14 | (24/24) Accurately ripped
15 | (24/24) Accurately ripped
16 | (24/24) Accurately ripped
17 | (24/24) Accurately ripped
18 | (24/24) Accurately ripped
19 | (24/24) Accurately ripped
20 | (24/24) Accurately ripped
21 | (24/24) Accurately ripped
22 | (24/24) Accurately ripped
23 | (24/24) Accurately ripped
24 | (24/24) Accurately ripped
25 | (24/24) Accurately ripped
26 | (24/24) Accurately ripped

Track List CD2:

01. With the bug [02:29]
02. Pretty one [02:19]
03. Here comes that song again [02:43]
04. Today's teardrops [02:13]
05. I can't stop loving you [02:45]
06. Love hurts [02:31]
07. Candy man [02:46]
08. The actress [02:38]
09. Mama [03:02]
10. Leah [02:41]
11. Shahdaroba [02:42]
12. Distant drums [03:12]
13. Mean woman blues [02:27]
14. Beautiful dreamer [02:20]
15. What'd I say [02:55]
16. Indian wedding [03:05]
17. Yo te amo Maria [03:17]
18. Summersong [02:46]
19. Only with you [02:19]
20. Sleepy Hollow [02:38]
21. House without windows [02:22]
22. No chain at all [02:27]
23. Born to love me [03:50]
24. Under suspicion [03:00]
25. San Fernando (German Version) [02:32]
26. Mama (German Version) [02:55]

Exact Audio Copy V1.0 beta 4 from 7. December 2014

Отчёт EAC об извлечении, выполненном 3. июля 2015, 10:40

Roy Orbison / The Big O - The Original Singles Collection - CD 2

Дисковод: ASUS DRW-24F1ST a Adapter: 1 ID: 0

Режим чтения : Достоверность
Использование точного потока : Да
Отключение кэша аудио : Да
Использование указателей C2 : Нет

Коррекция смещения при чтении : 6
Способность читать области Lead-in и Lead-out : Нет
Заполнение пропущенных сэмплов тишиной : Да
Удаление блоков с тишиной в начале и конце : Нет
При вычислениях CRC использовались нулевые сэмплы : Да
Интерфейс : Встроенный Win32-интерфейс для Win NT/2000

Выходной формат : Пользовательский кодировщик
Выбранный битрейт : 128 kBit/s
Качество : Высокий
Добавление ID3-тега : Нет
Утилита сжатия : C:\Program Files\Exact Audio Copy\Flac\flac.exe
Дополнительные параметры : -V -8 -T "Date=%year%" -T "Genre=%genre%" %source%


TOC извлечённого CD

Трек | Старт | Длительность | Начальный сектор | Конечный сектор
––––––––––––––––––––––––––––––––––-
1 | 0:00.00 | 2:28.25 | 0 | 11124
2 | 2:28.25 | 2:18.05 | 11125 | 21479
3 | 4:46.30 | 2:42.35 | 21480 | 33664
4 | 7:28.65 | 2:12.22 | 33665 | 43586
5 | 9:41.12 | 2:44.58 | 43587 | 55944
6 | 12:25.70 | 2:30.05 | 55945 | 67199
7 | 14:56.00 | 2:45.10 | 67200 | 79584
8 | 17:41.10 | 2:37.72 | 79585 | 91431
9 | 20:19.07 | 3:01.50 | 91432 | 105056
10 | 23:20.57 | 2:40.18 | 105057 | 117074
11 | 26:01.00 | 2:41.42 | 117075 | 129191
12 | 28:42.42 | 3:11.30 | 129192 | 143546
13 | 31:53.72 | 2:26.08 | 143547 | 154504
14 | 34:20.05 | 2:19.42 | 154505 | 164971
15 | 36:39.47 | 2:54.28 | 164972 | 178049
16 | 39:34.00 | 3:04.45 | 178050 | 191894
17 | 42:38.45 | 3:16.62 | 191895 | 206656
18 | 45:55.32 | 2:45.25 | 206657 | 219056
19 | 48:40.57 | 2:18.35 | 219057 | 229441
20 | 50:59.17 | 2:37.55 | 229442 | 241271
21 | 53:36.72 | 2:21.55 | 241272 | 251901
22 | 55:58.52 | 2:26.50 | 251902 | 262901
23 | 58:25.27 | 3:49.18 | 262902 | 280094
24 | 62:14.45 | 2:59.10 | 280095 | 293529
25 | 65:13.55 | 2:31.42 | 293530 | 304896
26 | 67:45.22 | 2:54.08 | 304897 | 317954


Характеристики диапазона извлечения и сообщения об ошибках

Выбранный диапазон

Имя файла C:\Users\Erik\Desktop\Roy Orbison - The Big O - The Original Singles Collection - CD 2..wav

Пиковый уровень 97.7 %
Скорость извлечения 8.1 X
Качество диапазона 100.0 %
CRC теста 346A5EC3
CRC копии 346A5EC3
Копирование… OK

Ошибок не произошло


AccurateRip: сводка

Трек 1 : извлечено точно (доверие 17) [4E94B0C8] (AR v2)
Трек 2 : извлечено точно (доверие 17) [FF44D8D1] (AR v2)
Трек 3 : извлечено точно (доверие 17) [1CF05D34] (AR v2)
Трек 4 : извлечено точно (доверие 17) [064FD94B] (AR v2)
Трек 5 : извлечено точно (доверие 17) [2C67DFE9] (AR v2)
Трек 6 : извлечено точно (доверие 17) [8E7398C0] (AR v2)
Трек 7 : извлечено точно (доверие 17) [BF1305A3] (AR v2)
Трек 8 : извлечено точно (доверие 17) [72E93D48] (AR v2)
Трек 9 : извлечено точно (доверие 17) [C843935A] (AR v2)
Трек 10 : извлечено точно (доверие 17) [FBD4B47D] (AR v2)
Трек 11 : извлечено точно (доверие 17) [7DFA2577] (AR v2)
Трек 12 : извлечено точно (доверие 17) [9672EFB3] (AR v2)
Трек 13 : извлечено точно (доверие 17) [09A0178E] (AR v2)
Трек 14 : извлечено точно (доверие 17) [6B2E8AA3] (AR v2)
Трек 15 : извлечено точно (доверие 17) [34BDBB06] (AR v2)
Трек 16 : извлечено точно (доверие 17) [E949FCAF] (AR v2)
Трек 17 : извлечено точно (доверие 17) [29DBF19E] (AR v2)
Трек 18 : извлечено точно (доверие 17) [54DADD76] (AR v2)
Трек 19 : извлечено точно (доверие 17) [DE260EA0] (AR v2)
Трек 20 : извлечено точно (доверие 17) [35DD6E8F] (AR v2)
Трек 21 : извлечено точно (доверие 17) [A1D91D62] (AR v2)
Трек 22 : извлечено точно (доверие 17) [15305434] (AR v2)
Трек 23 : извлечено точно (доверие 17) [153EEE1D] (AR v2)
Трек 24 : извлечено точно (доверие 17) [4A6E62C1] (AR v2)
Трек 25 : извлечено точно (доверие 17) [0400C6F1] (AR v2)
Трек 26 : извлечено точно (доверие 17) [7E1FE0C2] (AR v2)

Все треки извлечены точно

Конец отчёта

–– CUETools DB Plugin V2.1.4

[CTDB TOCID: z76OatfFxrzNKpjixQCjTPDvaTo-] found
Submit result: z76OatfFxrzNKpjixQCjTPDvaTo- has been confirmed
Track | CTDB Status
1 | (24/24) Accurately ripped
2 | (24/24) Accurately ripped
3 | (24/24) Accurately ripped
4 | (24/24) Accurately ripped
5 | (24/24) Accurately ripped
6 | (24/24) Accurately ripped
7 | (24/24) Accurately ripped
8 | (24/24) Accurately ripped
9 | (24/24) Accurately ripped
10 | (24/24) Accurately ripped
11 | (24/24) Accurately ripped
12 | (24/24) Accurately ripped
13 | (24/24) Accurately ripped
14 | (24/24) Accurately ripped
15 | (24/24) Accurately ripped
16 | (24/24) Accurately ripped
17 | (24/24) Accurately ripped
18 | (24/24) Accurately ripped
19 | (24/24) Accurately ripped
20 | (24/24) Accurately ripped
21 | (24/24) Accurately ripped
22 | (24/24) Accurately ripped
23 | (24/24) Accurately ripped
24 | (24/24) Accurately ripped
25 | (24/24) Accurately ripped
26 | (24/24) Accurately ripped

Roy Orbison - Big O: Singles Collection (1998)


All thanks go to Erik

>>> Roy Orbison in my Blog <<<

DOWNLOAD: