Subcategories

Ruth Moody feat Mark Knopfler - These Wilder Things (2013)

Posted By: Designol
Ruth Moody feat Mark Knopfler - These Wilder Things (2013)

Ruth Moody feat Mark Knopfler - These Wilder Things (2013)
EAC | FLAC | Tracks (Cue&Log) ~ 238 Mb | Mp3 (CBR320) ~ 116 Mb | Scans included | 00:46:20
Contemporary Folk, Folk-Rock, Singer/Songwriter | Label: True North | # TND577

These Wilder Things is full of timeless tunes from the haunting gospel sounds of Trouble and Woe to the bluegrassy One Light Shining (featuring Jerry Douglas) to the Irish-flavored Life Is Long. This recording delves deeper into darker, indie-pop sounds, especially on songs like the moody title track or Pockets, featuring iconic roots-rocker Mark Knopfler on guitar and vocals. The nine originals on this record prove Ruth is a first-rate songwriter along the lines of Gillian Welch, while her stunning makeover of Bruce Springsteen s Dancing in the Dark would even leave The Boss s jaw on the floor. Appealing to indie fans as well as lovers of folk and Americana music, These Wilder Things confirms that Ruth Moody is indeed one force to be reckoned with.

These Wilder Things, the second solo album by Ruth Moody of the Wailin' Jennys, is both a piece and apart from her 2010 debut Garden. While her lyric concerns seem similar on the surface and the music remains rooted in contemporary folk, this ten-song collection ranges farther and wider. Acoustic instruments still dominate the landscape–Moody plays many of them–but the stylistic diversity is a step down the road. She wrote all but one song here, a playful, acoustically driven cover of Bruce Springsteen's '80s hit "Dancin' in the Dark," but her reading of it – sans pulsing keyboards and desperate masculine voice – makes it fit seamlessly with her songs here: they all seek connection with something larger, in life, love, and spirit. The bluegrass gospel in "One Light Shining," with dobro from Jerry Douglas and backing vocals by Aiofe O'Donovan, projects that bigger reality inside a small frame. So does the broken love song "Pockets," with its minor key, silvery guitar and backing vocals from Mark Knopfler. This is Moody at her darkest; one can feel her protagonist's desolation in the grain of her airy soprano, and Knopfler's grainy baritone comes from the ether. In the role of the absent lover, he sings in tandem with the narrator across time and space. The title track features the trace of a Moog by producer David Travers-Smith, but it merely underscores Moody's piano and determined voice. Her protagonist is addressing her fear and doubt, and lets them know solemnly that she will move past them into a wide-open future. Travers-Smith's flügelhorn and e-horns add a ghostly gospel affirmation in the backdrop. Her bandmates help out with backing vocals on the sweet country love song "One and Only," with its slow chugging guitars. Mike McGoldrick's low whistle and John McCusker's fiddle provide traditional Celtic flavor to "Life Is Long," which reinforces its simple yet profound poetry of passage and return. Closer "Nothin' Without Love," finds her on banjo in this aching, jazzy, romantic paean that juxtaposes economic and emotional poverty; it aches to transcend both. Moody's gaze on These Wilder Things remains an interior one, but it's more confident and sophisticated musically and lyrically. The protagonists in these beautiful songs accept what they encounter; they variously recount their (mis)adventures to the listener through the vision of a songwriter with open ears and a wide open heart.

Review by Thom Jurek, Allmusic.com

Ruth Moody feat Mark Knopfler - These Wilder Things (2013)

Ruth Moody feat Mark Knopfler - These Wilder Things (2013)



Tracklist:

01. Trouble And Woe (03:15)
02. One And Only (04:53)
03. Dancing In The Dark (04:17)
04. These Wilder Things (05:11)
05. Trees For Skies (03:29)
06. Pockets (05:00) with Mark Knopfler
07. Make A Change (04:39)
08. One Light Shining (04:42)
09. Life Is Long (05:33)
10. Nothing Without Love (05:00)


Exact Audio Copy V1.0 beta 3 from 29. August 2011

EAC extraction logfile from 7. May 2013, 17:58

Ruth Moody / These Wilder Things

Used drive : HL-DT-STBD-RE BH10LS30 Adapter: 5 ID: 0

Read mode : Secure
Utilize accurate stream : Yes
Defeat audio cache : Yes
Make use of C2 pointers : No

Read offset correction : 667
Overread into Lead-In and Lead-Out : No
Fill up missing offset samples with silence : Yes
Delete leading and trailing silent blocks : No
Null samples used in CRC calculations : Yes
Used interface : Native Win32 interface for Win NT & 2000
Gap handling : Appended to previous track

Used output format : User Defined Encoder
Selected bitrate : 1024 kBit/s
Quality : High
Add ID3 tag : No
Command line compressor : C:\Program Files (x86)\Exact Audio Copy\Flac\flac.exe
Additional command line options : -8 -V -T "ARTIST=%artist%" -T "TITLE=%title%" -T "ALBUM=%albumtitle%" -T "DATE=%year%" -T "TRACKNUMBER=%tracknr%" -T "GENRE=%genre%" -T "PERFORMER=%albuminterpret%" -T "COMPOSER=%composer%" %haslyrics%–tag-from-file=LYRICS="%lyricsfile%"%haslyrics% -T "ALBUMARTIST=%albumartist%" -T "DISCNUMBER=%cdnumber%" -T "TOTALDISCS=%totalcds%" -T "TOTALTRACKS=%numtracks%" -T "COMMENT=%comment%" %source% -o %dest%


TOC of the extracted CD

Track | Start | Length | Start sector | End sector
––––––––––––––––––––––––––––-
1 | 0:00.00 | 3:16.67 | 0 | 14766
2 | 3:16.67 | 4:54.36 | 14767 | 36852
3 | 8:11.28 | 4:18.72 | 36853 | 56274
4 | 12:30.25 | 5:13.26 | 56275 | 79775
5 | 17:43.51 | 3:30.53 | 79776 | 95578
6 | 21:14.29 | 5:03.36 | 95579 | 118339
7 | 26:17.65 | 4:40.30 | 118340 | 139369
8 | 30:58.20 | 4:43.52 | 139370 | 160646
9 | 35:41.72 | 5:37.61 | 160647 | 185982
10 | 41:19.58 | 5:00.00 | 185983 | 208482


Track 1

Filename D:\FLAC\EACRip\01 - Trouble and Woe.wav

Pre-gap length 0:00:02.00

Peak level 97.6 %
Extraction speed 0.9 X
Track quality 99.9 %
Test CRC C7C1EA9F
Copy CRC C7C1EA9F
Track not present in AccurateRip database
Copy OK

Track 2

Filename D:\FLAC\EACRip\02 - One and Only.wav

Pre-gap length 0:00:01.52

Peak level 97.6 %
Extraction speed 1.1 X
Track quality 99.9 %
Test CRC C10A754B
Copy CRC C10A754B
Track not present in AccurateRip database
Copy OK

Track 3

Filename D:\FLAC\EACRip\03 - Dancing in the Dark.wav

Pre-gap length 0:00:00.76

Peak level 97.6 %
Extraction speed 1.2 X
Track quality 99.9 %
Test CRC 1341DFDA
Copy CRC 1341DFDA
Track not present in AccurateRip database
Copy OK

Track 4

Filename D:\FLAC\EACRip\04 - These Wilder Things.wav

Pre-gap length 0:00:01.93

Peak level 97.6 %
Extraction speed 1.5 X
Track quality 100.0 %
Test CRC EF703B2C
Copy CRC EF703B2C
Track not present in AccurateRip database
Copy OK

Track 5

Filename D:\FLAC\EACRip\05 - Trees For Skies.wav

Pre-gap length 0:00:01.37

Peak level 85.4 %
Extraction speed 1.5 X
Track quality 100.0 %
Test CRC 1E580909
Copy CRC 1E580909
Track not present in AccurateRip database
Copy OK

Track 6

Filename D:\FLAC\EACRip\06 - Pockets.wav

Pre-gap length 0:00:01.69

Peak level 97.6 %
Extraction speed 1.7 X
Track quality 100.0 %
Test CRC 296C0A49
Copy CRC 296C0A49
Track not present in AccurateRip database
Copy OK

Track 7

Filename D:\FLAC\EACRip\07 - Make a Change.wav

Pre-gap length 0:00:03.40

Peak level 97.6 %
Extraction speed 1.8 X
Track quality 100.0 %
Test CRC D2C11B4B
Copy CRC D2C11B4B
Track not present in AccurateRip database
Copy OK

Track 8

Filename D:\FLAC\EACRip\08 - One Light Shining.wav

Pre-gap length 0:00:01.18

Peak level 97.6 %
Extraction speed 1.9 X
Track quality 100.0 %
Test CRC 7009FCF8
Copy CRC 7009FCF8
Track not present in AccurateRip database
Copy OK

Track 9

Filename D:\FLAC\EACRip\09 - Life is Long.wav

Pre-gap length 0:00:01.57

Peak level 97.5 %
Extraction speed 2.0 X
Track quality 100.0 %
Test CRC F3B98D29
Copy CRC F3B98D29
Track not present in AccurateRip database
Copy OK

Track 10

Filename D:\FLAC\EACRip\10 - Nothing Without Love.wav

Pre-gap length 0:00:03.92

Peak level 97.5 %
Extraction speed 2.1 X
Track quality 100.0 %
Test CRC 2650400B
Copy CRC 2650400B
Track not present in AccurateRip database
Copy OK


None of the tracks are present in the AccurateRip database

No errors occurred

End of status report

==== Log checksum 8A5F7228FF98539E5C5F9C91D387F1C5F0BDCADF645920FF1419B8D67F21C773 ====

[CUETools log; Date: 24.11.2017 22:02:51; Version: 2.1.4]
[CTDB TOCID: bPw3LCusfv80Et0wBGZwzphefyY-] found.
Track | CTDB Status
1 | (30/30) Accurately ripped
2 | (30/30) Accurately ripped
3 | (30/30) Accurately ripped
4 | (30/30) Accurately ripped
5 | (30/30) Accurately ripped
6 | (30/30) Accurately ripped
7 | (30/30) Accurately ripped
8 | (30/30) Accurately ripped
9 | (30/30) Accurately ripped
10 | (29/30) Accurately ripped
[AccurateRip ID: 0010b989-00877eee-8c0adb0a] found.
Track [ CRC | V2 ] Status
01 [dfcdd098|aa846905] (00+11/19) Accurately ripped
02 [5bb35c7a|f1694a5c] (00+11/19) Accurately ripped
03 [da9f19cb|099593c2] (00+11/19) Accurately ripped
04 [8ac5dfbe|22285969] (00+11/19) Accurately ripped
05 [b5392837|e1b9c41e] (00+11/19) Accurately ripped
06 [eca23879|10df8d51] (00+11/19) Accurately ripped
07 [a61c9a60|6aac2574] (00+11/19) Accurately ripped
08 [dd81a189|264cb2b6] (00+11/19) Accurately ripped
09 [c2167857|67b1eb03] (00+11/19) Accurately ripped
10 [a8d802b3|7a4c216d] (00+11/19) Accurately ripped
Offsetted by 6:
01 [d19cea84] (00/19) No match (V2 was not tested)
02 [7fea7136] (00/19) No match (V2 was not tested)
03 [2bf1d635] (00/19) No match (V2 was not tested)
04 [1c9e079c] (00/19) No match (V2 was not tested)
05 [9c904c01] (00/19) No match (V2 was not tested)
06 [e6e96e05] (00/19) No match (V2 was not tested)
07 [f844c174] (00/19) No match (V2 was not tested)
08 [e4b284d9] (00/19) No match (V2 was not tested)
09 [1d2896f3] (00/19) No match (V2 was not tested)
10 [8b91b78e] (00/19) No match (V2 was not tested)

Track Peak [ CRC32 ] [W/O NULL] [ LOG ]
– 97,6 [A50A4142] [38920404]
01 97,6 [C7C1EA9F] [2218E699] CRC32
02 97,6 [C10A754B] [C51AED0D] CRC32
03 97,6 [1341DFDA] [9DE5EEFF] CRC32
04 97,6 [EF703B2C] [1E5DD59C] CRC32
05 85,4 [1E580909] [22737D2C] CRC32
06 97,6 [296C0A49] [E19AB9EC] CRC32
07 97,6 [D2C11B4B] [73BB3E15] CRC32
08 97,6 [7009FCF8] [3DDACF7F] CRC32
09 97,5 [F3B98D29] [0918FB24] CRC32
10 97,5 [2650400B] [6F54B648] CRC32

foobar2000 1.2 / Dynamic Range Meter 1.1.1
log date: 2015-01-22 21:05:31

––––––––––––––––––––––––––––––––––––––––
Analyzed: Ruth Moody / These Wilder Things
––––––––––––––––––––––––––––––––––––––––

DR Peak RMS Duration Track
––––––––––––––––––––––––––––––––––––––––
DR11 -0.20 dB -13.73 dB 3:17 01-Trouble and Woe
DR9 -0.21 dB -11.36 dB 4:54 02-One and Only
DR9 -0.20 dB -12.15 dB 4:19 03-Dancing in the Dark
DR10 -0.21 dB -14.51 dB 5:13 04-These Wilder Things
DR12 -1.36 dB -16.97 dB 3:31 05-Trees For Skies
DR9 -0.21 dB -12.90 dB 5:03 06-Pockets
DR11 -0.21 dB -15.27 dB 4:40 07-Make a Change
DR10 -0.20 dB -13.58 dB 4:44 08-One Light Shining
DR10 -0.21 dB -14.00 dB 5:38 09-Life is Long
DR10 -0.22 dB -14.36 dB 5:00 10-Nothing Without Love
––––––––––––––––––––––––––––––––––––––––

Number of tracks: 10
Official DR value: DR10

Samplerate: 44100 Hz
Channels: 2
Bits per sample: 16
Bitrate: 660 kbps
Codec: FLAC
================================================================================

Ruth Moody feat Mark Knopfler - These Wilder Things (2013)

Ruth Moody feat Mark Knopfler - These Wilder Things (2013)

All thanks to original releaser - JohnnyLaRue

More interesting music in My Blog