Subcategories

Salieri - La Locandiera (Fabio Luisi, Alessandra Ruffini) [2007]

Posted By: Sowulo
Salieri - La Locandiera (Fabio Luisi, Alessandra Ruffini) [2007]

Salieri - La Locandiera (Fabio Luisi, Alessandra Ruffini) [2007]
EAC Rip | FLAC, IMG+CUE, LOG | Covers | 2cd, 596.82 MB
Classical | Label: Nuova Era | Catalog Number: 224185

Das Urteil der Musikgeschichte über den Komponisten Antonio Salieri schien eindeutig und wurde deshalb bis in die jüngste Zeit kaum überprüft: Ein solider Handwerker mit geringer Inspiration, der dem genialen jüngeren Mozart seinen Erfolg neidete, ihm gar nach dem Leben trachtete. Interessanterweise führte gerade der „Amadeus”-Film von Milos Forman, der an der alten Legende weiterstrickte, zu einer wenn auch bescheidenen Salieri-Renaissance, die in dem Salieri-Album Cecilia Bartolis, einer glanzvollen Rehabilitation des verkannten Meisters, ihren Höhepunkt fand.
Als Salieri in Wien Carlo Goldonis Komödie „La locandiera” vertonte (auf deutschen Bühnen unter dem Titel „Mirandolina” populär), war er erst 23 Jahre alt und hatte seinen Stil noch nicht gefunden. Das Textbuch des Tenors Domenico Poggi, der die feine Charakterkomödie in die gängigen Buffa-Schablonen presst, gab ihm auch kaum Gelegenheit, große Talente zu entwickeln. Die Figuren, vor allem die drei komisch akzentuierten Freier, haben nur wenig charakteristische Farben. Das Stück, das nach lebendigen Ensembles geradezu schreit, hangelt sich in der Opernversion zwischen ellenlangen Secco-Rezitativen von Arie zu Arie. Da war Meister Goldoni in seinen Libretti, die er vor allem für Baldassare Galuppi schrieb, schon wesentlich weiter. Er erfand die Ketten-Finali, die da Ponte und Mozart vorwegnahmen. Salieris Musik ist nicht ohne Charme und besticht auch gelegentlich durch melodische Einfälle, aber sie wirkt durchweg austauschbar.
Der Mitschnitt einer Aufführung aus Lugo von 1989 (es soll die erste nach fast 200 Jahren gewesen sein) hat vor allem dokumentarischen Wert. Fabio Luisi, der damals noch nicht in der ersten Liga spielte, versucht das sich mutig nach dem Präzisionsfanatiker Arturo Toscanini benennende Orchester mit wechselndem Erfolg auf den richtigen Settecento-Ton einzuschwören. Von den Sängern hinterlässt Alessandra Ruffini als Mirandolina den stärksten Eindruck, der Rest ist mehr oder weniger guter Durchschnitt. Das Booklet enthält den informativen Werkkommentar auch in deutscher Sprache, das Libretto allerdings nur auf italienisch.
Ekkehard Pluta (25.10.2007)

Tracklisting:
CD1
01. Sinfonia
02. Atto Primo. Appena l'alba e alzata (Lena, Fabrizio)
03. Dall'amor come ogniun dice (Lena)
04. Io quand'ero ragazzo (Conte)
05. Zitta che nessun senta (Marchese)
06. Figliuola del capriccio (Mirandolina)
07. Tutti dicon che la mogle (Fabrizio)
08. Giacche il cielo mi dispensa (Mirandolina)
09. Le dolci sue maniere (Cavaliere)
10. Se licenzia il cavaliere (Lena, Conte, Marchese)
11. Come, signor Marchese? (Tutti)
CD2
01. Atto Secondo. Va pensando e ripensando (Cavaliere)
02. Stava giusto il pensier mio (Cavaliere)
03. Padrona bell, non puo penare (Fabrizio)
04. Fabrizio caro… (Mirandolina)
05. Quando s’ama un bell’oggetto (Conte)
06. Sono un uoma di primo moto (Marchese)
07. Son confuso (Cavaliere)
08. Bella Mirandolina (Tutti)
09. Atto Terzo. Or finito e lo spasso (Mirandolina)
10. A una tal preposizione (Fabrizio)
11. Barbara donna ingrata (Cavaliere)
12. Presto spicciatevi, Fabrizio (Mirandolina, Fabrizio)
13. Alto Signori (Tutti)

Exact Audio Copy V1.0 beta 1 from 15. November 2010

EAC extraction logfile from 26. August 2011, 21:54

Fabio Luisi, A.Ruffini, G.Sarti, O.di Credico, P.Guarnera / Antonio Salieri - La Locandiera CD1

Used drive : PIONEER DVD-RW DVR-218L Adapter: 1 ID: 0

Read mode : Secure
Utilize accurate stream : Yes
Defeat audio cache : Yes
Make use of C2 pointers : No

Read offset correction : 6
Overread into Lead-In and Lead-Out : No
Fill up missing offset samples with silence : Yes
Delete leading and trailing silent blocks : No
Null samples used in CRC calculations : Yes
Used interface : Native Win32 interface for Win NT & 2000

Used output format : User Defined Encoder
Selected bitrate : 192 kBit/s
Quality : High
Add ID3 tag : No
Command line compressor : C:\Program Files\Exact Audio Copy\Flac\flac.exe
Additional command line options : -T "DATE=%y" -T "GENRE=%m" -8 -V %s


TOC of the extracted CD

Track | Start | Length | Start sector | End sector
––––––––––––––––––––––––––––-
1 | 0:00.00 | 7:51.62 | 0 | 35386
2 | 7:51.62 | 3:19.70 | 35387 | 50381
3 | 11:11.57 | 4:51.27 | 50382 | 72233
4 | 16:03.09 | 7:40.48 | 72234 | 106781
5 | 23:43.57 | 5:18.65 | 106782 | 130696
6 | 29:02.47 | 3:45.42 | 130697 | 147613
7 | 32:48.14 | 6:26.73 | 147614 | 176636
8 | 39:15.12 | 1:58.37 | 176637 | 185523
9 | 41:13.49 | 4:27.33 | 185524 | 205581
10 | 45:41.07 | 6:15.05 | 205582 | 233711
11 | 51:56.12 | 6:59.07 | 233712 | 265143


Range status and errors

Selected range

Filename C:\Antonio Salieri - La Locandiera CD1.wav

Peak level 86.4 %
Extraction speed 0.2 X
Range quality 100.0 %
Test CRC D9CF2CF2
Copy CRC D9CF2CF2
Copy OK

No errors occurred


AccurateRip summary

Track 1 accurately ripped (confidence 1) [9579B72C]
Track 2 accurately ripped (confidence 1) [320F22D1]
Track 3 accurately ripped (confidence 1) [5FB32669]
Track 4 accurately ripped (confidence 1) [28F1C1F8]
Track 5 accurately ripped (confidence 1) [FE78B447]
Track 6 accurately ripped (confidence 1) [3E7333F9]
Track 7 accurately ripped (confidence 1) [0510CB93]
Track 8 accurately ripped (confidence 1) [D3A69B61]
Track 9 accurately ripped (confidence 1) [5709124E]
Track 10 accurately ripped (confidence 1) [A7667AA6]
Track 11 accurately ripped (confidence 1) [95259513]

All tracks accurately ripped

End of status report

==== Log checksum D8A0FB29F63CE0104A920C9255D3988347420175F901A5B6111040C5194246BC ====

Exact Audio Copy V1.0 beta 1 from 15. November 2010

EAC extraction logfile from 26. August 2011, 23:32

Fabio Luisi, A.Ruffini, G.Sarti, O.di Credico, P.Guarnera / Antonio Salieri - La Locandiera CD2

Used drive : PIONEER DVD-RW DVR-218L Adapter: 1 ID: 0

Read mode : Secure
Utilize accurate stream : Yes
Defeat audio cache : Yes
Make use of C2 pointers : No

Read offset correction : 6
Overread into Lead-In and Lead-Out : No
Fill up missing offset samples with silence : Yes
Delete leading and trailing silent blocks : No
Null samples used in CRC calculations : Yes
Used interface : Native Win32 interface for Win NT & 2000

Used output format : User Defined Encoder
Selected bitrate : 192 kBit/s
Quality : High
Add ID3 tag : No
Command line compressor : C:\Program Files\Exact Audio Copy\Flac\flac.exe
Additional command line options : -T "DATE=%y" -T "GENRE=%m" -8 -V %s


TOC of the extracted CD

Track | Start | Length | Start sector | End sector
––––––––––––––––––––––––––––-
1 | 0:00.00 | 5:58.05 | 0 | 26854
2 | 5:58.05 | 3:06.53 | 26855 | 40857
3 | 9:04.58 | 2:27.45 | 40858 | 51927
4 | 11:32.28 | 9:08.55 | 51928 | 93082
5 | 20:41.08 | 7:17.15 | 93083 | 125872
6 | 27:58.23 | 3:36.62 | 125873 | 142134
7 | 31:35.10 | 6:23.53 | 142135 | 170912
8 | 37:58.63 | 9:04.62 | 170913 | 211774
9 | 47:03.50 | 3:45.73 | 211775 | 228722
10 | 50:49.48 | 2:29.27 | 228723 | 239924
11 | 53:19.00 | 4:26.73 | 239925 | 259947
12 | 57:45.73 | 8:14.27 | 259948 | 297024
13 | 66:00.25 | 6:44.04 | 297025 | 327328


Range status and errors

Selected range

Filename C:\Antonio Salieri - La Locandiera CD2.wav

Peak level 96.5 %
Extraction speed 0.1 X
Range quality 100.0 %
Test CRC 9E953B43
Copy CRC 9E953B43
Copy OK

No errors occurred


AccurateRip summary

Track 1 cannot be verified as accurate (confidence 1) [38E801CC], AccurateRip returned [FB963F43]
Track 2 cannot be verified as accurate (confidence 1) [9AAC0477], AccurateRip returned [2A1F2A3A]
Track 3 cannot be verified as accurate (confidence 1) [C812A226], AccurateRip returned [89927EC7]
Track 4 cannot be verified as accurate (confidence 1) [DE38193A], AccurateRip returned [C4FDB72F]
Track 5 cannot be verified as accurate (confidence 1) [0A9D5E10], AccurateRip returned [12A3FDCE]
Track 6 cannot be verified as accurate (confidence 1) [0B9396F6], AccurateRip returned [8261C509]
Track 7 cannot be verified as accurate (confidence 1) [BDDB7F45], AccurateRip returned [116479AC]
Track 8 cannot be verified as accurate (confidence 1) [51B8D173], AccurateRip returned [BE060DED]
Track 9 cannot be verified as accurate (confidence 1) [2616C6B2], AccurateRip returned [2A9D9835]
Track 10 cannot be verified as accurate (confidence 1) [6755D399], AccurateRip returned [181B92A3]
Track 11 cannot be verified as accurate (confidence 1) [0B492EEE], AccurateRip returned [87FFB4A9]
Track 12 cannot be verified as accurate (confidence 1) [BC5E8F4F], AccurateRip returned [64C5E1F8]
Track 13 cannot be verified as accurate (confidence 1) [A27F0BA8], AccurateRip returned [7290D94A]

No tracks could be verified as accurate
You may have a different pressing from the one(s) in the database

End of status report

==== Log checksum 1F235A19C05B7A240C0F063E6676014623C575DDD236141EBBB86825D090B5FB ====

Performer:
Mirandolina – Alessandra Ruffini
Il Marchese di Forlimpopoli – Gastone Sarti
Il Conte dell’Albafiorita – Oslavio di Credico
Fabrizio – Piero Guarnera
Il Cavaliere di Ripafratta – Luigi Petroni
Lena – Paola Leolini
Orchestra Sinfonica dell’Emilia Romagna «A.Toscanini»
Conductor – Fabio Luisi