Subcategories

Samantha Fish, Cassie Taylor & Dani Wilde - Girls With Guitars (2011)

Posted By: Designol
Samantha Fish, Cassie Taylor & Dani Wilde - Girls With Guitars (2011)

Samantha Fish, Cassie Taylor & Dani Wilde - Girls With Guitars (2011)
EAC | FLAC | Tracks (Cue&Log) ~ 299 Mb | Mp3 (CBR320) ~ 105 Mb | Scans included
Blues-Rock, Modern Electric Blues | Label: Ruf | # RUF 1166 | Time: 00:44:48

On this trio album, Samantha Fish, Cassie Taylor, and Dani Wilde begin with the Rolling Stones' "Bitch" and end with the Steve Miller Band's "Jet Airliner," each taking a verse. The rest of the album is devoted to original compositions written by one or the other of the performers in a variety of blues styles, and the instrumentation also varies, though Taylor (daughter of Otis Taylor, with whom she played extensively), as the bassist, appears on almost every track. The exception is also the only solo track, Wilde's folk-blues number "Reason to Stay," on which she plays Dobro. Wilde also takes much of the lead guitar work, with Fish getting lead work on her own "Come on Home" and "Wait a Minute," as well as Taylor's "Move On." The switch-offs make for a good balance, and it's not surprising that this triumvirate has toured together in Europe. The album should help make their names better known, but that also might reduce their impetus to stay together.

Review by William Ruhlmann, Allmusic.com

Samantha Fish, Cassie Taylor & Dani Wilde - Girls With Guitars (2011)



Tracklist:

01. Bitch (3:39)
02. Satisfy My Soul (2:44)
03. Mr. Loving Man (3:34)
04. We Ain't Gonna Get Out Alive (4:12)
05. Reason To Stay (2:55)
06. Get Back (3:22)
07. Come On Home (4:46)
08. Leaving Chicago (3:39)
09. Wait A Minute (3:24)
10. Move On (3:40)
11. Are You Ready (4:23)
12. Jet Airliner (4:31)


Exact Audio Copy V1.0 beta 1 from 15. November 2010

EAC extraction logfile from 5. June 2011, 19:31

Samantha Fish, Cassie Taylor & Dani Wilde/ Girls With Guitars

Used drive : HL-DT-STDVDRAM GH60N Adapter: 2 ID: 1

Read mode : Secure
Utilize accurate stream : Yes
Defeat audio cache : Yes
Make use of C2 pointers : No

Read offset correction : 667
Overread into Lead-In and Lead-Out : No
Fill up missing offset samples with silence : Yes
Delete leading and trailing silent blocks : No
Null samples used in CRC calculations : Yes
Used interface : Native Win32 interface for Win NT & 2000
Gap handling : Appended to previous track

Used output format : User Defined Encoder
Selected bitrate : 768 kBit/s
Quality : High
Add ID3 tag : No
Command line compressor : C:\Program Files (x86)\Exact Audio Copy\FLAC\FLAC.EXE
Additional command line options : -6 -V -T "ARTIST=%a" -T "TITLE=%t" -T "ALBUM=%g" -T "DATE=%y" -T "TRACKNUMBER=%n" -T "GENRE=%m" -T "COMMENT=%e" %j–picture="%i"%j %s -o %d


TOC of the extracted CD

Track | Start | Length | Start sector | End sector
––––––––––––––––––––––––––––-
1 | 0:00.00 | 3:38.53 | 0 | 16402
2 | 3:38.53 | 2:43.55 | 16403 | 28682
3 | 6:22.33 | 3:34.10 | 28683 | 44742
4 | 9:56.43 | 4:11.45 | 44743 | 63612
5 | 14:08.13 | 2:55.05 | 63613 | 76742
6 | 17:03.18 | 3:21.70 | 76743 | 91887
7 | 20:25.13 | 4:45.73 | 91888 | 113335
8 | 25:11.11 | 3:39.19 | 113336 | 129779
9 | 28:50.30 | 3:23.53 | 129780 | 145057
10 | 32:14.08 | 3:39.39 | 145058 | 161521
11 | 35:53.47 | 4:23.13 | 161522 | 181259
12 | 40:16.60 | 4:31.15 | 181260 | 201599


Track 1

Filename A:\music\Samantha Fish, Cassie Taylor & Dani Wilde - Girls With Guitars\01 - Bitch.wav

Pre-gap length 0:00:02.00

Peak level 96.6 %
Extraction speed 1.0 X
Track quality 100.0 %
Test CRC DEA4D943
Copy CRC DEA4D943
Accurately ripped (confidence 2) [3629E498]
Copy OK

Track 2

Filename A:\music\Samantha Fish, Cassie Taylor & Dani Wilde - Girls With Guitars\02 - Satisfy My Soul.wav

Peak level 96.6 %
Extraction speed 1.0 X
Track quality 100.0 %
Test CRC 7AC46D07
Copy CRC 7AC46D07
Accurately ripped (confidence 2) [6F2ABA2C]
Copy OK

Track 3

Filename A:\music\Samantha Fish, Cassie Taylor & Dani Wilde - Girls With Guitars\03 - Mr. Loving Man.wav

Peak level 96.6 %
Extraction speed 1.2 X
Track quality 100.0 %
Test CRC CD0C5835
Copy CRC CD0C5835
Accurately ripped (confidence 2) [06B687D3]
Copy OK

Track 4

Filename A:\music\Samantha Fish, Cassie Taylor & Dani Wilde - Girls With Guitars\04 - We Ain't Gonna Get Out Alive.wav

Peak level 96.6 %
Extraction speed 1.3 X
Track quality 100.0 %
Test CRC 4A494D4D
Copy CRC 4A494D4D
Accurately ripped (confidence 2) [929793D8]
Copy OK

Track 5

Filename A:\music\Samantha Fish, Cassie Taylor & Dani Wilde - Girls With Guitars\05 - Reason To Stay.wav

Peak level 96.6 %
Extraction speed 1.3 X
Track quality 100.0 %
Test CRC 22E6A106
Copy CRC 22E6A106
Accurately ripped (confidence 2) [DDA783B4]
Copy OK

Track 6

Filename A:\music\Samantha Fish, Cassie Taylor & Dani Wilde - Girls With Guitars\06 - Get Back.wav

Peak level 96.6 %
Extraction speed 1.4 X
Track quality 100.0 %
Test CRC 507AB9C0
Copy CRC 507AB9C0
Accurately ripped (confidence 2) [731455CC]
Copy OK

Track 7

Filename A:\music\Samantha Fish, Cassie Taylor & Dani Wilde - Girls With Guitars\07 - Come On Home.wav

Peak level 96.6 %
Extraction speed 1.6 X
Track quality 100.0 %
Test CRC F4B85520
Copy CRC F4B85520
Accurately ripped (confidence 2) [135167E5]
Copy OK

Track 8

Filename A:\music\Samantha Fish, Cassie Taylor & Dani Wilde - Girls With Guitars\08 - Leaving Chicago.wav

Peak level 96.6 %
Extraction speed 1.6 X
Track quality 100.0 %
Test CRC A585BD74
Copy CRC A585BD74
Accurately ripped (confidence 2) [749DC5E9]
Copy OK

Track 9

Filename A:\music\Samantha Fish, Cassie Taylor & Dani Wilde - Girls With Guitars\09 - Wait A Minute.wav

Peak level 96.6 %
Extraction speed 1.7 X
Track quality 100.0 %
Test CRC BA04EEC2
Copy CRC BA04EEC2
Accurately ripped (confidence 2) [CBD5053F]
Copy OK

Track 10

Filename A:\music\Samantha Fish, Cassie Taylor & Dani Wilde - Girls With Guitars\10 - Move On.wav

Peak level 96.6 %
Extraction speed 1.7 X
Track quality 100.0 %
Test CRC CC048F18
Copy CRC CC048F18
Accurately ripped (confidence 2) [57A15429]
Copy OK

Track 11

Filename A:\music\Samantha Fish, Cassie Taylor & Dani Wilde - Girls With Guitars\11 - Are You Ready.wav

Peak level 96.6 %
Extraction speed 1.8 X
Track quality 100.0 %
Test CRC 6165617A
Copy CRC 6165617A
Accurately ripped (confidence 2) [FBA80BF9]
Copy OK

Track 12

Filename A:\music\Samantha Fish, Cassie Taylor & Dani Wilde - Girls With Guitars\12 - Jet Airliner.wav

Peak level 96.6 %
Extraction speed 2.0 X
Track quality 100.0 %
Test CRC BCAF3990
Copy CRC BCAF3990
Accurately ripped (confidence 2) [A3CFA2D0]
Copy OK


All tracks accurately ripped

No errors occurred

End of status report

==== Log checksum F2077A0EB69AA3BF93BDB9E7BB968C667718F91CBC5F548912228FEC6E7A3EA3 ====

[CUETools log; Date: 07.12.2017 20:30:09; Version: 2.1.4]
[CTDB TOCID: s1QQLa1aN0JYuhM4eX1hPB3oeYY-] found.
Track | CTDB Status
1 | (41/42) Accurately ripped
2 | (42/42) Accurately ripped
3 | (42/42) Accurately ripped
4 | (42/42) Accurately ripped
5 | (42/42) Accurately ripped
6 | (42/42) Accurately ripped
7 | (42/42) Accurately ripped
8 | (42/42) Accurately ripped
9 | (42/42) Accurately ripped
10 | (42/42) Accurately ripped
11 | (42/42) Accurately ripped
12 | (41/42) Accurately ripped
[AccurateRip ID: 001324e5-00b4522d-920a800c] found.
Track [ CRC | V2 ] Status
01 [3629e498|fa95f438] (11+19/38) Accurately ripped
02 [6f2aba2c|32acdf30] (11+21/40) Accurately ripped
03 [06b687d3|9ab3f991] (11+21/40) Accurately ripped
04 [929793d8|ec932652] (11+21/40) Accurately ripped
05 [dda783b4|0c45d35b] (11+21/40) Accurately ripped
06 [731455cc|896b1d6a] (11+21/40) Accurately ripped
07 [135167e5|dc36ddac] (11+21/40) Accurately ripped
08 [749dc5e9|e72a7ef9] (11+21/40) Accurately ripped
09 [cbd5053f|2edae37e] (11+21/40) Accurately ripped
10 [57a15429|4c9da1fb] (11+21/40) Accurately ripped
11 [fba80bf9|7b10a9d3] (11+21/40) Accurately ripped
12 [a3cfa2d0|f69e4400] (09+21/38) Accurately ripped
Offsetted by 30:
01 [4e9246a9] (00/38) No match (V2 was not tested)
02 [06fada00] (00/40) No match (V2 was not tested)
03 [b6d483f7] (00/40) No match (V2 was not tested)
04 [dab68020] (00/40) No match (V2 was not tested)
05 [e2795427] (00/40) No match (V2 was not tested)
06 [34217cd1] (00/40) No match (V2 was not tested)
07 [6ed5aac1] (00/40) No match (V2 was not tested)
08 [0b2ef425] (00/40) No match (V2 was not tested)
09 [f486f84f] (00/40) No match (V2 was not tested)
10 [18012137] (00/40) No match (V2 was not tested)
11 [94e08766] (00/40) No match (V2 was not tested)
12 [915a7647] (00/38) No match (V2 was not tested)

Track Peak [ CRC32 ] [W/O NULL] [ LOG ]
– 96,6 [1E360764] [DF709145]
01 96,6 [DEA4D943] [BD67828C] CRC32
02 96,6 [7AC46D07] [F5CD147F] CRC32
03 96,6 [CD0C5835] [45FBD35E] CRC32
04 96,6 [4A494D4D] [DF1DFACB] CRC32
05 96,6 [22E6A106] [B3A6E3FB] CRC32
06 96,6 [507AB9C0] [32AD578A] CRC32
07 96,6 [F4B85520] [3E853CB5] CRC32
08 96,6 [A585BD74] [20D959E5] CRC32
09 96,6 [BA04EEC2] [CC071EA8] CRC32
10 96,6 [CC048F18] [3372EC77] CRC32
11 96,6 [6165617A] [2DB960BA] CRC32
12 96,6 [BCAF3990] [CDE5E828] CRC32

foobar2000 1.2 / Dynamic Range Meter 1.1.1
log date: 2017-12-07 21:20:19

––––––––––––––––––––––––––––––––––––––––
Analyzed: Dani Wilde, Samantha Fish, Cassie Taylor / Girls With Guitars
––––––––––––––––––––––––––––––––––––––––

DR Peak RMS Duration Track
––––––––––––––––––––––––––––––––––––––––
DR6 -0.30 dB -7.48 dB 3:39 01-Bitch
DR7 -0.30 dB -7.79 dB 2:44 02-Satisfy My Soul
DR7 -0.30 dB -9.17 dB 3:34 03-Mr. Loving Man
DR7 -0.30 dB -9.37 dB 4:12 04-We Ain't Gonna Get Out Alive
DR10 -0.30 dB -12.73 dB 2:55 05-Reason To Stay
DR6 -0.30 dB -7.68 dB 3:22 06-Get Back
DR7 -0.30 dB -8.44 dB 4:46 07-Come On Home
DR6 -0.30 dB -8.97 dB 3:39 08-Leaving Chicago
DR8 -0.30 dB -9.41 dB 3:24 09-Wait A Minute
DR7 -0.30 dB -8.90 dB 3:40 10-Move On
DR7 -0.30 dB -8.21 dB 4:23 11-Are You Ready
DR7 -0.30 dB -7.94 dB 4:31 12-Jet Airliner
––––––––––––––––––––––––––––––––––––––––

Number of tracks: 12
Official DR value: DR7

Samplerate: 44100 Hz
Channels: 2
Bits per sample: 16
Bitrate: 1020 kbps
Codec: FLAC
================================================================================

Samantha Fish, Cassie Taylor & Dani Wilde - Girls With Guitars (2011)

Samantha Fish, Cassie Taylor & Dani Wilde - Girls With Guitars (2011)

All thanks to original releaser

More interesting music in My Blog