Subcategories

Samantha Fox: Collection. 4CD + DVD (1986-2002)

Posted By: v3122
Samantha Fox: Collection. 4CD + DVD (1986-2002)

Samantha Fox: Collection. 4CD + DVD (1986-2002)
EAC | Flac(Image) + Cue + Log & MP3 CBR 320Kbps
4CD | Alfa Records, Zomba Records, XIII Bis | ~ 1347 or 502 Mb | Scans(jpg) -> 95 Mb
DVD5: PAL 4:3 (720x576) VBR | Dolby AC3, 2 ch -> 3.48 Gb
Pop, Electronic, Hi NRG, Synth-pop

Samantha Karen Fox (born 15 April 1966) is an English singer, songwriter, actress and former glamour model. In 1983, at age 16, she began appearing as a topless model on Page 3 of British tabloid newspaper The Sun, and continued as a Page 3 girl until 1986. During this time, she became the most popular pin-up girl of her era, as well as one of the most photographed British women of the 1980s.

In 1986, she launched her pop music career with her debut single "Touch Me (I Want Your Body)", which peaked at number-one in 17 countries. In 1988, Fox received a Brit Award nomination for Best British Female Artist. She has also appeared in a number of films and reality television shows, and has occasionally worked as a television presenter…

~ wiki
Samantha Fox: Collection. 4CD + DVD (1986-2002):

Samantha Fox: Collection. 4CD + DVD (1986-2002)

Tracklist CD1 - Touch Me 1986 -= Repost =-:
Alfa Records, Inc., Tokyo, 32XB-115

01. Touch Me (I Want Your Body) [3:51]
02. I’m All You Need [4:31]
03. Suzie, Don’t Leave Me with Your Boyfriend [3:58]
04. Wild Kinda Love [3:37]
05. Hold On Tight [3:46]
06. Do Ya Do Ya (Wanna Please Me) [3:52]
07. Want You to Want Me [3:33]
08. Baby I’m Lost for Words [3:51]
09. Rockin’ the City [3:31]
10. He’s Got Sex [3:54]

Exact Audio Copy V1.3 from 2. September 2016

EAC extraction logfile from 27. November 2017, 9:11

SAMANTHA FOX / «Touch Me» (Japan, Alfa Records, 32XB-115)

Used drive : ASUS DRW-24B3ST Adapter: 1 ID: 2

Read mode : Secure
Utilize accurate stream : Yes
Defeat audio cache : Yes
Make use of C2 pointers : No

Read offset correction : 6
Overread into Lead-In and Lead-Out : No
Fill up missing offset samples with silence : Yes
Delete leading and trailing silent blocks : No
Null samples used in CRC calculations : Yes
Used interface : Native Win32 interface for Win NT & 2000

Used output format : User Defined Encoder
Selected bitrate : 1024 kBit/s
Quality : High
Add ID3 tag : No
Command line compressor : C:\Program Files\EAC(v.1.3)\WV\wavpack.exe
Additional command line options : -h -hh -m %source%


TOC of the extracted CD

Track | Start | Length | Start sector | End sector
––––––––––––––––––––––––––––-
1 | 0:00.00 | 3:50.67 | 0 | 17316
2 | 3:50.67 | 4:30.40 | 17317 | 37606
3 | 8:21.32 | 3:58.30 | 37607 | 55486
4 | 12:19.62 | 3:37.25 | 55487 | 71786
5 | 15:57.12 | 3:45.48 | 71787 | 88709
6 | 19:42.60 | 3:52.22 | 88710 | 106131
7 | 23:35.07 | 3:33.10 | 106132 | 122116
8 | 27:08.17 | 3:50.73 | 122117 | 139439
9 | 30:59.15 | 3:30.40 | 139440 | 155229
10 | 34:29.55 | 3:53.50 | 155230 | 172754


Range status and errors

Selected range

Filename F:\SAMANTHA FOX «Touch Me» (JP 1986 Alfa Records, Inc., Tokyo • 32XB-115)\SAMANTHA FOX «Touch Me» (Japan, Alfa Records, 32XB-115).wav

Peak level 81.3 %
Extraction speed 6.8 X
Range quality 99.9 %
Test CRC 838F547E
Copy CRC 838F547E
Copy OK

No errors occurred


AccurateRip summary

Track 1 accurately ripped (confidence 10) [09153207] (AR v2)
Track 2 accurately ripped (confidence 10) [6DA67BDB] (AR v2)
Track 3 accurately ripped (confidence 10) [D4E31229] (AR v2)
Track 4 accurately ripped (confidence 10) [90CCCA72] (AR v2)
Track 5 accurately ripped (confidence 10) [33639932] (AR v2)
Track 6 accurately ripped (confidence 10) [71C81CF1] (AR v2)
Track 7 accurately ripped (confidence 10) [D3FF081C] (AR v2)
Track 8 accurately ripped (confidence 10) [C33D8D80] (AR v2)
Track 9 accurately ripped (confidence 10) [0C7E085C] (AR v2)
Track 10 accurately ripped (confidence 10) [3F4ADECA] (AR v2)

All tracks accurately ripped

End of status report

==== Log checksum 43C2BD117F72510295FCC13F1E6A2AD5AECAC8AB5C300E51F51B90EB31EF4A28 ====


[CUETools log; Date: 08.12.2017 12:47:44; Version: 2.1.5]
[AccurateRip ID: 000ebfb6-00754f58-7308ff0a] found.
Track [ CRC | V2 ] Status
01 [10a7fdf6|09153207] (00+10/10) Accurately ripped
02 [f920ab0a|6da67bdb] (00+10/10) Accurately ripped
03 [0087b07a|d4e31229] (00+10/10) Accurately ripped
04 [cdd8657f|90ccca72] (00+10/10) Accurately ripped
05 [86ca6766|33639932] (00+10/10) Accurately ripped
06 [e5ab5703|71c81cf1] (00+10/10) Accurately ripped
07 [7b884360|d3ff081c] (00+10/10) Accurately ripped
08 [8a98c09c|c33d8d80] (00+10/10) Accurately ripped
09 [9ac6dfc0|0c7e085c] (00+10/10) Accurately ripped
10 [c2c8483f|3f4adeca] (00+10/10) Accurately ripped

Track Peak [ CRC32 ] [W/O NULL] [ LOG ]
– 81,3 [838F547E] [ACAC1813] CRC32
01 64,5 [469AD4D5] [F3086998]
02 64,4 [0517285F] [98FAFBAA]
03 67,1 [5B53386B] [41CE296F]
04 71,2 [23BF25E9] [D3066F5E]
05 59,5 [C63CBA04] [9856F83E]
06 66,9 [AC6E1334] [09969952]
07 73,2 [496D01A7] [E8EC5764]
08 71,4 [326A687F] [180F4C2D]
09 77,0 [6E5F4B37] [6D0B5F5F]
10 81,3 [60A99EFD] [47B01CDE]


Samantha Fox: Collection. 4CD + DVD (1986-2002)

Tracklist CD2 - Samantha Fox 1987:
Alfa Records, Inc., Tokyo, 32XB-170

01. (I Can’t Get No) Satisfaction [5:37]
02. I Surrender (To the Spirit of the Night) [3:52]
03. I Promise You [3:57]
04. Naughty Girls [5:15]
05. True Devotion [4:38]
06. Nothing’s Gonna Stop Me Now [3:46]
07. If Music be the Food of Love [4:52]
08. That Sensation [4:21]
09. Dream City [4:55]
10. The Best is Yet to Come [4:52]
11. Nothing’s Gonna Stop Me Now (Extended) [7:05]

Exact Audio Copy V1.3 from 2. September 2016

EAC extraction logfile from 27. November 2017, 9:11

SAMANTHA FOX / «Samantha Fox» (Japan, Alfa Records, 32XB-170)

Used drive : ASUS DRW-24B3ST Adapter: 1 ID: 1

Read mode : Secure
Utilize accurate stream : Yes
Defeat audio cache : Yes
Make use of C2 pointers : No

Read offset correction : 6
Overread into Lead-In and Lead-Out : No
Fill up missing offset samples with silence : Yes
Delete leading and trailing silent blocks : No
Null samples used in CRC calculations : Yes
Used interface : Native Win32 interface for Win NT & 2000

Used output format : User Defined Encoder
Selected bitrate : 1024 kBit/s
Quality : High
Add ID3 tag : No
Command line compressor : C:\Program Files\EAC(v.1.3)\WV\wavpack.exe
Additional command line options : -h -hh -m %source%


TOC of the extracted CD

Track | Start | Length | Start sector | End sector
––––––––––––––––––––––––––––-
1 | 0:00.00 | 5:36.70 | 0 | 25269
2 | 5:36.70 | 3:52.37 | 25270 | 42706
3 | 9:29.32 | 3:56.45 | 42707 | 60451
4 | 13:26.02 | 5:14.55 | 60452 | 84056
5 | 18:40.57 | 4:37.73 | 84057 | 104904
6 | 23:18.55 | 3:46.02 | 104905 | 121856
7 | 27:04.57 | 4:52.28 | 121857 | 143784
8 | 31:57.10 | 4:21.35 | 143785 | 163394
9 | 36:18.45 | 4:55.25 | 163395 | 185544
10 | 41:13.70 | 4:51.60 | 185545 | 207429
11 | 46:05.55 | 7:05.07 | 207430 | 239311


Range status and errors

Selected range

Filename F:\SAMANTHA FOX «Samantha Fox» (JP 1987 Alfa Records, Inc., Tokyo • 32XB-170)\SAMANTHA FOX «Samantha Fox» (Japan, Alfa Records, 32XB-170).wav

Peak level 94.2 %
Extraction speed 7.6 X
Range quality 99.9 %
Test CRC 4F7BBC84
Copy CRC 4F7BBC84
Copy OK

No errors occurred


AccurateRip summary

Track 1 accurately ripped (confidence 8) [27F76EEA] (AR v2)
Track 2 accurately ripped (confidence 8) [34E5EEFF] (AR v2)
Track 3 accurately ripped (confidence 8) [7705E5F3] (AR v2)
Track 4 accurately ripped (confidence 8) [C3E39476] (AR v2)
Track 5 accurately ripped (confidence 8) [F2EC45A0] (AR v2)
Track 6 accurately ripped (confidence 8) [59AED382] (AR v2)
Track 7 accurately ripped (confidence 8) [D4E2F904] (AR v2)
Track 8 accurately ripped (confidence 8) [89C87069] (AR v2)
Track 9 accurately ripped (confidence 8) [01F13C50] (AR v2)
Track 10 accurately ripped (confidence 8) [8DBBAD17] (AR v2)
Track 11 accurately ripped (confidence 8) [4BEBACCC] (AR v2)

All tracks accurately ripped

End of status report

==== Log checksum CA95F0DCD918047AAEDA473714406B00FAFB948E461A9CA40F849781B502098E ====


[CUETools log; Date: 08.12.2017 12:49:59; Version: 2.1.5]
[AccurateRip ID: 0015099b-00b6632f-8e0c760b] found.
Track [ CRC | V2 ] Status
01 [269380d8|27f76eea] (02+08/10) Accurately ripped
02 [5111a394|34e5eeff] (02+08/10) Accurately ripped
03 [643356d2|7705e5f3] (02+08/10) Accurately ripped
04 [952277d4|c3e39476] (02+08/10) Accurately ripped
05 [c5a7dd21|f2ec45a0] (02+08/10) Accurately ripped
06 [890b2b30|59aed382] (02+08/10) Accurately ripped
07 [976e9d79|d4e2f904] (02+08/10) Accurately ripped
08 [cd22f712|89c87069] (02+08/10) Accurately ripped
09 [5870e91b|01f13c50] (02+08/10) Accurately ripped
10 [17205b44|8dbbad17] (02+08/10) Accurately ripped
11 [900c4bba|4bebaccc] (02+08/10) Accurately ripped

Track Peak [ CRC32 ] [W/O NULL] [ LOG ]
– 94,2 [4F7BBC84] [4052950C] CRC32
01 67,0 [D52178FE] [4D39BC90]
02 66,0 [C0A3673E] [DBE895E0]
03 94,2 [D1C5F6F4] [D714707A]
04 68,2 [FE21F8B9] [758196C1]
05 70,0 [C1AA487D] [5B5131BE]
06 72,0 [D3043FD6] [5F1EA719]
07 73,9 [2FACBDD7] [558D612B]
08 73,6 [3FE4C13F] [98B9908A]
09 74,9 [B60CED0A] [29A453E1]
10 68,5 [5A2D0DC3] [3B0820D5]
11 72,1 [5DDDE691] [1DD47C42]


Samantha Fox: Collection. 4CD + DVD (1986-2002)

Tracklist CD3 - The Megamix Album 1988:
Alfa Records, Inc., Tokyo, 25XB-287

01. Touch Me (I Want Your Body) [3:57]
02. I Surrender (To the Spirit of the Night) [4:41]
03. Naughty Girls (Need Love Too) [7:43]
04. Nothing’s Gonna Stop Me Now [4:39]
05. If Music be the Food Of Love [4:13]
06. I Promise You [4:51]
07. (I Can’t Get No) Satisfaction [3:49]
08. He’s Got Sex [1:41]
09. Hold on Tight [3:27]
10. Do Ya Do Ya (Wanna Please Me) [5:14]
11. True Devotion [4:36]

Exact Audio Copy V1.3 from 2. September 2016

EAC extraction logfile from 27. November 2017, 9:40

SAMANTHA FOX / «The Megamix Album» (Japan, Alfa Records, 25XB-287)

Used drive : ASUS DRW-24B3ST Adapter: 1 ID: 2

Read mode : Secure
Utilize accurate stream : Yes
Defeat audio cache : Yes
Make use of C2 pointers : No

Read offset correction : 6
Overread into Lead-In and Lead-Out : No
Fill up missing offset samples with silence : Yes
Delete leading and trailing silent blocks : No
Null samples used in CRC calculations : Yes
Used interface : Native Win32 interface for Win NT & 2000

Used output format : User Defined Encoder
Selected bitrate : 1024 kBit/s
Quality : High
Add ID3 tag : No
Command line compressor : C:\Program Files\EAC(v.1.3)\WV\wavpack.exe
Additional command line options : -h -hh -m %source%


TOC of the extracted CD

Track | Start | Length | Start sector | End sector
––––––––––––––––––––––––––––-
1 | 0:00.00 | 3:56.45 | 0 | 17744
2 | 3:56.45 | 4:40.57 | 17745 | 38801
3 | 8:37.27 | 7:43.18 | 38802 | 73544
4 | 16:20.45 | 4:38.55 | 73545 | 94449
5 | 20:59.25 | 4:13.02 | 94450 | 113426
6 | 25:12.27 | 4:51.00 | 113427 | 135251
7 | 30:03.27 | 3:49.18 | 135252 | 152444
8 | 33:52.45 | 1:41.35 | 152445 | 160054
9 | 35:34.05 | 3:26.67 | 160055 | 175571
10 | 39:00.72 | 5:13.55 | 175572 | 199101
11 | 44:14.52 | 4:36.25 | 199102 | 219826


Range status and errors

Selected range

Filename F:\SAMANTHA FOX «The Megamix Album» (JP 1988 Alfa Records, Inc., Tokyo • 25XB-287)\SAMANTHA FOX «The Megamix Album» (Japan, Alfa Records, 25XB-287).wav

Peak level 100.0 %
Extraction speed 7.2 X
Range quality 100.0 %
Test CRC 0E0598AE
Copy CRC 0E0598AE
Copy OK

No errors occurred


AccurateRip summary

Track 1 accurately ripped (confidence 3) [A95989A8] (AR v2)
Track 2 accurately ripped (confidence 3) [0F0F6201] (AR v2)
Track 3 accurately ripped (confidence 3) [B1DB027B] (AR v2)
Track 4 accurately ripped (confidence 3) [D6DEB7F6] (AR v2)
Track 5 accurately ripped (confidence 3) [59CE8864] (AR v2)
Track 6 accurately ripped (confidence 3) [EF961564] (AR v2)
Track 7 accurately ripped (confidence 3) [713B51F1] (AR v2)
Track 8 accurately ripped (confidence 3) [B3F62435] (AR v2)
Track 9 accurately ripped (confidence 3) [B0DC5C62] (AR v2)
Track 10 accurately ripped (confidence 3) [F4D09CEC] (AR v2)
Track 11 accurately ripped (confidence 3) [F5B89CBA] (AR v2)

All tracks accurately ripped

End of status report

==== Log checksum A806A5F0DE5010C18319196A933F5F176349355E188BFAD2AC861BFB69134A84 ====


[CUETools log; Date: 08.12.2017 12:52:58; Version: 2.1.5]
[AccurateRip ID: 00150f7e-00b3e4a2-870b730b] found.
Track [ CRC | V2 ] Status
01 [37202cac|a95989a8] (2+3/5) Accurately ripped
02 [f94cd0c3|0f0f6201] (2+3/5) Accurately ripped
03 [6b964aab|b1db027b] (2+3/5) Accurately ripped
04 [25c028ad|d6deb7f6] (2+3/5) Accurately ripped
05 [e6748cc7|59ce8864] (2+3/5) Accurately ripped
06 [5b1f4d88|ef961564] (2+3/5) Accurately ripped
07 [76bb87ac|713b51f1] (2+3/5) Accurately ripped
08 [48a0f95e|b3f62435] (2+3/5) Accurately ripped
09 [428d945f|b0dc5c62] (2+3/5) Accurately ripped
10 [5f4eba9c|f4d09cec] (2+3/5) Accurately ripped
11 [5595173f|f5b89cba] (2+3/5) Accurately ripped

Track Peak [ CRC32 ] [W/O NULL] [ LOG ]
– 100,0 [0E0598AE] [B2959C32] CRC32
01 100,0 [888BA771] [8EE3B2B2]
02 82,0 [E0FD81E6] [42C543BF]
03 95,3 [D02CD58B] [C2064B6F]
04 82,7 [63D79B6E] [4D420CF3]
05 77,4 [743B295C] [A7642CB0]
06 60,8 [A57D4E89] [D69A109E]
07 75,2 [F74CAF21] [5A720A78]
08 76,8 [257600D3] [8DF82F36]
09 77,5 [9033A6E6] [BC036D8A]
10 75,8 [07B5D345] [FF9C0882]
11 80,4 [5D42C89C] [E9BD49AD]


Samantha Fox: Collection. 4CD + DVD (1986-2002)

Tracklist CD4 - Greatest Hits 1992 -= Repost =-:
Zomba Records Ltd., 82876 53577 2

01. Touch Me (I Want Your Body) [3:47]
02. Do Ya Do Ya (Wanna Please Me) [3:49]
03. Nothing’s Gonna Stop Me Now [3:45]
04. I Only Wanna be with You [2:44]
05. I Surrender (To the Spirit of the Night) [3:56]
06. I Wanna Have Some Fun [3:59]
07. Hold On Tight [3:40]
08. Just One Night [5:53]
09. Naughty Girls (Need Love Too) [3:23]
10. I Promise You (Get Ready) [3:52]
11. (I Can’t Get No) Satisfaction [4:13]
12. Love House [3:37]
13. Another Woman (Too Many People) [3:58]
14. Spirit Of America [4:50]
15. Hot Lovin’ [3:46]
16. Giving Me a Hard Time [2:49]
17. Even in the Darkest Hours [5:29]

Exact Audio Copy V1.3 from 2. September 2016

EAC extraction logfile from 27. November 2017, 10:03

SAMANTHA FOX / «Greatest Hits» (Holland, Zomba, 82876 53577 2)

Used drive : ASUS DRW-24B3ST Adapter: 1 ID: 1

Read mode : Secure
Utilize accurate stream : Yes
Defeat audio cache : Yes
Make use of C2 pointers : No

Read offset correction : 6
Overread into Lead-In and Lead-Out : No
Fill up missing offset samples with silence : Yes
Delete leading and trailing silent blocks : No
Null samples used in CRC calculations : Yes
Used interface : Native Win32 interface for Win NT & 2000

Used output format : User Defined Encoder
Selected bitrate : 1024 kBit/s
Quality : High
Add ID3 tag : No
Command line compressor : C:\Program Files\EAC(v.1.3)\WV\wavpack.exe
Additional command line options : -h -hh -m %source%


TOC of the extracted CD

Track | Start | Length | Start sector | End sector
––––––––––––––––––––––––––––-
1 | 0:00.00 | 3:46.62 | 0 | 17011
2 | 3:46.62 | 3:48.68 | 17012 | 34179
3 | 7:35.55 | 3:45.22 | 34180 | 51076
4 | 11:21.02 | 2:43.38 | 51077 | 63339
5 | 14:04.40 | 3:55.65 | 63340 | 81029
6 | 18:00.30 | 3:58.40 | 81030 | 98919
7 | 21:58.70 | 3:39.55 | 98920 | 115399
8 | 25:38.50 | 5:53.10 | 115400 | 141884
9 | 31:31.60 | 3:23.25 | 141885 | 157134
10 | 34:55.10 | 3:52.22 | 157135 | 174556
11 | 38:47.32 | 4:12.48 | 174557 | 193504
12 | 43:00.05 | 3:37.10 | 193505 | 209789
13 | 46:37.15 | 3:58.20 | 209790 | 227659
14 | 50:35.35 | 4:49.42 | 227660 | 249376
15 | 55:25.02 | 3:45.65 | 249377 | 266316
16 | 59:10.67 | 2:48.50 | 266317 | 278966
17 | 61:59.42 | 5:28.38 | 278967 | 303604


Range status and errors

Selected range

Filename F:\SAMANTHA FOX «Greatest Hits» (NL 1992 Zomba Records Ltd. • 82876 53577 2)\SAMANTHA FOX «Greatest Hits» (Holland, Zomba, 82876 53577 2).wav

Peak level 100.0 %
Extraction speed 7.8 X
Range quality 99.9 %
Test CRC 0D9A87FD
Copy CRC 0D9A87FD
Copy OK

No errors occurred


AccurateRip summary

Track 1 accurately ripped (confidence 3) [AFE8DCA0] (AR v1)
Track 2 accurately ripped (confidence 3) [0C4822E4] (AR v1)
Track 3 accurately ripped (confidence 3) [80DB0F20] (AR v1)
Track 4 accurately ripped (confidence 3) [A890C856] (AR v1)
Track 5 accurately ripped (confidence 3) [AAE5F072] (AR v1)
Track 6 accurately ripped (confidence 3) [1CDE6E8C] (AR v1)
Track 7 accurately ripped (confidence 3) [FB57080B] (AR v1)
Track 8 accurately ripped (confidence 3) [3EAAF890] (AR v1)
Track 9 accurately ripped (confidence 3) [DA012A10] (AR v1)
Track 10 accurately ripped (confidence 3) [C4BA1913] (AR v1)
Track 11 accurately ripped (confidence 3) [6E0D2CEC] (AR v1)
Track 12 accurately ripped (confidence 3) [119929A6] (AR v1)
Track 13 accurately ripped (confidence 3) [460311EF] (AR v1)
Track 14 accurately ripped (confidence 3) [3AA63F5D] (AR v1)
Track 15 accurately ripped (confidence 3) [ED0F2957] (AR v1)
Track 16 accurately ripped (confidence 3) [7DE46B4E] (AR v1)
Track 17 accurately ripped (confidence 3) [0747DFBD] (AR v1)

All tracks accurately ripped

End of status report

==== Log checksum 654564BBD9104920CD7F8ED8AFC1230DEC94B083CB1089D293064997F53CAC29 ====


[CUETools log; Date: 08.12.2017 12:55:57; Version: 2.1.5]
[AccurateRip ID: 0028a54d-020664d5-f70fd011] found.
Track [ CRC | V2 ] Status
01 [afe8dca0|4edfb712] (3+0/5) Accurately ripped
02 [0c4822e4|dc20def3] (3+0/5) Accurately ripped
03 [80db0f20|8f7accb3] (3+0/5) Accurately ripped
04 [a890c856|2466e45b] (3+0/5) Accurately ripped
05 [aae5f072|86d8ecd6] (3+0/5) Accurately ripped
06 [1cde6e8c|ad1fa36d] (3+0/5) Accurately ripped
07 [fb57080b|af1c0225] (3+0/5) Accurately ripped
08 [3eaaf890|8898f780] (3+0/5) Accurately ripped
09 [da012a10|750d3e24] (3+0/5) Accurately ripped
10 [c4ba1913|d875527a] (3+0/5) Accurately ripped
11 [6e0d2cec|d5e23363] (3+0/5) Accurately ripped
12 [119929a6|33768c7e] (3+0/5) Accurately ripped
13 [460311ef|63389e7e] (3+0/5) Accurately ripped
14 [3aa63f5d|eced502f] (3+0/5) Accurately ripped
15 [ed0f2957|854e149c] (3+0/5) Accurately ripped
16 [7de46b4e|40e48e48] (3+0/5) Accurately ripped
17 [0747dfbd|d646648d] (3+0/5) Accurately ripped
Offsetted by 1930:
01 [9b5976ac] (2/5) Accurately ripped
02 [69ff118f] (2/5) Accurately ripped
03 [e3e7cbba] (2/5) Accurately ripped
04 [1274278e] (2/5) Accurately ripped
05 [374aec35] (2/5) Accurately ripped
06 [bd355a59] (2/5) Accurately ripped
07 [ecab7603] (2/5) Accurately ripped
08 [00db027f] (2/5) Accurately ripped
09 [6c0dd8a5] (2/5) Accurately ripped
10 [d18840d8] (2/5) Accurately ripped
11 [ea6b457f] (2/5) Accurately ripped
12 [fd6b964f] (2/5) Accurately ripped
13 [b3284508] (2/5) Accurately ripped
14 [345e8608] (2/5) Accurately ripped
15 [81fcd630] (2/5) Accurately ripped
16 [7629b552] (2/5) Accurately ripped
17 [6d1d4dc6] (2/5) Accurately ripped

Track Peak [ CRC32 ] [W/O NULL] [ LOG ]
– 100,0 [0D9A87FD] [079F37CD] CRC32
01 100,0 [0C66DF0C] [10355914]
02 81,6 [A8F14EFA] [5B4552CE]
03 97,0 [57232A75] [155AAB74]
04 94,0 [E9ACE240] [EC308ADA]
05 98,9 [4926E7C5] [B012C772]
06 88,2 [8EBA9EE8] [B57F634D]
07 98,0 [55A59F2C] [5AD0BFC2]
08 74,7 [6745E1B2] [04040EE5]
09 88,6 [E54B120C] [7082DD3E]
10 77,4 [1C782F1A] [D975644E]
11 86,7 [F7A1D5ED] [07E1D173]
12 91,0 [B6027DF1] [55DC750C]
13 70,1 [420670BD] [A05D6F50]
14 73,7 [F0C97F5B] [25916405]
15 72,2 [08E45390] [4443F849]
16 85,0 [B1A4F934] [1790463E]
17 82,6 [E2110EC6] [A1985CE3]


Samantha Fox: Collection. 4CD + DVD (1986-2002)

DVD - All around the world 2002:
XIII Bis Records

More than a sex symbol or a simple pop star, Samantha Fox is a genuine legend in the music world. The queen of the 80s is back after numerous tours all over the world (USA, Europe, Russia, Japan, India), Sam Fox, speaks openly about these glorious years in the film "All Around the World".

As a bonus, 2 exclusive video clips
- Santa Maria
- Let Me Be Free
extracts from her latest album "Watching You Watching Me".

She invites us to visit her private gallery, unveiling photos that have made magazine covers the world over.

Title: DVD1. 2002 - All Around The World
Size: 3.19 Gb ( 3 345 170,00 KBytes ) - DVD-5
Enabled regions: 1, 2, 3, 4, 5, 6, 7, 8

VTS_01 :
Play Length: 00:00:07+00:00:00+00:00:11+00:51:13+00:03:00+00:03:51+00:00:00+{00:00:00}+{00:00:00}+{00:00:00}+{00:00:00}+{00:00:00}+{00:00:00}+{00:00:00}+{00:00:00}+{00:00:00}+{00:00:00}+{00:00:00}+{00:00:00}+{00:00:00}
Video: PAL 4:3 (720x576) VBR
Audio:
Not specified (Dolby AC3, 2 ch)


Samantha Fox: Collection. 4CD + DVD (1986-2002)

Samantha Fox: Collection. 4CD + DVD (1986-2002)

Samantha Fox: Collection. 4CD + DVD (1986-2002)

Samantha Fox: Collection. 4CD + DVD (1986-2002)

Samantha Fox: Collection. 4CD + DVD (1986-2002)

All thanks go to the original releasers

Download Samantha Fox: Collection. 4CD + DVD (1986-2002):