Subcategories

Santana + Jeff Beck + Steve Lukather - Lotus Gem (1992)

Posted By: v3122
Santana + Jeff Beck + Steve Lukather - Lotus Gem (1992)

Santana + Jeff Beck + Steve Lukather - Lotus Gem (1992)
EAC | Flac(Image) + Cue + Log & M4A(Tracks) & MP3 CBR 320Kbps
2CD | Phonocomp, BUC 037/2 | ~ 633 or 640 or 235 Mb | Scans Included
Rock / Hard Rock / Instrumental Rock / Fusion

~ Recorded Live In Japan june 1, 1986 ~

Santana + Jeff Beck + Steve Lukather - Lotus Gem (1992):

Santana + Jeff Beck + Steve Lukather - Lotus Gem (1992)

Tracklist CD1:

01 - Into/Primaera Invasion (Santana)
02 - Black Magic Woman (Santana)
03 - Open Invitation (Santana, Lukather)
04 - Starcycle (Beck)
05 - Cause It Ended For Lovers (Beck)
06 - Wild Thing (Beck)
07 - Freeway jam (Beck, Lukather)
08 - Going Down (Beck, Lukather)
09 - Escape (Beck, Lukather)

Exact Audio Copy V0.99 prebeta 4 from 23. January 2008

EAC extraction logfile from 1. November 2012, 20:01

Santana Band, Jeff Beck Band, Steve Lukather / Lotus Gem CD1

Used drive : ATAPI iHAS524 B Adapter: 0 ID: 0

Read mode : Secure
Utilize accurate stream : Yes
Defeat audio cache : Yes
Make use of C2 pointers : No

Read offset correction : 6
Overread into Lead-In and Lead-Out : No
Fill up missing offset samples with silence : Yes
Delete leading and trailing silent blocks : No
Null samples used in CRC calculations : Yes
Used interface : Installed external ASPI interface

Used output format : Internal WAV Routines
Sample format : 44.100 Hz; 16 Bit; Stereo


TOC of the extracted CD

Track | Start | Length | Start sector | End sector
––––––––––––––––––––––––––––-
1 | 0:00.33 | 4:51.00 | 33 | 21857
2 | 4:51.33 | 3:21.15 | 21858 | 36947
3 | 8:12.48 | 6:55.60 | 36948 | 68132
4 | 15:08.33 | 4:20.40 | 68133 | 87672
5 | 19:28.73 | 4:35.27 | 87673 | 108324
6 | 24:04.25 | 4:38.45 | 108325 | 129219
7 | 28:42.70 | 7:55.13 | 129220 | 164857
8 | 36:38.08 | 4:55.00 | 164858 | 186982
9 | 41:33.08 | 5:34.25 | 186983 | 212057


Range status and errors

Selected range

Filename D:\Torrents\Мои_раздачи\_Планируемое\Santana Band, Jeff Beck Band, Steve Lukather - Lotus Gem\CD1\Santana Band, Jeff Beck Band, Steve Lukather - Lotus Gem CD1.wav

Peak level 100.0 %
Range quality 100.0 %
Copy CRC C9A473C6
Copy OK

No errors occurred


AccurateRip summary

Track 1 not present in database
Track 2 not present in database
Track 3 not present in database
Track 4 not present in database
Track 5 not present in database
Track 6 not present in database
Track 7 not present in database
Track 8 not present in database
Track 9 not present in database

None of the tracks are present in the AccurateRip database

End of status report

foobar2000 1.2.9 / Dynamic Range Meter 1.1.1
log date: 2014-09-12 13:00:28

––––––––––––––––––––––––––––––––––––––––
Analyzed: Santana Band, Jeff Beck Band, Steve Lukather / Lotus Gem CD1
––––––––––––––––––––––––––––––––––––––––

DR Peak RMS Duration Track
––––––––––––––––––––––––––––––––––––––––
DR9 -1.41 dB -12.29 dB 4:51 01-Intro ~ Primera Invasion
DR9 -2.17 dB -13.08 dB 3:21 02-Black Magic Woman
DR10 -1.66 dB -13.33 dB 6:56 03-Open Invitation
DR9 -1.90 dB -12.57 dB 4:21 04-Star Cycle
DR10 -1.29 dB -13.18 dB 4:35 05-Cause We've Ended As Lovers
DR9 -2.02 dB -12.68 dB 4:39 06-Wild Thing
DR10 -1.40 dB -13.00 dB 7:55 07-Freeway Jam
DR10 -2.10 dB -13.16 dB 4:55 08-Going Down
DR13 0.00 dB -15.64 dB 5:34 09-Escape
––––––––––––––––––––––––––––––––––––––––

Number of tracks: 9
Official DR value: DR10

Samplerate: 44100 Hz
Channels: 2
Bits per sample: 16
Bitrate: 921 kbps
Codec: FLAC

Santana + Jeff Beck + Steve Lukather - Lotus Gem (1992)

Tracklist CD2:

01 - Super Boogie (Santana, Beck, Lukather)
02 - Lotus Blues (Santana, Beck, Lukather)
03 - People Get Ready (Santana, Beck, Lukather)
04 - Johnny B. Goode (Santana, Beck, Lukather)
05 - Goodbye porkpie Hat (Beck)
06 - Love will (Beck)
07 - Ambitious (Santana, Beck)
08 - Stop look and listen (Santana, Beck)
09 - Blue wind (Santana, Beck)

Exact Audio Copy V0.99 prebeta 4 from 23. January 2008

EAC extraction logfile from 1. November 2012, 19:32

Santana Band, Jeff Beck Band, Steve Lukather / Lotus Gem CD2

Used drive : ATAPI iHAS524 B Adapter: 0 ID: 0

Read mode : Secure
Utilize accurate stream : Yes
Defeat audio cache : Yes
Make use of C2 pointers : No

Read offset correction : 6
Overread into Lead-In and Lead-Out : No
Fill up missing offset samples with silence : Yes
Delete leading and trailing silent blocks : No
Null samples used in CRC calculations : Yes
Used interface : Installed external ASPI interface

Used output format : Internal WAV Routines
Sample format : 44.100 Hz; 16 Bit; Stereo


TOC of the extracted CD

Track | Start | Length | Start sector | End sector
––––––––––––––––––––––––––––-
1 | 0:00.32 | 5:06.05 | 32 | 22986
2 | 5:06.37 | 6:00.38 | 22987 | 50024
3 | 11:07.00 | 5:53.25 | 50025 | 76524
4 | 17:00.25 | 6:59.50 | 76525 | 107999
5 | 24:00.00 | 4:36.50 | 108000 | 128749
6 | 28:36.50 | 5:34.62 | 128750 | 153861
7 | 34:11.37 | 1:26.13 | 153862 | 160324
8 | 35:37.50 | 4:46.00 | 160325 | 181774
9 | 40:23.50 | 6:30.25 | 181775 | 211049


Range status and errors

Selected range

Filename D:\Torrents\Мои_раздачи\_Планируемое\Santana Band, Jeff Beck Band, Steve Lukather - Lotus Gem\CD2\Santana Band, Jeff Beck Band, Steve Lukather - Lotus Gem CD2.wav

Peak level 100.0 %
Range quality 100.0 %
Copy CRC B7387493
Copy OK

No errors occurred


AccurateRip summary

Track 1 not present in database
Track 2 not present in database
Track 3 not present in database
Track 4 not present in database
Track 5 not present in database
Track 6 not present in database
Track 7 not present in database
Track 8 not present in database
Track 9 not present in database

None of the tracks are present in the AccurateRip database

End of status report

foobar2000 1.2.9 / Dynamic Range Meter 1.1.1
log date: 2014-09-18 14:38:15

––––––––––––––––––––––––––––––––––––––––
Analyzed: Santana Band, Jeff Beck Band, Steve Lukather / Lotus Gem CD2
––––––––––––––––––––––––––––––––––––––––

DR Peak RMS Duration Track
––––––––––––––––––––––––––––––––––––––––
DR10 -2.58 dB -13.45 dB 5:06 01-Super Boogie
DR9 -1.81 dB -12.90 dB 6:01 02-Lotus Blues
DR9 -2.17 dB -12.25 dB 5:53 03-People Get Ready
DR9 -1.88 dB -12.41 dB 7:00 04-Johnny B Goode
DR13 -0.36 dB -16.08 dB 4:37 05-Love Will
DR14 -0.90 dB -16.74 dB 5:35 06-Ambitious
DR11 -2.71 dB -17.47 dB 1:26 07-Goodbye Pork Pie Hat
DR14 0.00 dB -15.84 dB 4:46 08-Stop, Look And Listen
DR14 0.00 dB -16.12 dB 6:30 09-Blue Wind
––––––––––––––––––––––––––––––––––––––––

Number of tracks: 9
Official DR value: DR11

Samplerate: 44100 Hz
Channels: 2
Bits per sample: 16
Bitrate: 868 kbps
Codec: FLAC

Santana + Jeff Beck + Steve Lukather - Lotus Gem (1992)

Musicians:

Steve Lukather - Guitars
Carlos Santana - Guitars
Jeff Beck - Guitars

Beck's band:

Jan Hammer - Keyboards
Simon Phillips - Drums
Jimmy Hall Vocals & Sax
Doug Wimbish - Bass

Santana's band:

George Miles - Vocals
Chester Thompson - Keyboards
Armando Peraza - Congas
Orestes Vilato - Timbales
Tom Coster - Keyboards
Graham Lear - Drums
Paul Rekow - Percussion

––-

All thanks go to Dr_Britva