Subcategories

Black Lips - Satan’s Grafitti or God’s Art? (2017)

Posted By: SERTiL
Black Lips - Satan’s Grafitti or God’s Art? (2017)

Black Lips - Satan’s Grafitti or God’s Art?
EAC Rip | FLAC (tracks)+cue, log, m3u, front cover | 55:43 min | 360 MB
Label: Vice Records ‎– VCA207009 | Tracks: 18 | Rls.date: 2017
Garage Rock

Rowdy 2017 album from the Atlanta garage-rock stayers … their first in 3 years! Produced by Sean Lennon. Cameos by Saul Adamczewski (Fat White Family) and Yoko Ono. Includes "Squatting In Heaven", plus a cover of The Beatles' "It Won't Be Long".

Tracklist:
01 Overture: Sunday Mourning
02 Occidental Front
03 Can’t Hold On
04 The Last Cul de Sac
05 Interlude: Got Me All Alone
06 Crystal Night
07 Squatting in Heaven
08 Interlude: Bongo’s Baby
09 Rebel Intuition
10 Wayne
11 Interlude: E’lektric Spider Webz
12 We Know
13 In My Mind There's a Dream
14 Lucid Nightmare
15 Come Ride With Me
16 It Won't Be Long
17 Loser’s Lament
18 Finale: Sunday Mourning

Exact Audio Copy V1.3 from 2. September 2016

EAC extraction logfile from 21. November 2017, 16:57

Black Lips / Satan's Graffiti Or God's Art

Used drive : PLDS DVD-RW DA8AESH Adapter: 1 ID: 0

Read mode : Secure
Utilize accurate stream : Yes
Defeat audio cache : Yes
Make use of C2 pointers : No

Read offset correction : 6
Overread into Lead-In and Lead-Out : No
Fill up missing offset samples with silence : Yes
Delete leading and trailing silent blocks : No
Null samples used in CRC calculations : Yes
Used interface : Native Win32 interface for Win NT & 2000
Gap handling : Appended to previous track

Used output format : User Defined Encoder
Selected bitrate : 1024 kBit/s
Quality : High
Add ID3 tag : No
Command line compressor : C:\Program Files (x86)\Exact Audio Copy\Flac\flac.exe
Additional command line options : -8 -e -p -V -T "ARTIST=%artist%" -T "TITLE=%title%" -T "ALBUM=%albumtitle%" -T "DATE=%year%" -T "TRACKNUMBER=%tracknr%" -T "GENRE=%genre%" -T "PERFORMER=%albuminterpret%" -T "COMPOSER=%composer%" %haslyrics%–tag-from-file=LYRICS="%lyricsfile%"%haslyrics% -T "ALBUMARTIST=%albumartist%" -T "DISCNUMBER=%cdnumber%" -T "TOTALDISCS=%totalcds%" -T "TOTALTRACKS=%numtracks%" -T "COMMENT=%comment%" %source% -o %dest%


TOC of the extracted CD

Track | Start | Length | Start sector | End sector
––––––––––––––––––––––––––––-
1 | 0:00.00 | 0:55.27 | 0 | 4151
2 | 0:55.27 | 2:49.29 | 4152 | 16855
3 | 3:44.56 | 4:52.31 | 16856 | 38786
4 | 8:37.12 | 3:46.68 | 38787 | 55804
5 | 12:24.05 | 3:32.19 | 55805 | 71723
6 | 15:56.24 | 3:38.00 | 71724 | 88073
7 | 19:34.24 | 3:00.11 | 88074 | 101584
8 | 22:34.35 | 0:30.69 | 101585 | 103903
9 | 23:05.29 | 3:02.19 | 103904 | 117572
10 | 26:07.48 | 4:03.27 | 117573 | 135824
11 | 30:11.00 | 2:47.46 | 135825 | 148395
12 | 32:58.46 | 4:19.30 | 148396 | 167850
13 | 37:18.01 | 4:14.59 | 167851 | 186959
14 | 41:32.60 | 3:03.51 | 186960 | 200735
15 | 44:36.36 | 3:30.15 | 200736 | 216500
16 | 48:06.51 | 2:36.24 | 216501 | 228224
17 | 50:43.00 | 4:02.12 | 228225 | 246386
18 | 54:45.12 | 1:05.48 | 246387 | 251309


Track 1

Filename C:\EAC Rips\01 Overture- Sunday Mourning.wav

Pre-gap length 0:00:02.00

Peak level 69.6 %
Extraction speed 0.7 X
Track quality 100.0 %
Test CRC 9A4348A0
Copy CRC 9A4348A0
Track not present in AccurateRip database
Copy OK

Track 2

Filename C:\EAC Rips\02 Occidental Front (ft. Yoko Ono).wav

Peak level 100.0 %
Extraction speed 1.1 X
Track quality 100.0 %
Test CRC EDFE9EE0
Copy CRC EDFE9EE0
Track not present in AccurateRip database
Copy OK

Track 3

Filename C:\EAC Rips\03 Can't Hold On.wav

Peak level 100.0 %
Extraction speed 1.3 X
Track quality 100.0 %
Test CRC 77C8076E
Copy CRC 77C8076E
Track not present in AccurateRip database
Copy OK

Track 4

Filename C:\EAC Rips\04 The Last Cul De Sav.wav

Pre-gap length 0:01:12.52

Peak level 96.4 %
Extraction speed 1.4 X
Track quality 100.0 %
Test CRC EEFAB630
Copy CRC EEFAB630
Track not present in AccurateRip database
Copy OK

Track 5

Filename C:\EAC Rips\05 Interlude- Got Me All Alone.wav

Peak level 97.4 %
Extraction speed 1.5 X
Track quality 100.0 %
Test CRC 1B12DC76
Copy CRC 1B12DC76
Track not present in AccurateRip database
Copy OK

Track 6

Filename C:\EAC Rips\06 Crystal Night.wav

Peak level 100.0 %
Extraction speed 1.6 X
Track quality 100.0 %
Test CRC 9AD788BA
Copy CRC 9AD788BA
Track not present in AccurateRip database
Copy OK

Track 7

Filename C:\EAC Rips\07 Squatting In Heaven.wav

Peak level 98.1 %
Extraction speed 1.6 X
Track quality 100.0 %
Test CRC CE91A2D5
Copy CRC CE91A2D5
Track not present in AccurateRip database
Copy OK

Track 8

Filename C:\EAC Rips\08 Interlude- Bongos Baby.wav

Peak level 94.5 %
Extraction speed 0.9 X
Track quality 100.0 %
Test CRC 48096D08
Copy CRC 48096D08
Track not present in AccurateRip database
Copy OK

Track 9

Filename C:\EAC Rips\09 Rebel Intuition.wav

Peak level 100.0 %
Extraction speed 1.4 X
Track quality 99.9 %
Test CRC 54473FFB
Copy CRC 54473FFB
Track not present in AccurateRip database
Copy OK

Track 10

Filename C:\EAC Rips\10 Wayne.wav

Peak level 95.5 %
Extraction speed 1.6 X
Track quality 99.9 %
Test CRC 5C242BD1
Copy CRC 5C242BD1
Track not present in AccurateRip database
Copy OK

Track 11

Filename C:\EAC Rips\11 Interlude- Electric Spider Webz.wav

Peak level 57.2 %
Extraction speed 1.5 X
Track quality 99.9 %
Test CRC 2BB79F1C
Copy CRC 2BB79F1C
Track not present in AccurateRip database
Copy OK

Track 12

Filename C:\EAC Rips\12 We Know.wav

Peak level 99.8 %
Extraction speed 1.9 X
Track quality 100.0 %
Test CRC 52561E03
Copy CRC 52561E03
Track not present in AccurateRip database
Copy OK

Track 13

Filename C:\EAC Rips\13 In My Mind There's A Dream.wav

Peak level 100.0 %
Extraction speed 2.0 X
Track quality 100.0 %
Test CRC 490B6035
Copy CRC 490B6035
Track not present in AccurateRip database
Copy OK

Track 14

Filename C:\EAC Rips\14 Lucid Nightmare.wav

Peak level 96.6 %
Extraction speed 2.0 X
Track quality 100.0 %
Test CRC 0064838E
Copy CRC 0064838E
Track not present in AccurateRip database
Copy OK

Track 15

Filename C:\EAC Rips\15 Come Ride With Me.wav

Peak level 100.0 %
Extraction speed 2.1 X
Track quality 100.0 %
Test CRC D16670F1
Copy CRC D16670F1
Track not present in AccurateRip database
Copy OK

Track 16

Filename C:\EAC Rips\16 It Won't Be Long.wav

Peak level 97.7 %
Extraction speed 2.0 X
Track quality 100.0 %
Test CRC 3E528011
Copy CRC 3E528011
Track not present in AccurateRip database
Copy OK

Track 17

Filename C:\EAC Rips\17 Loser's Lament.wav

Peak level 96.5 %
Extraction speed 2.2 X
Track quality 100.0 %
Test CRC C50CE3B6
Copy CRC C50CE3B6
Track not present in AccurateRip database
Copy OK

Track 18

Filename C:\EAC Rips\18 Finale- Sunday Morning.wav

Peak level 65.0 %
Extraction speed 1.6 X
Track quality 100.0 %
Test CRC ADE82CF4
Copy CRC ADE82CF4
Track not present in AccurateRip database
Copy OK


None of the tracks are present in the AccurateRip database

No errors occurred

End of status report

–– CUETools DB Plugin V2.1.6

[CTDB TOCID: A6uQDa_xAxYdHM67oHrcp_tFOIw-] found
Submit result: A6uQDa_xAxYdHM67oHrcp_tFOIw- has been confirmed
Track | CTDB Status
1 | (5/5) Accurately ripped
2 | (5/5) Accurately ripped
3 | (5/5) Accurately ripped
4 | (5/5) Accurately ripped
5 | (5/5) Accurately ripped
6 | (5/5) Accurately ripped
7 | (5/5) Accurately ripped
8 | (5/5) Accurately ripped
9 | (5/5) Accurately ripped
10 | (5/5) Accurately ripped
11 | (5/5) Accurately ripped
12 | (5/5) Accurately ripped
13 | (5/5) Accurately ripped
14 | (5/5) Accurately ripped
15 | (5/5) Accurately ripped
16 | (5/5) Accurately ripped
17 | (5/5) Accurately ripped
18 | (5/5) Accurately ripped


==== Log checksum 45CB34146BF87ECB7C1D2B46EE4FE078BA3C427C67BE8FBD52670C557EA45B7B ====


Thanks to the Original customer.