Subcategories

VA - Saturday Night Fever. The Original Movie Sound Track (1977) [2007, Warner Music Japan, WPCR-28565]

Posted By: v3122
VA - Saturday Night Fever. The Original Movie Sound Track (1977) [2007, Warner Music Japan, WPCR-28565]

VA - Saturday Night Fever. The Original Movie Sound Track (1977)
EAC | Flac(Image) + Cue + Log & MP3 CBR 320Kbps
Warner Music Japan, WPCR-28565 | ~ 566 or 190 Mb | Scans Included
Soundtrack / Disco

Every so often, a piece of music comes along that defines a moment in popular culture history: Johann Strauss' operetta Die Fledermaus did this in Vienna in the 1870s; Jerome Kern's Show Boat did it for Broadway musicals of the 1920s; and the Beatles' Sgt. Pepper's Lonely Hearts Club Band album served this purpose for the era of psychedelic music in the 1960s. Saturday Night Fever, although hardly as prodigious an artistic achievement as those precursors, was precisely that kind of musical phenomenon for the second half of the '70s – ironically, at the time before its release, the disco boom had seemingly run its course, primarily in Europe, and was confined mostly to black culture and the gay underground in America. Saturday Night Fever, as a movie and an album, and a brace of hit singles off of it, suddenly made disco explode into mainstream, working- and middle-class America with new immediacy and urgency, increasing its audience by five- or ten-fold overnight. The Bee Gees had written "Stayin' Alive" (then called "Saturday Night"), "Night Fever," "How Deep Is Your Love," "If I Can't Have You," and "More Than a Woman" for what would have been the follow-up album to Children of the World, and they might well have enjoyed platinum-record status with that proposed album. Instead, Robert Stigwood asked them in early 1977 to contribute songs to the soundtrack of a movie that he was financing, a low-budget picture called "Tribal Rites on a Saturday Night." More out of loyalty to him than any belief in the viability of the film, they obliged; the group's involvement even survived the decision by the original director, John Avildsen, that he didn't want their music in the film – instead, Stigwood fired him and brought in the very talented but much more agreeable John Badham, the movie's title was changed to Saturday Night Fever, The Bee Gees' music stayed, and the result was the biggest-selling soundtrack album in history, a 25 million copy monster whose sales, even as a more expensive double-LP, dwarfed the multi-million units sold of Children of the World and Main Course. Strangely enough, for all of the fixation of the movie and its audience on dancing, the Bee Gees' new songs were weighted equally toward ethereal ballads, which may be one reason for the soundtrack album's appeal – it delivers what its audience expects, plus a "bonus" in the form of the soaring, lyrical romantic numbers that were, as with most ventures by the Gibb Brothers in this area, virtually irresistible. Despite the presence of other artists, Saturday Night Fever is virtually indispensable as a Bee Gees album, not just for the presence of an array of songs that were hits in their own right – and which became the de facto soundtrack to a half-decade of pop culture history – but because it offered the Gibb Brothers as composers as well as artists, their work recorded by Yvonne Elliman ("If I Can't Have You"), and Tavares ("More Than a Woman"), and it placed their music alongside the work of Kool & the Gang and MFSB; in essence, the layout of the soundtrack release was the culmination of everything they'd been moving toward since the Mr. Natural album. Even the presence of David Shire's "Night on Disco Mountain" and "Salsation" and Walter Murphy's "A Fifth of Beethoven" don't hurt, because these set a mood and a surrounding ambience for The Bee Gees' material that makes it work even better. Heard on CD as 79 minutes of music, Saturday Night Fever comes off like an idealized commercial-free radio set of late-'70s dance music (and, in that regard, the decision to leave Rick Dees' "Disco Duck" off the soundtrack album was a good one for all concerned, except Dees).

by Bruce Eder, AMG

VA - Saturday Night Fever. The Original Movie Sound Track (1977):

VA - Saturday Night Fever. The Original Movie Sound Track (1977) [2007, Warner Music Japan, WPCR-28565]

Tracklist:

01. Bee Gees - Stayin' Alive (04:45)
02. Bee Gees - How Deep Is Your Love (04:05)
03. Bee Gees - Night Fever (03:33)
04. Bee Gees - More Than a Woman (03:17)
05. Yvonne Elliman - If I Can't Have You (03:00)
06. Walter Murphy - A Fifth of Beethoven (03:03)
07. Tavares - More Than a Woman (03:17)
08. David Shire - Manhattan Skyline (04:44)
09. Ralph MacDonald - Calypso Breakdown (07:50)
10. David Shire - Night on Disco Mountain (05:12)
11. Kool & the Gang - Open Sesame (04:01)
12. Bee Gees - Jive Talkin' (03:45)
13. Bee Gees - You Should Be Dancing (04:17)
14. K.C. & the Sunshine Band - Boogie Shoes (02:16)
15. David Shire - Salsation (03:50)
16. M.F.S.B. - K-Jee (04:13)
17. The Trammps - Disco Inferno (10:53)

Exact Audio Copy V0.99 prebeta 5 from 4. May 2009

EAC extraction logfile from 29. March 2015, 11:21

Various / Saturday Night Fever - The Original Movie Sound Track

Used drive : hp CDDVDW SH-216BB Adapter: 0 ID: 0

Read mode : Secure
Utilize accurate stream : Yes
Defeat audio cache : Yes
Make use of C2 pointers : No

Read offset correction : 6
Overread into Lead-In and Lead-Out : No
Fill up missing offset samples with silence : Yes
Delete leading and trailing silent blocks : No
Null samples used in CRC calculations : Yes
Used interface : Native Win32 interface for Win NT & 2000

Used output format : Monkey's Audio Lossless Encoder
Selected bitrate : High Lossless Compression
Quality : High
Add ID3 tag : No
Command line compressor : C:\Program Files (x86)\Monkey's Audio\MAC.exe
Additional command line options : -v


TOC of the extracted CD

Track | Start | Length | Start sector | End sector
––––––––––––––––––––––––––––-
1 | 0:00.00 | 4:45.38 | 0 | 21412
2 | 4:45.38 | 4:05.09 | 21413 | 39796
3 | 8:50.47 | 3:33.30 | 39797 | 55801
4 | 12:24.02 | 3:17.37 | 55802 | 70613
5 | 15:41.39 | 3:00.44 | 70614 | 84157
6 | 18:42.08 | 3:03.17 | 84158 | 97899
7 | 21:45.25 | 3:17.23 | 97900 | 112697
8 | 25:02.48 | 4:44.65 | 112698 | 134062
9 | 29:47.38 | 7:51.67 | 134063 | 169454
10 | 37:39.30 | 5:12.50 | 169455 | 192904
11 | 42:52.05 | 4:01.17 | 192905 | 210996
12 | 46:53.22 | 3:45.45 | 210997 | 227916
13 | 50:38.67 | 4:17.40 | 227917 | 247231
14 | 54:56.32 | 2:17.47 | 247232 | 257553
15 | 57:14.04 | 3:50.68 | 257554 | 274871
16 | 61:04.72 | 4:13.13 | 274872 | 293859
17 | 65:18.10 | 10:53.21 | 293860 | 342855


Range status and errors

Selected range

Filename C:\Users\Arthur London\Desktop\Various - Saturday Night Fever - The Original Movie Sound Track.wav

Peak level 99.8 %
Range quality 100.0 %
Test CRC 850B4C6D
Copy CRC 850B4C6D
Copy OK

No errors occurred


AccurateRip summary

Track 1 accurately ripped (confidence 40) [37BB993D]
Track 2 accurately ripped (confidence 41) [FCA13EC3]
Track 3 accurately ripped (confidence 41) [DD863164]
Track 4 accurately ripped (confidence 42) [AA25CD2F]
Track 5 accurately ripped (confidence 42) [F73E4031]
Track 6 accurately ripped (confidence 42) [EFDD7146]
Track 7 accurately ripped (confidence 41) [9B9491FC]
Track 8 accurately ripped (confidence 42) [45C8BDDB]
Track 9 accurately ripped (confidence 40) [EE7C0235]
Track 10 accurately ripped (confidence 41) [0A0A149E]
Track 11 accurately ripped (confidence 41) [DB515652]
Track 12 accurately ripped (confidence 40) [4ED29BAA]
Track 13 accurately ripped (confidence 42) [B5EEDE99]
Track 14 accurately ripped (confidence 41) [02ABD02D]
Track 15 accurately ripped (confidence 42) [7C060B03]
Track 16 cannot be verified as accurate (confidence 84) [6EA6DFFF], AccurateRip returned [08816669]
Track 17 accurately ripped (confidence 41) [6E94194B]

16 track(s) accurately ripped
1 track(s) could not be verified as accurate

Some tracks could not be verified as accurate

End of status report

foobar2000 1.2.9 / Dynamic Range Meter 1.1.1
log date: 2015-04-15 09:04:43

––––––––––––––––––––––––––––––––––––––––
Analyzed: Bee Gees / Saturday Night Fever - The Original Movie Sound Track
––––––––––––––––––––––––––––––––––––––––

DR Peak RMS Duration Track
––––––––––––––––––––––––––––––––––––––––
DR8 -0.01 dB -9.16 dB 4:46 01-Stayin' Alive
DR8 -0.01 dB -10.60 dB 4:05 02-How Deep Is Your Love
DR9 -0.01 dB -10.25 dB 3:33 03-Night Fever
DR7 -0.01 dB -8.88 dB 3:17 04-More Than A Woman
DR8 -0.01 dB -10.42 dB 3:46 12-Jive Talkin'
DR8 -0.01 dB -10.05 dB 4:18 13-You Should Be Dancing
––––––––––––––––––––––––––––––––––––––––

Number of tracks: 6
Official DR value: DR8

Samplerate: 44100 Hz
Channels: 2
Bits per sample: 16
Bitrate: 991 kbps
Codec: FLAC
================================================================================

––––––––––––––––––––––––––––––––––––––––
Analyzed: David Shire / Saturday Night Fever - The Original Movie Sound Track
––––––––––––––––––––––––––––––––––––––––

DR Peak RMS Duration Track
––––––––––––––––––––––––––––––––––––––––
DR8 -0.01 dB -9.89 dB 4:45 08-Manhattan Skyline
DR9 -0.01 dB -11.43 dB 5:13 10-Night On Disco Mountain
DR8 -0.01 dB -10.68 dB 3:51 15-Salsation
––––––––––––––––––––––––––––––––––––––––

Number of tracks: 3
Official DR value: DR9

Samplerate: 44100 Hz
Channels: 2
Bits per sample: 16
Bitrate: 991 kbps
Codec: FLAC
================================================================================

––––––––––––––––––––––––––––––––––––––––
Statistics for: 14-Boogie Shoes
Number of samples: 6069336
Duration: 2:18
––––––––––––––––––––––––––––––––––––––––

Left Right

Peak Value: -0.01 dB –- -0.01 dB
Avg RMS: -10.02 dB –- -10.13 dB
DR channel: 8.94 dB –- 8.91 dB
––––––––––––––––––––––––––––––––––––––––

Official DR Value: DR9

Samplerate: 44100 Hz
Channels: 2
Bits per sample: 16
Bitrate: 991 kbps
Codec: FLAC
================================================================================
––––––––––––––––––––––––––––––––––––––––
Analyzed: Kool And The Gang / Saturday Night Fever - The Original Movie Sound Track (1)
M.F.S.B. / Saturday Night Fever - The Original Movie Sound Track (2)
––––––––––––––––––––––––––––––––––––––––

DR Peak RMS Duration Track
––––––––––––––––––––––––––––––––––––––––
DR9 -0.01 dB -10.18 dB 4:01 11-Open Sesame
DR8 -0.01 dB -8.96 dB 4:13 16-K- Jee
––––––––––––––––––––––––––––––––––––––––

Number of tracks: 2
Official DR value: DR8

Samplerate: 44100 Hz
Channels: 2
Bits per sample: 16
Bitrate: 991 kbps
Codec: FLAC
================================================================================

––––––––––––––––––––––––––––––––––––––––
Statistics for: 09-Calypso Breakdown
Number of samples: 20810496
Duration: 7:52
––––––––––––––––––––––––––––––––––––––––

Left Right

Peak Value: -0.01 dB –- -0.01 dB
Avg RMS: -10.22 dB –- -10.21 dB
DR channel: 8.72 dB –- 8.29 dB
––––––––––––––––––––––––––––––––––––––––

Official DR Value: DR9

Samplerate: 44100 Hz
Channels: 2
Bits per sample: 16
Bitrate: 991 kbps
Codec: FLAC
================================================================================
––––––––––––––––––––––––––––––––––––––––
Analyzed: Tavares / Saturday Night Fever - The Original Movie Sound Track (1)
Trammps / Saturday Night Fever - The Original Movie Sound Track (2)
––––––––––––––––––––––––––––––––––––––––

DR Peak RMS Duration Track
––––––––––––––––––––––––––––––––––––––––
DR8 -0.01 dB -8.92 dB 3:17 07-More Than A Woman
DR8 -0.01 dB -9.18 dB 10:53 17-Disco Inferno
––––––––––––––––––––––––––––––––––––––––

Number of tracks: 2
Official DR value: DR8

Samplerate: 44100 Hz
Channels: 2
Bits per sample: 16
Bitrate: 991 kbps
Codec: FLAC
================================================================================

––––––––––––––––––––––––––––––––––––––––
Statistics for: 06-A Fifth Of Beethoven
Number of samples: 8080296
Duration: 3:03
––––––––––––––––––––––––––––––––––––––––

Left Right

Peak Value: -0.01 dB –- -0.01 dB
Avg RMS: -12.04 dB –- -11.77 dB
DR channel: 10.03 dB –- 9.69 dB
––––––––––––––––––––––––––––––––––––––––

Official DR Value: DR10

Samplerate: 44100 Hz
Channels: 2
Bits per sample: 16
Bitrate: 991 kbps
Codec: FLAC
================================================================================
––––––––––––––––––––––––––––––––––––––––
Statistics for: 05-If I Can't Have You
Number of samples: 7963872
Duration: 3:01
––––––––––––––––––––––––––––––––––––––––

Left Right

Peak Value: -0.01 dB –- -0.01 dB
Avg RMS: -8.45 dB –- -8.82 dB
DR channel: 7.10 dB –- 7.25 dB
––––––––––––––––––––––––––––––––––––––––

Official DR Value: DR7

Samplerate: 44100 Hz
Channels: 2
Bits per sample: 16
Bitrate: 991 kbps
Codec: FLAC

[CUETools log; Date: 27.04.2015 20:35:01; Version: 2.1.4]
[CTDB TOCID: yRBcPL_tIu_ptKn6GP_1aSQ9EKE-] found.
Track | CTDB Status
1 | (91/91) Accurately ripped
2 | (91/91) Accurately ripped
3 | (91/91) Accurately ripped
4 | (91/91) Accurately ripped
5 | (91/91) Accurately ripped
6 | (91/91) Accurately ripped
7 | (91/91) Accurately ripped
8 | (90/91) Accurately ripped
9 | (91/91) Accurately ripped
10 | (91/91) Accurately ripped
11 | (90/91) Accurately ripped
12 | (91/91) Accurately ripped
13 | (91/91) Accurately ripped
14 | (91/91) Accurately ripped
15 | (90/91) Accurately ripped
16 | ( 1/91) Accurately ripped, or (87/91) differs in 1 samples @00:43:67
17 | (89/91) Accurately ripped
[AccurateRip ID: 002b3ead-0228f1ff-f111db11] found.
Track [ CRC | V2 ] Status
01 [37bb993d|1f21b37d] (041+087/205) Accurately ripped
02 [fca13ec3|bd21cb53] (042+086/204) Accurately ripped
03 [dd863164|bb147507] (042+087/205) Accurately ripped
04 [aa25cd2f|cac5a7f9] (043+087/205) Accurately ripped
05 [f73e4031|050a1760] (043+087/206) Accurately ripped
06 [efdd7146|3a2c1c25] (043+086/204) Accurately ripped
07 [9b9491fc|6341cf44] (042+086/201) Accurately ripped
08 [45c8bddb|1ff39501] (043+086/202) Accurately ripped
09 [ee7c0235|455e4eea] (041+086/199) Accurately ripped
10 [0a0a149e|725500fe] (042+086/200) Accurately ripped
11 [db515652|5ca5d13e] (042+085/198) Accurately ripped
12 [4ed29baa|92902a07] (041+085/199) Accurately ripped
13 [b5eede99|d7175a08] (043+086/202) Accurately ripped
14 [02abd02d|d9566210] (042+086/201) Accurately ripped
15 [7c060b03|d3b5e70e] (043+086/200) Accurately ripped
16 [6ea6dfff|e081dc90] (000+000/197) No match
17 [6e94194b|3a97c45a] (042+085/194) Accurately ripped
Offsetted by -694:
01 [5c9121f7] (000/205) No match (V2 was not tested)
02 [75d06ecb] (000/204) No match (V2 was not tested)
03 [26a35d7e] (000/205) No match (V2 was not tested)
04 [4d4ef45f] (000/205) No match (V2 was not tested)
05 [915364e1] (000/206) No match (V2 was not tested)
06 [a5745aae] (000/204) No match (V2 was not tested)
07 [07e77d88] (000/201) No match (V2 was not tested)
08 [afd5115d] (000/202) No match (V2 was not tested)
09 [03556481] (000/199) No match (V2 was not tested)
10 [b1ed85f8] (000/200) No match (V2 was not tested)
11 [c87cf0d6] (000/198) No match (V2 was not tested)
12 [5f6ee51a] (000/199) No match (V2 was not tested)
13 [5a0b4071] (000/202) No match (V2 was not tested)
14 [d5a224ef] (000/201) No match (V2 was not tested)
15 [87eeb569] (000/200) No match (V2 was not tested)
16 [38cff9ff] (000/197) No match (V2 was not tested)
17 [091708ad] (000/194) No match (V2 was not tested)
Offsetted by -12:
01 [c48ae911] (000/205) No match (V2 was not tested)
02 [dcc9e653] (000/204) No match (V2 was not tested)
03 [14a4f1f8] (000/205) No match (V2 was not tested)
04 [cbf4588f] (000/205) No match (V2 was not tested)
05 [3ffe6e91] (000/206) No match (V2 was not tested)
06 [ed1a5596] (000/204) No match (V2 was not tested)
07 [77171c54] (000/201) No match (V2 was not tested)
08 [9a3efebf] (000/202) No match (V2 was not tested)
09 [3dc8ce0d] (000/199) No match (V2 was not tested)
10 [cb484bb2] (000/200) No match (V2 was not tested)
11 [fb74071a] (000/198) No match (V2 was not tested)
12 [6831878a] (000/199) No match (V2 was not tested)
13 [88d11cc9] (000/202) No match (V2 was not tested)
14 [a6693f91] (000/201) No match (V2 was not tested)
15 [6fb00f6f] (000/200) No match (V2 was not tested)
16 [1c9173ff] (000/197) No match (V2 was not tested)
17 [5d54b3ef] (000/194) No match (V2 was not tested)
Offsetted by -6:
01 [7e234127] (026/205) Accurately ripped
02 [ecb5928b] (026/204) Accurately ripped
03 [791591ae] (026/205) Accurately ripped
04 [bb0d12df] (024/205) Accurately ripped
05 [9b9e5761] (025/206) Accurately ripped
06 [ee7be36e] (023/204) Accurately ripped
07 [8955d728] (025/201) Accurately ripped
08 [7003de4d] (024/202) Accurately ripped
09 [96226821] (023/199) Accurately ripped
10 [6aa93028] (023/200) Accurately ripped
11 [eb62aeb6] (023/198) Accurately ripped
12 [5b82119a] (024/199) Accurately ripped
13 [1f5ffdb1] (023/202) Accurately ripped
14 [d48a87df] (023/201) Accurately ripped
15 [f5db0d39] (022/200) Accurately ripped
16 [459c29ff] (000/197) No match (V2 was not tested)
17 [e5f4669d] (020/194) Accurately ripped

Track Peak [ CRC32 ] [W/O NULL] [ LOG ]
– 99,8 [850B4C6D] [DA09D035] CRC32
01 99,8 [7BA5B9D2] [573EE048]
02 99,8 [F1A83B5B] [3D74C15E]
03 99,8 [E496B6A8] [8FC1B849]
04 99,8 [694B32CF] [549621D2]
05 99,8 [BF8D6FCE] [02AB5836]
06 99,8 [59D02B7D] [55D63D8A]
07 99,8 [4D08580C] [2F8E1CD1]
08 99,8 [AF02EF59] [E1BB29B3]
09 99,8 [C1B60392] [23E69F60]
10 99,8 [5524CA28] [994BBD86]
11 99,8 [5971D3F4] [393466C6]
12 99,8 [FA9FBC57] [5A4C8135]
13 99,8 [F2C5CD90] [1F73CDE7]
14 99,8 [778063DB] [7871FDEF]
15 99,8 [90127E83] [7285B2D9]
16 99,8 [E52FF68D] [751368AE]
17 99,8 [2C9448CB] [339A9EA8]

VA - Saturday Night Fever. The Original Movie Sound Track (1977) [2007, Warner Music Japan, WPCR-28565]

All thanks go to London

More Bee Gees in my Blog

Download VA - Saturday Night Fever. The Original Movie Sound Track (1977):