Subcategories

Savage Rose - Black Angel (1995)

Posted By: v3122
Savage Rose - Black Angel (1995)

Savage Rose - Black Angel (1995)
EAC | Flac(Image) + Cue + Log & MP3 CBR 320Kbps
Mega, MRCD 3294 | ~ 347 or 133 Mb | Scans
Psychedelic Rock, Soft Rock, Pop Rock, Ballad

Anyone recognizing original songwriting performed with some of the best musicians will be positively surprised by this masterpiece, partially produced by George Duke. The genius of Thomas Koppel in music and arrangement is evident in these original tracks, and the lyrics and vocal performance by Annisette is powerful and moving. The impressive list of musicians including Ray Fuller, Ricky Lawson, Gerald Albright a.o. perfectly complement the talent needed to accomplish such a diversified album transcending several genre's. This album is captivating and timeless and will astound the listener again and again. It is a must hear… For more info on Savage Rose and idea of the music visit their web-site - Savagerose.com Their new album "Tameless Child" is out now.

By A Customer, amazon
Savage Rose - Black Angel (1995)


Savage Rose - Black Angel (1995):

Savage Rose - Black Angel (1995)

Tracklist:

01. Black Angel [0:03:31.60]
02. What Do You Do Now [0:05:14.07]
03. Run Rose [0:03:21.08]
04. Lonely Heart [0:03:52.32]
05. Early Morning Blues [0:03:28.63]
06. Think It All Over [0:04:59.45]
07. I Need You Baby [0:04:54.12]
08. You'll Know in the Morning [0:04:03.35]
09. Where Have All the Flowers Gone [0:04:21.53]
10. Howling [0:05:20.05]
11. Your Daily Gift [0:04:42.00]
12. Sad Child Ballet [0:04:53.47]

Exact Audio Copy V0.99 prebeta 5 from 4. May 2009

Отчёт EAC об извлечении, выполненном 28. сентября 2014, 14:25

Savage Rose / Black Angel

Дисковод: PIONEER BD-RW BDR-208M Adapter: 3 ID: 0

Режим чтения : Достоверность
Использование точного потока : Да
Отключение кэша аудио : Да
Использование указателей C2 : Нет

Коррекция смещения при чтении : 667
Способность читать области Lead-in и Lead-out : Нет
Заполнение пропущенных сэмплов тишиной : Да
Удаление блоков с тишиной в начале и конце : Нет
При вычислениях CRC использовались нулевые сэмплы : Нет
Интерфейс : Установленный внешний ASPI-интерфейс

Выходной формат : Пользовательский кодировщик
Выбранный битрейт : 1024 kBit/s
Качество : Высокий
Добавление ID3-тэга : Нет
Утилита сжатия : C:\Program Files (x86)\Exact Audio Copy\Flac\flac.exe
Дополнительные параметры : -V -8 -T "Date=%year%" -T "Genre=%genre%" %source%


TOC извлечённого CD

Трек | Старт | Длительность | Начальный сектор | Конечный сектор
––––––––––––––––––––––––––––––––––-
1 | 0:00.00 | 3:31.60 | 0 | 15884
2 | 3:31.60 | 5:14.07 | 15885 | 39441
3 | 8:45.67 | 3:21.08 | 39442 | 54524
4 | 12:07.00 | 3:52.32 | 54525 | 71956
5 | 15:59.32 | 3:28.63 | 71957 | 87619
6 | 19:28.20 | 4:59.45 | 87620 | 110089
7 | 24:27.65 | 4:54.12 | 110090 | 132151
8 | 29:22.02 | 4:03.35 | 132152 | 150411
9 | 33:25.37 | 4:21.53 | 150412 | 170039
10 | 37:47.15 | 5:20.05 | 170040 | 194044
11 | 43:07.20 | 4:42.00 | 194045 | 215194
12 | 47:49.20 | 4:53.47 | 215195 | 237216


Характеристики диапазона извлечения и сообщения об ошибках

Выбранный диапазон

Имя файла E:\Savage rose\Savage Rose - Black Angel.wav

Пиковый уровень 97.8 %
Качество диапазона 100.0 %
CRC теста AB26156F
CRC копии AB26156F
Копирование… OK

Ошибок не произошло


AccurateRip: сводка

Трек 1 точное извлечение (доверие 53) [32FB421A]
Трек 2 точное извлечение (доверие 54) [0B00F5FB]
Трек 3 точное извлечение (доверие 54) [6D162F38]
Трек 4 точное извлечение (доверие 53) [BA566269]
Трек 5 точное извлечение (доверие 51) [101399C1]
Трек 6 точное извлечение (доверие 51) [47345F9B]
Трек 7 точное извлечение (доверие 52) [624CB4B7]
Трек 8 точное извлечение (доверие 53) [E826F857]
Трек 9 точное извлечение (доверие 51) [01DDAD42]
Трек 10 точное извлечение (доверие 54) [9D584246]
Трек 11 точное извлечение (доверие 50) [B293BCEF]
Трек 12 точное извлечение (доверие 49) [AEA56883]

Все треки извлечены точно

Конец отчёта

foobar2000 1.2.9 / Dynamic Range Meter 1.1.1
log date: 2016-02-04 22:37:43

––––––––––––––––––––––––––––––––––––––––
Analyzed: Savage Rose / Black Angel
––––––––––––––––––––––––––––––––––––––––

DR Peak RMS Duration Track
––––––––––––––––––––––––––––––––––––––––
DR7 -0.66 dB -8.97 dB 3:32 01-Black Angel
DR9 -0.71 dB -12.26 dB 5:14 02-What Do You Do Now
DR9 -0.22 dB -10.94 dB 3:21 03-Run Rose
DR8 -0.64 dB -9.89 dB 3:52 04-Lonely Heart
DR7 -1.24 dB -10.94 dB 3:29 05-Early Morning Blues
DR8 -0.19 dB -9.44 dB 5:00 06-Think It All Over
DR8 -0.77 dB -10.86 dB 4:54 07-I Need You Baby
DR7 -0.62 dB -8.52 dB 4:03 08-You'll Know in the Morning
DR7 -0.32 dB -11.21 dB 4:22 09-Where Have All the Flowers Gone
DR8 -0.19 dB -10.16 dB 5:20 10-Howling
DR7 -0.54 dB -8.66 dB 4:42 11-Your Daily Gift
DR9 -0.76 dB -14.39 dB 4:54 12-Sad Child Ballet
––––––––––––––––––––––––––––––––––––––––

Number of tracks: 12
Official DR value: DR8

Samplerate: 44100 Hz
Channels: 2
Bits per sample: 16
Bitrate: 872 kbps
Codec: FLAC

[CUETools log; Date: 04.02.2016 22:37:31; Version: 2.1.4]
[CTDB TOCID: p6tZ5.yVr0OCm7AqlNAwFrCcP5s-] found.
Track | CTDB Status
1 | (44/44) Accurately ripped
2 | (43/44) Accurately ripped
3 | (42/44) Accurately ripped
4 | (42/44) Accurately ripped
5 | (42/44) Accurately ripped
6 | (43/44) Accurately ripped
7 | (43/44) Accurately ripped
8 | (43/44) Accurately ripped
9 | (43/44) Accurately ripped
10 | (43/44) Accurately ripped
11 | (42/44) Accurately ripped
12 | (43/44) Accurately ripped
[AccurateRip ID: 00168fb4-00d4a6b8-ad0c5a0c] found.
Track [ CRC | V2 ] Status
01 [32fb421a|34c20446] (053+047/114) Accurately ripped
02 [0b00f5fb|6defab18] (054+047/115) Accurately ripped
03 [6d162f38|7f027ef8] (054+047/115) Accurately ripped
04 [ba566269|39053217] (053+047/114) Accurately ripped
05 [101399c1|577b737f] (051+047/112) Accurately ripped
06 [47345f9b|10fd77e1] (051+046/111) Accurately ripped
07 [624cb4b7|89d93e9c] (052+047/113) Accurately ripped
08 [e826f857|bf115313] (053+047/114) Accurately ripped
09 [01ddad42|16ba6333] (051+045/110) Accurately ripped
10 [9d584246|8d9a9d2a] (054+046/114) Accurately ripped
11 [b293bcef|a2d17ddd] (050+046/110) Accurately ripped
12 [aea56883|5491d468] (049+046/109) Accurately ripped
Offsetted by -2665:
01 [159e083e] (000/114) No match (V2 was not tested)
02 [a6bb1c8c] (000/115) No match (V2 was not tested)
03 [733f86c7] (000/115) No match (V2 was not tested)
04 [6821e2bf] (000/114) No match (V2 was not tested)
05 [07002f06] (000/112) No match (V2 was not tested)
06 [2dc8d8a0] (000/111) No match (V2 was not tested)
07 [a9cba9f4] (000/113) No match (V2 was not tested)
08 [8466e175] (000/114) No match (V2 was not tested)
09 [869ea12e] (000/110) No match (V2 was not tested)
10 [aed27c33] (000/114) No match (V2 was not tested)
11 [c4defd9e] (000/110) No match (V2 was not tested)
12 [837910ef] (000/109) No match (V2 was not tested)
Offsetted by -1350:
01 [5e4fe808] (000/114) No match (V2 was not tested)
02 [0cd8777b] (000/115) No match (V2 was not tested)
03 [b10c6342] (000/115) No match (V2 was not tested)
04 [bdd7e34d] (000/114) No match (V2 was not tested)
05 [26db2cef] (000/112) No match (V2 was not tested)
06 [7114f549] (000/111) No match (V2 was not tested)
07 [6b23d535] (000/113) No match (V2 was not tested)
08 [07c0dc6b] (000/114) No match (V2 was not tested)
09 [1d3fe68a] (000/110) No match (V2 was not tested)
10 [706795e4] (000/114) No match (V2 was not tested)
11 [58e701b9] (000/110) No match (V2 was not tested)
12 [7859f3ea] (000/109) No match (V2 was not tested)
Offsetted by -1123:
01 [4502e7d1] (004/114) Accurately ripped
02 [237b26bb] (004/115) Accurately ripped
03 [259ee97d] (004/115) Accurately ripped
04 [9877355b] (004/114) Accurately ripped
05 [23983e18] (004/112) Accurately ripped
06 [6b2d9532] (004/111) Accurately ripped
07 [02af41b6] (004/113) Accurately ripped
08 [3758aae1] (004/114) Accurately ripped
09 [a9551ee6] (004/110) Accurately ripped
10 [f57efcd5] (004/114) Accurately ripped
11 [70b43794] (004/110) Accurately ripped
12 [1d03b593] (000/109) No match (V2 was not tested)

Track Peak [ CRC32 ] [W/O NULL] [ LOG ]
– 97,8 [372D30C1] [AB26156F] W/O NULL
01 92,7 [CCE8A220] [64325CE7]
02 92,1 [4BE811D0] [8EDF76F6]
03 97,5 [400435D7] [0B6F0CA1]
04 92,8 [662C83C8] [E93ED48A]
05 86,6 [80DDE6CB] [03DFF473]
06 97,8 [13B1CF5A] [156CAE83]
07 91,5 [C4BB71DE] [17F56264]
08 93,0 [547CB145] [911F794B]
09 96,3 [18AC143A] [49C69BB0]
10 97,8 [20BF2A07] [4A7980EF]
11 93,9 [638D8A01] [315BAE77]
12 91,5 [FB6DC002] [55C12379]

Savage Rose - Black Angel (1995)

All thanks go to sav1965

Savage Rose in my Blog

Download Savage Rose - Black Angel (1995):