Subcategories

Scar For Life - Scar For Life (2009)

Posted By: Andi_Deris
Scar For Life - Scar For Life (2009)

Scar For Life - Scar For Life (2009)
EAC Rip | FLAC: Image+Cue+Log | 414 Mb | MP3 CBR 320 kbps | 126 Mb | Scans | 15 Mb | 54:02
Self Released
Progressive/Alternative Metal

Hailing from Portugal, Scar For Life is the new band of former Redstains guitarist Alexandre Santos. While Alexandre is based in the country’s capital Lisbon, their highly rated drummer Daniel Cardoso (Head Control System, R.A.M.P.) lives nearly 300 km away. Nonetheless, the pair, together with vocalists Rez and Dinho, have created an interesting debut album, their self-titled SCAR FOR LIFE. The album sets off with a very dynamic song that states clearly the direction of the band. Melodic rock/metal with a lot of alternative rock attitude and a really catchy chorus.

Scar For Life - Scar For Life (2009)




Scar For Life - Scar For Life (2009)


Track Listing

01. Kill The Past (4:18)
02. The Bleeding Gun (5:20)
03. My Last Words (5:13)
04. Insomnia (7:43)
05. Crawling (7:04)
06. One By One (6:04)
07. Distant Shore - instrumental (3:02)
08. Innocence Is Bliss (7:38)
09. A Scar For Life (7:40)

Produced by Alexandre Santos

The Band

• Marco Resende: Vocals
• Alexandre Santos: Rhythm and Lead Guitars, Bass & Fx
• Daniel Cardoso: Drums, Piano

*****
• Sophie: Backing Vocals
• Dinho: Screams & Growls - Vocals on track 1 & 2

Scar For Life - Scar For Life (2009)


Exact Audio Copy V0.99 prebeta 5 from 4. May 2009

EAC extraction logfile from 25. November 2012, 16:09

Scar For Life / Scar For Life

Used drive : TSSTcorpDVD+-RW TS-H653G Adapter: 0 ID: 0

Read mode : Secure
Utilize accurate stream : Yes
Defeat audio cache : Yes
Make use of C2 pointers : No

Read offset correction : 6
Overread into Lead-In and Lead-Out : No
Fill up missing offset samples with silence : Yes
Delete leading and trailing silent blocks : No
Null samples used in CRC calculations : Yes
Used interface : Native Win32 interface for Win NT & 2000

Used output format : User Defined Encoder
Selected bitrate : 40 kBit/s
Quality : High
Add ID3 tag : No
Command line compressor : F:\progjes\## programma's van C\EAC\Exact Audio Copy\Flac\flac.exe
Additional command line options : -6 -V %s


TOC of the extracted CD

Track | Start | Length | Start sector | End sector
––––––––––––––––––––––––––––-
1 | 0:00.00 | 4:18.12 | 0 | 19361
2 | 4:18.12 | 5:20.51 | 19362 | 43412
3 | 9:38.63 | 5:13.04 | 43413 | 66891
4 | 14:51.67 | 7:43.20 | 66892 | 101636
5 | 22:35.12 | 7:04.59 | 101637 | 133495
6 | 29:39.71 | 6:04.54 | 133496 | 160849
7 | 35:44.50 | 3:02.09 | 160850 | 174508
8 | 38:46.59 | 7:38.74 | 174509 | 208932
9 | 46:25.58 | 7:40.61 | 208933 | 243493
10 | 56:38.44 | 18:03.18 | 254894 | 336136


Range status and errors

Selected range

Filename C:\Users\sammy\Music\Scar For Life - Scar For Life (2008)\Scar For Life - Scar For Life.wav

Peak level 100.0 %
Range quality 99.9 %
Copy CRC 3CF1F9E5
Copy OK

No errors occurred


AccurateRip summary

Track 1 not present in database
Track 2 not present in database
Track 3 not present in database
Track 4 not present in database
Track 5 not present in database
Track 6 not present in database
Track 7 not present in database
Track 8 not present in database
Track 9 not present in database

None of the tracks are present in the AccurateRip database

End of status report


Many thanks to the original uploader: Twistedsam

SEE also:
Scar For Life 2012 3 Minute Silence



Password: pass