Subcategories

Odhecaton, Paolo Da Col - Scarlatti: Missa Defuntorum; Magnificat; Miserere; Salve Regina (2016)

Posted By: SERTiL
Odhecaton, Paolo Da Col - Scarlatti: Missa Defuntorum; Magnificat; Miserere; Salve Regina (2016)

Odhecaton, Paolo Da Col - Scarlatti: Missa Defuntorum; Magnificat; Miserere; Salve Regina
XLD Rip | FLAC (tracks)+cue, log, d.booklet | 76:23 min | 334 MB
Label: Arcana - A 398 | Tracks: 19 | Rls.date: 2016
Classical, Choral

This recording is a discovery of Alessandro Scarlattis heretofore unknown sacred music, where Renaissance tradition meets Baroque sensibility for a unique and compelling recording. At the core of Odhecatons latest offering is the Missa defunctorum for four voices and basso continuo. It is in this magnificent score recorded for the first time using the critical edition of Luca Della Libera that primarily contrapuntal writing gives way to Scarlattis stylistic choices of great expressivity and rhetorical force, such as in the case of the astonishing Lacrimosa. The Miserere is also recorded for the first time. Written for nine voices for the Sistine Chapel, the score follows Allegris model only outwardly; Scarlatti, in fact, moves steadily away from it through his harmonic originality, formal richness, and expressivity. The Magnificat displays a unique synthesis of the Palestrinian model and the expressive language of the eighteenth century. In this score, Scarlatti exploits the great wealth and variety of the Marian text, particularly in the relationship between words and the emotional and descriptive spheres.

TRACKLIST
1 Missa defunctorum: Introitus 05:01
2 Missa defunctorum: Kyrie 01:36
3 Missa defunctorum: Graduale 03:43
4 Missa defunctorum: Sequentia (Dies irae) 05:36
5 Missa defunctorum: Sequentia (Lacrimosa) 03:34
6 Missa defunctorum: Offertorium 06:18
7 Missa defunctorum: Sanctus 03:30
8 Missa defunctorum: Agnus Dei 03:06
9 Missa defunctorum: Communio 03:13
10 Salve Regina 09:16
11 Miserere 09:37
12 Magnificat: Magnificat 02:42
13 Magnificat: Quia respexit 01:25
14 Magnificat: Quia fecit 02:13
15 Magnificat: Fecit potentiam 01:40
16 Magnificat: Deposuit potentes 02:03
17 Magnificat: Esurientes implevit bonis 05:34
18 Magnificat: Sicut locutus est 00:49
19 Magnificat: Gloria patri 05:27

X Lossless Decoder version 20141129 (148.1)

XLD extraction logfile from 2017-02-01 16:39:09 +0100

Alessandro Scarlatti (Odhecaton, Paolo Da Col) / Missa defunctorum, Magnificat, Miserere & Salve Regina

Used drive : HL-DT-ST DVDRW GA11NR (revision KR06)
Media type : Pressed CD

Ripper mode : XLD Secure Ripper
Disable audio cache : OK for the drive with a cache less than 1375KiB
Make use of C2 pointers : NO
Read offset correction : 667
Max retry count : 20
Gap status : Analyzed, Appended

TOC of the extracted CD
Track | Start | Length | Start sector | End sector
––––––––––––––––––––––––––––-
1 | 00:00:00 | 05:01:45 | 0 | 22619
2 | 05:01:45 | 01:36:30 | 22620 | 29849
3 | 06:38:00 | 03:43:41 | 29850 | 46615
4 | 10:21:41 | 05:36:51 | 46616 | 71866
5 | 15:58:17 | 03:34:01 | 71867 | 87917
6 | 19:32:18 | 06:18:65 | 87918 | 116332
7 | 25:51:08 | 03:30:19 | 116333 | 132101
8 | 29:21:27 | 03:06:68 | 132102 | 146119
9 | 32:28:20 | 03:13:67 | 146120 | 160661
10 | 35:42:12 | 09:16:67 | 160662 | 202428
11 | 44:59:04 | 09:37:13 | 202429 | 245716
12 | 54:36:17 | 02:42:40 | 245717 | 257906
13 | 57:18:57 | 01:25:70 | 257907 | 264351
14 | 58:44:52 | 02:13:50 | 264352 | 274376
15 | 60:58:27 | 01:40:05 | 274377 | 281881
16 | 62:38:32 | 02:03:44 | 281882 | 291150
17 | 64:42:01 | 05:34:36 | 291151 | 316236
18 | 70:16:37 | 00:49:46 | 316237 | 319957
19 | 71:06:08 | 05:27:47 | 319958 | 344529

List of alternate offset correction values
# | Absolute | Relative | Confidence
–––––––––––––––––––––
1 | 103 | -564 | 1

AccurateRip Summary (DiscID: 00371fd4-0302123d-fe11f113)
Track 01 : OK (v2, confidence 1/1, with different offset)
Track 02 : OK (v2, confidence 1/1, with different offset)
Track 03 : OK (v2, confidence 1/1, with different offset)
Track 04 : OK (v2, confidence 1/1, with different offset)
Track 05 : OK (v2, confidence 1/1, with different offset)
Track 06 : OK (v2, confidence 1/1, with different offset)
Track 07 : OK (v2, confidence 1/1, with different offset)
Track 08 : OK (v2, confidence 1/1, with different offset)
Track 09 : OK (v2, confidence 1/1, with different offset)
Track 10 : OK (v2, confidence 1/1, with different offset)
Track 11 : OK (v2, confidence 1/1, with different offset)
Track 12 : OK (v2, confidence 1/1, with different offset)
Track 13 : OK (v2, confidence 1/1, with different offset)
Track 14 : OK (v2, confidence 1/1, with different offset)
Track 15 : OK (v2, confidence 1/1, with different offset)
Track 16 : OK (v2, confidence 1/1, with different offset)
Track 17 : OK (v2, confidence 1/1, with different offset)
Track 18 : OK (v2, confidence 1/1, with different offset)
Track 19 : OK (v2, confidence 1/1, with different offset)
->All tracks accurately ripped.

All Tracks
Album gain : 0.15 dB
Peak : 0.930450
Statistics
Read error : 0
Jitter error (maybe fixed) : 0
Retry sector count : 0
Damaged sector count : 0

Track 01
Filename : /Users/dehors/Music/Alessandro Scarlatti - Missa Defunctorum, Magnificat, Miserere, Salve Regina (2016) [FLAC]/01 - Missa defunctorum - Introitus.flac
Pre-gap length : 00:02:00

Track gain : 0.95 dB
Peak : 0.695312
CRC32 hash (test run) : 131D3E92
CRC32 hash : 131D3E92
CRC32 hash (skip zero) : E649A334
AccurateRip v1 signature : BFCE564F
AccurateRip v2 signature : 6319D05E (C36AEEAB w/correction)
->Accurately ripped with different offset (v2, confidence 1/1, offset -564)
Statistics
Read error : 0
Jitter error (maybe fixed) : 0
Retry sector count : 0
Damaged sector count : 0

Track 02
Filename : /Users/dehors/Music/Alessandro Scarlatti - Missa Defunctorum, Magnificat, Miserere, Salve Regina (2016) [FLAC]/02 - Missa defunctorum - Kyrie.flac

Track gain : 2.29 dB
Peak : 0.476410
CRC32 hash (test run) : F78B1C3E
CRC32 hash : F78B1C3E
CRC32 hash (skip zero) : 8C0AAF39
AccurateRip v1 signature : F6F6A9C5
AccurateRip v2 signature : 7EA5653C (231C17FB w/correction)
->Accurately ripped with different offset (v2, confidence 1/1, offset -564)
Statistics
Read error : 0
Jitter error (maybe fixed) : 0
Retry sector count : 0
Damaged sector count : 0

Track 03
Filename : /Users/dehors/Music/Alessandro Scarlatti - Missa Defunctorum, Magnificat, Miserere, Salve Regina (2016) [FLAC]/03 - Missa defunctorum - Graduale.flac

Track gain : 1.19 dB
Peak : 0.592285
CRC32 hash (test run) : 29DC9993
CRC32 hash : 29DC9993
CRC32 hash (skip zero) : 452B3564
AccurateRip v1 signature : FA879EC7
AccurateRip v2 signature : 8901D701 (DD8D6D40 w/correction)
->Accurately ripped with different offset (v2, confidence 1/1, offset -564)
Statistics
Read error : 0
Jitter error (maybe fixed) : 0
Retry sector count : 0
Damaged sector count : 0

Track 04
Filename : /Users/dehors/Music/Alessandro Scarlatti - Missa Defunctorum, Magnificat, Miserere, Salve Regina (2016) [FLAC]/04 - Missa defunctorum - Sequentia - Dies irae.flac

Track gain : -1.30 dB
Peak : 0.809601
CRC32 hash (test run) : 02AFBCF2
CRC32 hash : 02AFBCF2
CRC32 hash (skip zero) : 610CD1BC
AccurateRip v1 signature : A77C15D4
AccurateRip v2 signature : BF51DA8D (66E97B30 w/correction)
->Accurately ripped with different offset (v2, confidence 1/1, offset -564)
Statistics
Read error : 0
Jitter error (maybe fixed) : 0
Retry sector count : 0
Damaged sector count : 0

Track 05
Filename : /Users/dehors/Music/Alessandro Scarlatti - Missa Defunctorum, Magnificat, Miserere, Salve Regina (2016) [FLAC]/05 - Missa defunctorum - Sequentia - Lacrimosa.flac

Track gain : 3.86 dB
Peak : 0.443268
CRC32 hash (test run) : 638046BF
CRC32 hash : 638046BF
CRC32 hash (skip zero) : 86D196A0
AccurateRip v1 signature : D85F6D03
AccurateRip v2 signature : 867CD1D5 (32D55096 w/correction)
->Accurately ripped with different offset (v2, confidence 1/1, offset -564)
Statistics
Read error : 0
Jitter error (maybe fixed) : 0
Retry sector count : 0
Damaged sector count : 0

Track 06
Filename : /Users/dehors/Music/Alessandro Scarlatti - Missa Defunctorum, Magnificat, Miserere, Salve Regina (2016) [FLAC]/06 - Missa defunctorum - Offertorium.flac

Track gain : 0.41 dB
Peak : 0.774445
CRC32 hash (test run) : F62907D7
CRC32 hash : F62907D7
CRC32 hash (skip zero) : 0C42DC7B
AccurateRip v1 signature : 1EE313C7
AccurateRip v2 signature : 9684C3D7 (E61008CE w/correction)
->Accurately ripped with different offset (v2, confidence 1/1, offset -564)
Statistics
Read error : 0
Jitter error (maybe fixed) : 0
Retry sector count : 0
Damaged sector count : 0

Track 07
Filename : /Users/dehors/Music/Alessandro Scarlatti - Missa Defunctorum, Magnificat, Miserere, Salve Regina (2016) [FLAC]/07 - Missa defunctorum - Sanctus.flac

Track gain : 0.28 dB
Peak : 0.732330
CRC32 hash (test run) : 40255BB0
CRC32 hash : 40255BB0
CRC32 hash (skip zero) : 34EA0B7C
AccurateRip v1 signature : 033C2F53
AccurateRip v2 signature : B1579A47 (E9892E71 w/correction)
->Accurately ripped with different offset (v2, confidence 1/1, offset -564)
Statistics
Read error : 0
Jitter error (maybe fixed) : 0
Retry sector count : 0
Damaged sector count : 0

Track 08
Filename : /Users/dehors/Music/Alessandro Scarlatti - Missa Defunctorum, Magnificat, Miserere, Salve Regina (2016) [FLAC]/08 - Missa defunctorum - Agnus Dei.flac

Track gain : 2.20 dB
Peak : 0.499207
CRC32 hash (test run) : 0C33AD1C
CRC32 hash : 0C33AD1C
CRC32 hash (skip zero) : A2B6EA02
AccurateRip v1 signature : F688ABE5
AccurateRip v2 signature : 30FEE0FE (C9F5F4B9 w/correction)
->Accurately ripped with different offset (v2, confidence 1/1, offset -564)
Statistics
Read error : 0
Jitter error (maybe fixed) : 0
Retry sector count : 0
Damaged sector count : 0

Track 09
Filename : /Users/dehors/Music/Alessandro Scarlatti - Missa Defunctorum, Magnificat, Miserere, Salve Regina (2016) [FLAC]/09 - Missa defunctorum - Communio.flac

Track gain : 0.49 dB
Peak : 0.721954
CRC32 hash (test run) : E25FCEF7
CRC32 hash : E25FCEF7
CRC32 hash (skip zero) : 3F1F885B
AccurateRip v1 signature : 50FFE1CB
AccurateRip v2 signature : 78663D10 (5593BE06 w/correction)
->Accurately ripped with different offset (v2, confidence 1/1, offset -564)
Statistics
Read error : 0
Jitter error (maybe fixed) : 0
Retry sector count : 0
Damaged sector count : 0

Track 10
Filename : /Users/dehors/Music/Alessandro Scarlatti - Missa Defunctorum, Magnificat, Miserere, Salve Regina (2016) [FLAC]/10 - Salve Regina.flac

Track gain : -0.98 dB
Peak : 0.881470
CRC32 hash (test run) : E6924412
CRC32 hash : E6924412
CRC32 hash (skip zero) : 7748E801
AccurateRip v1 signature : 0202F888
AccurateRip v2 signature : AD829A98 (F3D75CD3 w/correction)
->Accurately ripped with different offset (v2, confidence 1/1, offset -564)
Statistics
Read error : 0
Jitter error (maybe fixed) : 0
Retry sector count : 0
Damaged sector count : 0

Track 11
Filename : /Users/dehors/Music/Alessandro Scarlatti - Missa Defunctorum, Magnificat, Miserere, Salve Regina (2016) [FLAC]/11 - Miserere mei, Deus.flac

Track gain : 1.72 dB
Peak : 0.930450
CRC32 hash (test run) : F8E6C686
CRC32 hash : F8E6C686
CRC32 hash (skip zero) : 9E80B1F0
AccurateRip v1 signature : F6C34486
AccurateRip v2 signature : AF86AABC (58218F84 w/correction)
->Accurately ripped with different offset (v2, confidence 1/1, offset -564)
Statistics
Read error : 0
Jitter error (maybe fixed) : 0
Retry sector count : 0
Damaged sector count : 0

Track 12
Filename : /Users/dehors/Music/Alessandro Scarlatti - Missa Defunctorum, Magnificat, Miserere, Salve Regina (2016) [FLAC]/12 - Magnificat - Magnificat.flac

Track gain : -0.92 dB
Peak : 0.897827
CRC32 hash (test run) : AE548554
CRC32 hash : AE548554
CRC32 hash (skip zero) : 2996B6B8
AccurateRip v1 signature : 6F41C1F7
AccurateRip v2 signature : 5ACC5037 (1D7D9C15 w/correction)
->Accurately ripped with different offset (v2, confidence 1/1, offset -564)
Statistics
Read error : 0
Jitter error (maybe fixed) : 0
Retry sector count : 0
Damaged sector count : 0

Track 13
Filename : /Users/dehors/Music/Alessandro Scarlatti - Missa Defunctorum, Magnificat, Miserere, Salve Regina (2016) [FLAC]/13 - Magnificat - Quia respexit.flac

Track gain : -1.30 dB
Peak : 0.868073
CRC32 hash (test run) : 76DC4279
CRC32 hash : 76DC4279
CRC32 hash (skip zero) : 41C49030
AccurateRip v1 signature : 1820BDC6
AccurateRip v2 signature : B2872D1D (03016CE9 w/correction)
->Accurately ripped with different offset (v2, confidence 1/1, offset -564)
Statistics
Read error : 0
Jitter error (maybe fixed) : 0
Retry sector count : 0
Damaged sector count : 0

Track 14
Filename : /Users/dehors/Music/Alessandro Scarlatti - Missa Defunctorum, Magnificat, Miserere, Salve Regina (2016) [FLAC]/14 - Magnificat - Quia fecit.flac

Track gain : 1.88 dB
Peak : 0.571381
CRC32 hash (test run) : 273D906B
CRC32 hash : 273D906B
CRC32 hash (skip zero) : 2DFE1132
AccurateRip v1 signature : 4587B64B
AccurateRip v2 signature : E0EECF96 (93FE4310 w/correction)
->Accurately ripped with different offset (v2, confidence 1/1, offset -564)
Statistics
Read error : 0
Jitter error (maybe fixed) : 0
Retry sector count : 0
Damaged sector count : 0

Track 15
Filename : /Users/dehors/Music/Alessandro Scarlatti - Missa Defunctorum, Magnificat, Miserere, Salve Regina (2016) [FLAC]/15 - Magnificat - Fecit potentiam.flac

Track gain : 3.16 dB
Peak : 0.515656
CRC32 hash (test run) : B211001D
CRC32 hash : B211001D
CRC32 hash (skip zero) : 07BD9BC7
AccurateRip v1 signature : 59E2B2B8
AccurateRip v2 signature : C91EB3AE (098267BC w/correction)
->Accurately ripped with different offset (v2, confidence 1/1, offset -564)
Statistics
Read error : 0
Jitter error (maybe fixed) : 0
Retry sector count : 0
Damaged sector count : 0

Track 16
Filename : /Users/dehors/Music/Alessandro Scarlatti - Missa Defunctorum, Magnificat, Miserere, Salve Regina (2016) [FLAC]/16 - Magnificat - Deposuit potentes.flac

Track gain : -0.01 dB
Peak : 0.682098
CRC32 hash (test run) : 2483B48D
CRC32 hash : 2483B48D
CRC32 hash (skip zero) : 7E5CE18B
AccurateRip v1 signature : 01A9A055
AccurateRip v2 signature : 72FDA1BA (8E5E80E9 w/correction)
->Accurately ripped with different offset (v2, confidence 1/1, offset -564)
Statistics
Read error : 0
Jitter error (maybe fixed) : 0
Retry sector count : 0
Damaged sector count : 0

Track 17
Filename : /Users/dehors/Music/Alessandro Scarlatti - Missa Defunctorum, Magnificat, Miserere, Salve Regina (2016) [FLAC]/17 - Magnificat - Esurientes implevit bonis.flac

Track gain : 3.61 dB
Peak : 0.532776
CRC32 hash (test run) : 50F51281
CRC32 hash : 50F51281
CRC32 hash (skip zero) : 8740C875
AccurateRip v1 signature : 025696CD
AccurateRip v2 signature : 3CA0257A (44EC174C w/correction)
->Accurately ripped with different offset (v2, confidence 1/1, offset -564)
Statistics
Read error : 0
Jitter error (maybe fixed) : 0
Retry sector count : 0
Damaged sector count : 0

Track 18
Filename : /Users/dehors/Music/Alessandro Scarlatti - Missa Defunctorum, Magnificat, Miserere, Salve Regina (2016) [FLAC]/18 - Magnificat - Sicut locutus est.flac

Track gain : 0.97 dB
Peak : 0.712982
CRC32 hash (test run) : 0AFCCBC4
CRC32 hash : 0AFCCBC4
CRC32 hash (skip zero) : B7FA8BA0
AccurateRip v1 signature : 574D6641
AccurateRip v2 signature : FB07B8FB (195E944B w/correction)
->Accurately ripped with different offset (v2, confidence 1/1, offset -564)
Statistics
Read error : 0
Jitter error (maybe fixed) : 0
Retry sector count : 0
Damaged sector count : 0

Track 19
Filename : /Users/dehors/Music/Alessandro Scarlatti - Missa Defunctorum, Magnificat, Miserere, Salve Regina (2016) [FLAC]/19 - Magnificat - Gloria patri.flac

Track gain : -1.49 dB
Peak : 0.829803
CRC32 hash (test run) : 8D653B34
CRC32 hash : 8D653B34
CRC32 hash (skip zero) : 4967B29C
AccurateRip v1 signature : 1D00E5F1
AccurateRip v2 signature : 0862A1F6 (332846C9 w/correction)
->Accurately ripped with different offset (v2, confidence 1/1, offset -564)
Statistics
Read error : 0
Jitter error (maybe fixed) : 0
Retry sector count : 0
Damaged sector count : 0

No errors occurred

End of status report

––-BEGIN XLD SIGNATURE––-
bhTvl3fnfrs9mpChyS650AhSKV0cAU.SWN68Ee7sBRNEA.7.F5xOrm3VyFkQKHgbAJNoVFCf1bdBdlcprr2jBZpSxcikq7f75zLrhm0
––-END XLD SIGNATURE––-


Odhecaton, Paolo Da Col - Scarlatti: Missa Defuntorum; Magnificat; Miserere; Salve Regina (2016)


Thanks to the Original customer.