Subcategories

Norbert J. (Enjott) Schneider - Stalingrad: Original Soundtrack (1992)

Posted By: Efgrapha
Norbert J. (Enjott) Schneider - Stalingrad: Original Soundtrack (1992)

Norbert J. (Enjott) Schneider - Stalingrad: Original Soundtrack (1992)
Members of the Munich Philharmonic Orchestra, direction: Enjott Schneider

EAC | FLAC (Image) + cue.+log ~ 236 Mb | Mp3, CBR320 kbps ~ 140 Mb | Scans included
Soundtrack, Score | Label: Polydor | # 517 757-2 | 00:48:25

This German battlefield drama, released on the occasion of the fiftieth anniversary of the climactic 1943 defeat of the Nazi forces at Stalingrad in Russia, does not paint a pretty picture either of war itself or of the Germans fighting in that war. Out of hundreds of thousands of previously victorious German soldiers who took part in this most crucial battle of WWII, a mere six thousand ruined men survived. Today, the word "Stalingrad" is used by Germans to signify any particularly ruinous reversal or defeat. In the story, the lives of several German soldiers are followed as they are transformed from arrogant and victorious killers into demoralized cowards who will do anything at all in order to survive, usually without success. Due to a political climate of resurgent sympathy for the fascists at the time this film was made, is was particularly important to the filmmakers to show the soldiers as lacking any shred of military dignity or real courage. Thus, though this big budget, well-made film did well in Germany, its lack of any truly sympathetic characters made it less popular elsewhere.

Clarke Fountain, Allmovie


~ Enjott Schneider Website
~ Enjott Schneider at Wiki

~ Film at IMDB
~ Film at Wiki

Members of the Munich Philharmonic Orchestra
direction: Enjott Schneider

Tracklist:

01. Stalingrad (Vorspann) (1:35)
02. Italien (2:39)
03. Ankunft in Stalingrad (3:54)
04. Der Erste Angriff (1:18)
05. Feldmanns Heldentod (0:49)
06. Feuerpause (2:38)
07. Attacke (2:17)
08. Edgars Tod (1:45)
09. Otto und der Hauptmann (2:03)
10. Explosion (1:41)
11. Nach der Panzerschlacht (2:07)
12. Das Totenfeld (5:11)
13. Desertieren (2:45)
14. Flugplatz und Elendszug (1:59)
15. GeGe's Tod (0:51)
16. Es Ist Aus! (2:16)
17. Stalingrad (Finale) (8:19)
18. Epilog: 'Requiem für Kolja; und für alle anderen kinder' (4:19)


Exact Audio Copy V1.0 beta 6 from 9. April 2015

EAC extraction logfile from 18. June 2015, 13:38

Norbert J. Schneider & Members Münchner Philharmoniker / Original Soundtrack - Stalingrad

Used drive : ASUS DRW-22B2L b Adapter: 1 ID: 1

Read mode : Secure
Utilize accurate stream : Yes
Defeat audio cache : Yes
Make use of C2 pointers : No

Read offset correction : 6
Overread into Lead-In and Lead-Out : No
Fill up missing offset samples with silence : Yes
Delete leading and trailing silent blocks : No
Null samples used in CRC calculations : Yes
Used interface : Native Win32 interface for Win NT & 2000

Used output format : User Defined Encoder
Selected bitrate : 128 kBit/s
Quality : High
Add ID3 tag : No
Command line compressor : C:\Program Files\Exact Audio Copy\Flac\flac.exe
Additional command line options : -V -8 -T "Date=%year%" -T "Genre=%genre%" -T "Composer=%composer%" %source%


TOC of the extracted CD

Track | Start | Length | Start sector | End sector
––––––––––––––––––––––––––––-
1 | 0:00.32 | 1:34.38 | 32 | 7119
2 | 1:34.70 | 2:38.50 | 7120 | 19019
3 | 4:13.45 | 3:53.62 | 19020 | 36556
4 | 8:07.32 | 1:17.50 | 36557 | 42381
5 | 9:25.07 | 0:48.63 | 42382 | 46044
6 | 10:13.70 | 2:38.37 | 46045 | 57931
7 | 12:52.32 | 2:16.63 | 57932 | 68194
8 | 15:09.20 | 1:45.12 | 68195 | 76081
9 | 16:54.32 | 2:03.00 | 76082 | 85306
10 | 18:57.32 | 1:41.00 | 85307 | 92881
11 | 20:38.32 | 2:06.63 | 92882 | 102394
12 | 22:45.20 | 5:11.12 | 102395 | 125731
13 | 27:56.32 | 2:44.63 | 125732 | 138094
14 | 30:41.20 | 1:58.50 | 138095 | 146994
15 | 32:39.70 | 0:51.25 | 146995 | 150844
16 | 33:31.20 | 2:15.50 | 150845 | 161019
17 | 35:46.70 | 8:19.37 | 161020 | 198481
18 | 44:06.32 | 4:19.13 | 198482 | 217919


Range status and errors

Selected range

Filename C:\1st0m1n\!!! Dedykuję Najpiękniejszej Polce na Całym Bezbrzeżnym Świecie !!!\Norbert J. Schneider & Members Münchner Philharmoniker - Original Soundtrack - Stalingrad.wav

Peak level 96.6 %
Extraction speed 2.9 X
Range quality 100.0 %
Test CRC 06DEF872
Copy CRC 06DEF872
Copy OK

No errors occurred


AccurateRip summary

Track 1 accurately ripped (confidence 3) [58C8D967] (AR v2)
Track 2 accurately ripped (confidence 3) [88BAB0D5] (AR v2)
Track 3 accurately ripped (confidence 3) [40FAE35D] (AR v2)
Track 4 accurately ripped (confidence 3) [DCBDD827] (AR v2)
Track 5 accurately ripped (confidence 3) [A1E3F35A] (AR v2)
Track 6 accurately ripped (confidence 3) [C0AECDFB] (AR v2)
Track 7 accurately ripped (confidence 3) [896C63A7] (AR v2)
Track 8 accurately ripped (confidence 3) [A0823011] (AR v2)
Track 9 accurately ripped (confidence 3) [F8AAD36A] (AR v2)
Track 10 accurately ripped (confidence 3) [D3026653] (AR v2)
Track 11 accurately ripped (confidence 3) [85E21515] (AR v2)
Track 12 accurately ripped (confidence 3) [E6B5A81F] (AR v2)
Track 13 accurately ripped (confidence 3) [47EF2B4B] (AR v2)
Track 14 accurately ripped (confidence 3) [9F7137CC] (AR v2)
Track 15 accurately ripped (confidence 3) [E39EF1DA] (AR v2)
Track 16 accurately ripped (confidence 3) [3338F02D] (AR v2)
Track 17 accurately ripped (confidence 3) [6AFC20E5] (AR v2)
Track 18 accurately ripped (confidence 3) [F5BE81F6] (AR v2)

All tracks accurately ripped

End of status report

–– CUETools DB Plugin V2.1.6

[CTDB TOCID: k.lyRPbCBAk5JXlHLu_cYCO5o.w-] found
Submit result: k.lyRPbCBAk5JXlHLu_cYCO5o.w- has been confirmed
Track | CTDB Status
1 | (2/2) Accurately ripped
2 | (2/2) Accurately ripped
3 | (2/2) Accurately ripped
4 | (2/2) Accurately ripped
5 | (2/2) Accurately ripped
6 | (2/2) Accurately ripped
7 | (2/2) Accurately ripped
8 | (2/2) Accurately ripped
9 | (2/2) Accurately ripped
10 | (2/2) Accurately ripped
11 | (2/2) Accurately ripped
12 | (2/2) Accurately ripped
13 | (2/2) Accurately ripped
14 | (2/2) Accurately ripped
15 | (2/2) Accurately ripped
16 | (2/2) Accurately ripped
17 | (2/2) Accurately ripped
18 | (2/2) Accurately ripped


==== Log checksum 69739D1E0536A5D8C3832F1F2402C09B6450EF8A35F49F0CDF6CAECA5194BC7A ====

foobar2000 1.2 / Dynamic Range Meter 1.1.1
log date: 2017-06-09 01:20:11

––––––––––––––––––––––––––––––––––––––––
Analyzed: Norbert J. Schneider & Members Münchner Philharmoniker / Original Soundtrack - Stalingrad
––––––––––––––––––––––––––––––––––––––––

DR Peak RMS Duration Track
––––––––––––––––––––––––––––––––––––––––
DR10 -2.71 dB -15.89 dB 1:35 01-Stalingrad (Vorspann)
DR12 -2.79 dB -18.92 dB 2:39 02-Italien
DR12 -3.53 dB -19.40 dB 3:54 03-Ankunft in Stalingrad
DR13 -0.29 dB -16.35 dB 1:18 04-Der Erste Angriff
DR10 -5.05 dB -19.07 dB 0:49 05-Feldmanns Heldentod
DR11 -3.44 dB -23.08 dB 2:38 06-Feuerpause
DR12 -2.24 dB -15.87 dB 2:17 07-Attacke
DR11 -3.91 dB -19.80 dB 1:45 08-Edgars Tod
DR10 -10.36 dB -24.75 dB 2:03 09-Otto und der Hauptmann
DR12 -0.89 dB -17.02 dB 1:41 10-Explosion
DR11 -6.49 dB -22.22 dB 2:07 11-Nach der Panzerschlacht
DR13 -3.70 dB -22.37 dB 5:11 12-Das Totenfeld
DR13 -1.78 dB -17.23 dB 2:45 13-Desertieren
DR11 -3.79 dB -18.45 dB 1:59 14-Flugplatz und Elendszug
DR9 -9.99 dB -23.88 dB 0:51 15-GeGe's Tod
DR10 -6.75 dB -23.26 dB 2:16 16-Es Ist Aus!
DR12 -2.35 dB -19.12 dB 8:19 17-Stalingrad (Finale)
DR11 -2.80 dB -18.30 dB 4:19 18-Epilog: 'Requiem für Kolja; und für alle anderen kinder'
––––––––––––––––––––––––––––––––––––––––

Number of tracks: 18
Official DR value: DR11

Samplerate: 44100 Hz
Channels: 2
Bits per sample: 16
Bitrate: 596 kbps
Codec: FLAC
================================================================================

Norbert J. (Enjott) Schneider - Stalingrad: Original Soundtrack (1992)

Norbert J. (Enjott) Schneider - Stalingrad: Original Soundtrack (1992)

All thanks to original uploader - 1st0m1n

More Movies & Soundtracks in Efgrapha Blog