Subcategories

Scorpions - Love At First Sting (1984) {1991, Japan}

Posted By: popsakov
Scorpions - Love At First Sting (1984) {1991, Japan}

Scorpions - Love At First Sting (1984) {1991, Japan}
EAC Rip | FLAC (Img) + Cue + Log ~ 271 Mb | MP3 CBR320 ~ 100 Mb
Scans (JPG, 400 dpi) ~ 30 Mb | RAR 5% Recovery
Hard Rock, Heavy Metal | Mercury / Nippon Phonogram #PHCR-6009

Love at First Sting is the ninth studio album by the German rock band Scorpions. It was released on March 27, 1984 on Harvest/EMI and Mercury. It became the group's most successful album in the USA, where it peaked at number 6 on the Billboard 200 chart in 1984, and went double-platinum by the end of the year, reaching triple-platinum status in 1995. The song "Rock You Like a Hurricane" reached number 25 on the Billboard Hot 100 chart in the same year, "Still Loving You" reached number 64 on the same chart, number 14 in Germany, number 3 in the French and Swiss Top 50.
~ Wiki


Although the Scorpions had already achieved fame after 1982's Blackout, Love at First Sting brought them their biggest single of the decade, the slick anthem "Rock You Like a Hurricane," with some greatly underrated songs to back it up. The album opens with the hair-raising "Bad Boys Running Wild" and continues with songs such as the memorable "Big City Nights" and the half-ballad, half-powerhouse rocker "Coming Home." The record also contains what just may be the band's best ballad ever, the tear-jerking "Still Loving You." Considering the fact that it has some of their best-ever singles, Love at First Sting is definitely a must for all fans of the Scorpions.
~ Barry Weber, All Music

Scorpions - Love At First Sting (1984) {1991, Japan}


***************

Scorpions - Love At First Sting (1984) {1991, Japan}

Track List:

01. Bad Boys Running Wild [03:57]
02. Rock You Like A Hurricane [04:13]
03. I'm Leaving You [04:18]
04. Coming Home [05:00]
05. The Same Thrill [03:37]
06. Big City Nights [04:11]
07. As Soon As The Good Times Roll [05:04]
08. Crossfire [04:37]
09. Still Loving You [06:30]

Exact Audio Copy V0.99 prebeta 5 from 4. May 2009

Archivo Log de extracciones desde 31. Mayo 2012, 11:55

SCORPIONS / LOVE AT FIRST STING - Japan (PHCR-6009)

Usar unidad : HL-DT-STDVDRAM GH22NS70 Adapter: 0 ID: 0

Modo de Lectura : Seguro
Utilizar Corriente Exacta : Sн
Descartar Audio cachй : Sн
Utilizar los punteros C2 : No

Correcciуn de Desplazamiento de Lectura : 667
Sobreleer tanto en Lead-In como en Lead-Out : No
Rellenar las muestras faltantes con silencios : Sн
Eliminar silencios inicial y final : No
Se han usado muestras nulas en los cбlculos CRC : Sн
Interfaz usada : Interfaz propio de Win32 para Windowns NT y 2000

Formato de Salida utilizado : Compresor sin pйrdida Monkey's Audio
Bitrate seleccionado : High Lossless Compression
Calidad : Alta
Aсadir Etiqueta ID3 : Sн
Compresor de linea de comandos : C:\Program Files (x86)\Exact Audio Copy\MAC.exe


TOC del CD extraido

Pista | Inicio | Duraciуn | Sector inicial | Sector final
––––––––––––––––––––––––––––––-
1 | 0:00.37 | 3:56.03 | 37 | 17739
2 | 3:56.40 | 4:12.15 | 17740 | 36654
3 | 8:08.55 | 4:17.40 | 36655 | 55969
4 | 12:26.20 | 4:59.50 | 55970 | 78444
5 | 17:25.70 | 3:36.30 | 78445 | 94674
6 | 21:02.25 | 4:10.12 | 94675 | 113436
7 | 25:12.37 | 5:03.73 | 113437 | 136234
8 | 30:16.35 | 4:36.07 | 136235 | 156941
9 | 34:52.42 | 6:29.28 | 156942 | 186144


Gama de estados y errores

Seleccionar gama

Nombre de Archivo E:\Mъsica\EAC\Scorpions\SCORPIONS - LOVE AT FIRST STING - Japan (PHCR-6009).wav

Nivel Pico 87.0 %
Gama de Calidad 100.0 %
Test CRC 323FBB9A
Copiar CRC 323FBB9A
Copia OK

Sin Errores


Resumen AccurateRip

Pista 1 extraido de modo preciso (nivel de confianza 4) [36D56456]
Pista 2 extraido de modo preciso (nivel de confianza 4) [5F469B3C]
Pista 3 extraido de modo preciso (nivel de confianza 4) [BD1F148B]
Pista 4 extraido de modo preciso (nivel de confianza 4) [7A1ABEDE]
Pista 5 extraido de modo preciso (nivel de confianza 4) [73176DB4]
Pista 6 extraido de modo preciso (nivel de confianza 4) [AD90C7CC]
Pista 7 extraido de modo preciso (nivel de confianza 4) [D852C827]
Pista 8 extraido de modo preciso (nivel de confianza 4) [57788405]
Pista 9 extraido de modo preciso (nivel de confianza 4) [9010929D]

Todas las pistas extraidas de modo preciso

Final del Informe

foobar2000 1.2.6 / Dynamic Range Meter 1.1.1
log date: 2016-07-15 12:52:32

––––––––––––––––––––––––––––––––––––––––
Analyzed: SCORPIONS / LOVE AT FIRST STING - Japan (PHCR-6009)
––––––––––––––––––––––––––––––––––––––––

DR Peak RMS Duration Track
––––––––––––––––––––––––––––––––––––––––
DR12 -1.20 dB -13.79 dB 3:56 01-Bad Boys Running Wild
DR12 -1.20 dB -14.21 dB 4:12 02-Rock You Like A Hurricane
DR12 -1.20 dB -14.29 dB 4:18 03-I'm Leaving You
DR10 -1.20 dB -14.24 dB 5:00 04-Coming Home
DR10 -1.20 dB -12.59 dB 3:36 05-The Same Thrill
DR10 -1.20 dB -12.76 dB 4:10 06-Big City Nights
DR12 -1.20 dB -14.37 dB 5:04 07-As Soon As The Good Times Roll
DR10 -1.20 dB -15.70 dB 4:36 08-Crossfire
DR9 -1.20 dB -13.85 dB 6:29 09-Still Loving You
––––––––––––––––––––––––––––––––––––––––

Number of tracks: 9
Official DR value: DR11

Samplerate: 44100 Hz
Channels: 2
Bits per sample: 16
Bitrate: 872 kbps
Codec: FLAC
================================================================================

[CUETools log; Date: 15.07.2016 12:45:42; Version: 2.1.5]
Pregap length 00:00:37.
[CTDB TOCID: AeJgL1TtdWLX3dvayzBCFLCM.tg-] found.
Track | CTDB Status
1 | (6/6) Accurately ripped
2 | (6/6) Accurately ripped
3 | (6/6) Accurately ripped
4 | (6/6) Accurately ripped
5 | (6/6) Accurately ripped
6 | (6/6) Accurately ripped
7 | (6/6) Accurately ripped
8 | (6/6) Accurately ripped
9 | (6/6) Accurately ripped
[AccurateRip ID: 000d5ef9-0062fdd0-7409b109] found.
Track [ CRC | V2 ] Status
01 [36d56456|9f9b5e10] (04+07/11) Accurately ripped
02 [5f469b3c|9a01fed5] (04+07/11) Accurately ripped
03 [bd1f148b|1aacba35] (04+07/11) Accurately ripped
04 [7a1abede|af73ad02] (04+07/11) Accurately ripped
05 [73176db4|ffd7e74d] (04+07/11) Accurately ripped
06 [ad90c7cc|5b79c050] (04+07/11) Accurately ripped
07 [d852c827|6be3dd45] (04+07/11) Accurately ripped
08 [57788405|d8853919] (04+07/11) Accurately ripped
09 [9010929d|50176cd2] (04+07/11) Accurately ripped

Track Peak [ CRC32 ] [W/O NULL]
– 87,0 [323FBB9A] [C7D903CF]
01 87,0 [01F02C68] [BE39D65E]
02 87,0 [BFE120EF] [C1EAA9FC]
03 87,0 [52B9A80D] [A52D54D9]
04 87,0 [AFFF1C23] [E879E1C4]
05 87,0 [14AD3012] [6776D869]
06 87,0 [C399B6B0] [73A3AA76]
07 87,0 [E46C8462] [A3FAB4A4]
08 87,0 [0D2CDAE3] [52E1BA99]
09 87,0 [5190A60E] [6A48174C]

Scorpions - Love At First Sting (1984) {1991, Japan}

Scorpions - Love At First Sting (1984) {1991, Japan}

See also:
Scorpions - Lonesome Crow (1972) [2002, Reissue, 96K/24-bit Remastered]
Scorpions - The Original Scorpions (1972) [1986, Japan 1st press, P33X-20003]
Scorpions - Crazy World (1990)
Scorpions - Deadly Sting: The Mercury Years (1997) {Japanese Edition}

All thanks go to the original ripper(s) …

Visit my blog!

Download:
Nitroflare: FLAC-part 1 | FLAC-part 2 | Scans | mp3
FileJoker: FLAC-part 1 | FLAC-part 2 | Scans | mp3