Subcategories
Tags
Language
Tags

Seasick Steve - Can U Cook? (2018)

Posted By: Designol
Seasick Steve - Can U Cook? (2018)

Seasick Steve - Can U Cook? (2018)
EAC | FLAC | Image (Cue&Log) ~ 331 Mb | Mp3 (CBR320) ~ 127 Mb | Scans ~ 133 Mb
Blues, Blues-Rock, Folk-Blues, Americana | Label: BMG | # 538426062 | 00:55:41

Seasick Steve releases his new album Can U Cook? via BMG Rights Management. The album has Steve mixing up all of his much-loved ingredients to deliver a fresh new record that’s full of sunshine, as well as being a good ol' Seasick mix of boogie, blues, rock, americana and folk-music.

The great Seasick Steve is back with of course his drummer Crazy Dan and also featuring Luther Dickinson from the North Mississippi Allstars, who will be touring with the others as they bring their live performances to possibly somewhere near you.

Of course we have those blues here, along with some foot stomping rock and other elements of Americana. Steve wanted to mix it up and give us something that had a colourful sunshine sound, and it has to be admitted that he has certainly done that. Listening to something like Sun on My Face made me think back a few weeks when I was sitting out on decking on holiday taking in the sun, a cup of tea to hand and my kindle as I chilled out.

To be honest this wasn’t quite what I was expecting, but on the other hand it is better and more interesting than I expected, which is all to the good. This should obviously do well with fans and introduce others to the talents of Steve, and perhaps remind many that he is more versatile than is often thought. In all then we have here another great album from someone who always delivers.

Review by M. Dowden, Amazon.co.uk

Seasick Steve - Can U Cook? (2018)



Tracklist:

01. Hate Da Winter (4:38)
02. Sun On My Face (4:06)
03. Can U Cook? (3:26)
04. Last Rodeo (4:15)
05. Down De Road (4:47)
06. Chewin' On Da Blues (3:58)
07. Shady Tree (5:13)
08. Lay (2:50)
09. Locked Up And Locked Down Blues (4:10)
10. Young Blood (4:10)
11. Get My Drift (4:46)
12. Ain't Nothin' But A Thang (4:05)
13. Company (5:16)


Exact Audio Copy V1.0 beta 6 from 9. April 2015

EAC extraction logfile from 19. October 2018, 13:50

Seasick Steve / Can U Cook?

Used drive : TEAC CD-W548E Adapter: 1 ID: 0

Read mode : Secure
Utilize accurate stream : Yes
Defeat audio cache : Yes
Make use of C2 pointers : No

Read offset correction : 12
Overread into Lead-In and Lead-Out : No
Fill up missing offset samples with silence : Yes
Delete leading and trailing silent blocks : No
Null samples used in CRC calculations : Yes
Used interface : Installed external ASPI interface

Used output format : User Defined Encoder
Selected bitrate : 320 kBit/s
Quality : High
Add ID3 tag : No
Command line compressor : C:\Program Files\Exact Audio Copy 1.b6\Exact Audio Copy\Flac\flac.exe
Additional command line options : -V -8 -T "Genre=%genre%" -T "Artist=%artist%" -T "Title=%title%" -T "Album=%albumtitle%" -T "Date=%year%" -T "Tracknumber=%tracknr%" -T "Comment=%comment%" %source%


TOC of the extracted CD

Track | Start | Length | Start sector | End sector
––––––––––––––––––––––––––––-
1 | 0:00.00 | 4:38.09 | 0 | 20858
2 | 4:38.09 | 4:05.70 | 20859 | 39303
3 | 8:44.04 | 3:25.64 | 39304 | 54742
4 | 12:09.68 | 4:14.52 | 54743 | 73844
5 | 16:24.45 | 4:47.33 | 73845 | 95402
6 | 21:12.03 | 3:57.57 | 95403 | 113234
7 | 25:09.60 | 5:12.63 | 113235 | 136697
8 | 30:22.48 | 2:50.36 | 136698 | 149483
9 | 33:13.09 | 4:10.30 | 149484 | 168263
10 | 37:23.39 | 4:10.29 | 168264 | 187042
11 | 41:33.68 | 4:45.67 | 187043 | 208484
12 | 46:19.60 | 4:04.60 | 208485 | 226844
13 | 50:24.45 | 5:16.27 | 226845 | 250571


Range status and errors

Selected range

Filename L:\Audio\SWF\CD\Seasick Steve\2018. Seasick Steve - Can U Cook (2018 BMG Rights, 538426062, Austria)\Seasick Steve - Can U Cook.wav

Peak level 100.0 %
Extraction speed 8.4 X
Range quality 100.0 %
Test CRC DB32E5DF
Copy CRC DB32E5DF
Copy OK

No errors occurred


AccurateRip summary

Track 1 not present in database
Track 2 not present in database
Track 3 not present in database
Track 4 not present in database
Track 5 not present in database
Track 6 not present in database
Track 7 not present in database
Track 8 not present in database
Track 9 not present in database
Track 10 not present in database
Track 11 not present in database
Track 12 not present in database
Track 13 not present in database

None of the tracks are present in the AccurateRip database

End of status report

–– CUETools DB Plugin V2.1.6

[CTDB TOCID: WpQ2H9CM6rUjrq6mqbBM4K2C9WE-] found
Submit result: WpQ2H9CM6rUjrq6mqbBM4K2C9WE- has been confirmed
Track | CTDB Status
1 | (16/16) Accurately ripped
2 | (16/16) Accurately ripped
3 | (16/16) Accurately ripped
4 | (16/16) Accurately ripped
5 | (16/16) Accurately ripped
6 | (16/16) Accurately ripped
7 | (16/16) Accurately ripped
8 | (16/16) Accurately ripped
9 | (16/16) Accurately ripped
10 | (16/16) Accurately ripped
11 | (16/16) Accurately ripped
12 | (16/16) Accurately ripped
13 | (16/16) Accurately ripped


==== Log checksum 08FDACFADCC55F764B8EA2FBC20E07DF8B63379D5DF435CCC1A0434A2A3A6362 ====

[CUETools log; Date: 23.10.2018 1:05:23; Version: 2.1.4]
[CTDB TOCID: WpQ2H9CM6rUjrq6mqbBM4K2C9WE-] found.
Track | CTDB Status
1 | (19/19) Accurately ripped
2 | (19/19) Accurately ripped
3 | (19/19) Accurately ripped
4 | (19/19) Accurately ripped
5 | (19/19) Accurately ripped
6 | (19/19) Accurately ripped
7 | (19/19) Accurately ripped
8 | (19/19) Accurately ripped
9 | (19/19) Accurately ripped
10 | (19/19) Accurately ripped
11 | (19/19) Accurately ripped
12 | (19/19) Accurately ripped
13 | (19/19) Accurately ripped
[AccurateRip ID: 001a516c-010739c5-b60d0c0d] disk not present in database.

Track Peak [ CRC32 ] [W/O NULL] [ LOG ]
– 100,0 [DB32E5DF] [55F3B67C] CRC32
01 99,1 [6D8FC009] [B6D6B4E5]
02 97,6 [1901FB4C] [07D5FC3E]
03 98,3 [020FC5FF] [C6997358]
04 97,6 [279EEF29] [2650F017]
05 98,5 [C7FD212B] [870BC648]
06 97,6 [08A76210] [138F7E6C]
07 100,0 [3D8FB619] [D02B4DA4]
08 97,7 [F03D0A2F] [D34F99C2]
09 98,4 [6C502F11] [3CA70E2E]
10 98,2 [C71ABC9A] [0CEC5C3C]
11 99,3 [0EA71F93] [C673EA89]
12 97,9 [1B775353] [0BB82E6D]
13 99,5 [3AB47CFF] [FB2381F6]

foobar2000 1.2 / Dynamic Range Meter 1.1.1
log date: 2018-10-23 00:50:14

––––––––––––––––––––––––––––––––––––––––
Analyzed: Seasick Steve / Can U Cook?
––––––––––––––––––––––––––––––––––––––––

DR Peak RMS Duration Track
––––––––––––––––––––––––––––––––––––––––
DR9 -0.07 dB -9.89 dB 4:38 01-Hate Da Winter
DR13 -0.21 dB -15.85 dB 4:06 02-Sun On My Face
DR8 -0.14 dB -9.72 dB 3:26 03-Can U Cook?
DR12 -0.21 dB -14.13 dB 4:15 04-Last Rodeo
DR9 -0.13 dB -9.97 dB 4:47 05-Down De Road
DR13 -0.20 dB -14.90 dB 3:58 06-Chewin' On Da Blues
DR10 0.00 dB -10.98 dB 5:13 07-Shady Tree
DR11 -0.20 dB -13.01 dB 2:50 08-Lay
DR9 -0.14 dB -10.41 dB 4:10 09-Locked Up And Locked Down Blues
DR9 -0.15 dB -10.41 dB 4:10 10-Young Blood
DR10 -0.06 dB -11.83 dB 4:46 11-Get My Drift
DR9 -0.18 dB -10.31 dB 4:05 12-Ain't Nothin' But A Thang
DR10 -0.04 dB -10.95 dB 5:16 13-Company
––––––––––––––––––––––––––––––––––––––––

Number of tracks: 13
Official DR value: DR10

Samplerate: 44100 Hz
Channels: 2
Bits per sample: 16
Bitrate: 832 kbps
Codec: FLAC
================================================================================

Seasick Steve - Can U Cook? (2018)

Seasick Steve - Can U Cook? (2018)