Subcategories

Second Hand - Reality (1968)

Posted By: uff
Second Hand - Reality (1968)

Second Hand - Reality (1968)
Rock | 1cd | EAC Rip | Flac + Cue + Log | covers
Sunbeam SBRCD5031 | rem: 2007 | 355Mb

Second Hand's debut, Reality, released in 1968 before progressive music had developed, is one of those odd records that mix psychedelic and garage-style music with some progressive touches. This is most evident on "Mainliner" and the title track, which are segued together by some classical music instrumentation. "Reality" adds other symphonic elements as well, and there's even a minute where one hears just organ and cello, a relaxed, slightly haunting moment before the rest of the band kicks back in. "Mainliner" is a nightmarish track about heroin addiction with funeral-dirge organ riffing, and "The World Will End Yesterday" is another doom-laden piece. "Denis James the Clown" uses carnival music played at an amphetamine-hyperactive pace to create a strange little song. There are lots of long instrumental sections with guitar solos, which is fortunate because Ken Elliott's vocals are the weakest link, and a few of his song arrangements come off a little dated as well. Fortunately, those aspects are not enough to distract too much from this otherwise excellent record. ~Allmusic

Track listing
01. A Fairy Tale (3:19)
02. Rhubarb! (3:47)
03. Denis James The Clown (2:21)
04. Steam Tugs (3:15)
05. Good Old '59 (We Are Slowly Gettin' Older) (2:19)
06. The World Will End Yesterday (3:50)
07. Denis James (Ode To D.J.) (3:15)
08. Mainliner (6:17)
09. Reality (8:31)
10. The Bath Song (3:12)
11. A Fairy Tale (Alt. Mix) (2:13)
12. Steam Tugs (Alt. Mix) (5:33)
13. James In The Basement (With Dennis Couldry) (2:48)
14. I Am Nearly There (With Dennis Couldry) (3:18)
~ (54:00)

Personnel
- Ken Elliott / keyboards, vocals
- Kieran O'Connor / drums & percussion
- Nick South / bass
- Bobby Gibbons / guitar


Exact Audio Copy V0.99 prebeta 3 from 28. July 2007

EAC extraction logfile from 18. October 2007, 13:16

Second Hand / Reality

Used drive : LITE-ON DVDRW LH-20A1P Adapter: 0 ID: 2

Read mode : Secure
Utilize accurate stream : Yes
Defeat audio cache : Yes
Make use of C2 pointers : No

Read offset correction : 6
Overread into Lead-In and Lead-Out : No
Fill up missing offset samples with silence : Yes
Delete leading and trailing silent blocks : No
Null samples used in CRC calculations : Yes
Used interface : Installed external ASPI interface

Used output format : Internal WAV Routines
Sample format : 44.100 Hz; 16 Bit; Stereo


TOC of the extracted CD

Track | Start | Length | Start sector | End sector
––––––––––––––––––––––––––––-
1 | 0:00.00 | 3:19.21 | 0 | 14945
2 | 3:19.21 | 3:47.00 | 14946 | 31970
3 | 7:06.21 | 2:21.32 | 31971 | 42577
4 | 9:27.53 | 3:14.67 | 42578 | 57194
5 | 12:42.45 | 2:19.19 | 57195 | 67638
6 | 15:01.64 | 3:50.17 | 67639 | 84905
7 | 18:52.06 | 3:15.00 | 84906 | 99530
8 | 22:07.06 | 6:17.35 | 99531 | 127840
9 | 28:24.41 | 8:31.21 | 127841 | 166186
10 | 36:55.62 | 3:11.58 | 166187 | 180569
11 | 40:07.45 | 2:13.36 | 180570 | 190580
12 | 42:21.06 | 5:32.53 | 190581 | 215533
13 | 47:53.59 | 2:48.29 | 215534 | 228162
14 | 50:42.13 | 3:17.65 | 228163 | 243002


Range status and errors

Selected range

Filename D:\flogger77\Second Hand - Reality.wav

Peak level 99.4 %
Range quality 100.0 %
Copy CRC 6522F869
Copy OK

No errors occurred

End of status report



[CUETools log; Date: 2016.01.12. 9:51:09; Version: 2.1.5]
[CTDB TOCID: 0tMV1PljZo3kxVN9COPmuP28Zu8-] found.
Track | CTDB Status
1 | (3/3) Accurately ripped
2 | (3/3) Accurately ripped
3 | (3/3) Accurately ripped
4 | (3/3) Accurately ripped
5 | (3/3) Accurately ripped
6 | (3/3) Accurately ripped
7 | (3/3) Accurately ripped
8 | (3/3) Accurately ripped
9 | (3/3) Accurately ripped
10 | (3/3) Accurately ripped
11 | (3/3) Accurately ripped
12 | (3/3) Accurately ripped
13 | (3/3) Accurately ripped
14 | (3/3) Accurately ripped
[AccurateRip ID: 001ab675-012386bb-b40ca80e] found.
Track [ CRC | V2 ] Status
01 [7ce1786c|f4bd8f57] (2+3/7) Accurately ripped
02 [c7ddf638|41d3dc43] (2+3/7) Accurately ripped
03 [a5c19dab|4cd874d4] (2+3/7) Accurately ripped
04 [75c2e437|21d93517] (2+3/7) Accurately ripped
05 [555e70fd|1156e23b] (2+3/7) Accurately ripped
06 [669b8245|fdb73f61] (2+3/7) Accurately ripped
07 [b7687e19|ef4de8fe] (2+3/7) Accurately ripped
08 [c7e89080|a94983d7] (2+3/7) Accurately ripped
09 [64a505bb|b8c4582c] (2+3/7) Accurately ripped
10 [3eb0ae11|6df95bc0] (2+3/7) Accurately ripped
11 [8e9af0ed|f530916c] (2+3/7) Accurately ripped
12 [e552ef12|3fb15c06] (2+3/7) Accurately ripped
13 [d8029351|7840bedf] (2+3/7) Accurately ripped
14 [c1290e67|6dbf3cde] (2+3/7) Accurately ripped
Offsetted by -6:
01 [10f0a48e] (0/7) No match (V2 was not tested)
02 [6c013200] (0/7) No match (V2 was not tested)
03 [d5493a8f] (0/7) No match (V2 was not tested)
04 [d65c2337] (0/7) No match (V2 was not tested)
05 [9d784fa8] (0/7) No match (V2 was not tested)
06 [fa6c0336] (0/7) No match (V2 was not tested)
07 [9365f769] (0/7) No match (V2 was not tested)
08 [e8ab7851] (0/7) No match (V2 was not tested)
09 [f2000b56] (0/7) No match (V2 was not tested)
10 [23979ae9] (0/7) No match (V2 was not tested)
11 [f99b64b3] (0/7) No match (V2 was not tested)
12 [4f87769c] (0/7) No match (V2 was not tested)
13 [3a57fcf6] (0/7) No match (V2 was not tested)
14 [89103bc1] (0/7) No match (V2 was not tested)

Track Peak [ CRC32 ] [W/O NULL] [ LOG ]
– 99,4 [6522F869] [0F25A051] CRC32
01 99,4 [309C3453] [1BA6F4ED]
02 99,4 [68D7388E] [B827B1AD]
03 85,0 [35AF9930] [72849C10]
04 99,4 [7C2EDF4A] [18688DA9]
05 99,4 [D0724F3C] [92C5ECAB]
06 99,4 [1CE71F91] [64EFEBB3]
07 99,4 [879298AC] [6E5762E2]
08 99,4 [33F571C0] [7D75921A]
09 96,4 [5EFE2946] [67120AD2]
10 99,4 [5B71B19D] [330E3C96]
11 81,6 [B0DDDFD5] [88F6FFF7]
12 99,4 [86564ECD] [595673E4]
13 66,5 [037890A1] [73C6809C]
14 69,0 [A14D9888] [1864283F]


Thx to flogger77
Datafile
Yunfile

password: asd