Subcategories

Seiji Ozawa, Saito Kinen Orchestra - Beethoven: Symphonies Nos. 2 & 7, Choral Fantasy (2017) [Blu-Ray]

Posted By: Vilboa
Seiji Ozawa, Saito Kinen Orchestra - Beethoven: Symphonies Nos. 2 & 7, Choral Fantasy (2017) [Blu-Ray]

Seiji Ozawa, Saito Kinen Orchestra - Beethoven: Symphonies Nos. 2 & 7, Choral Fantasy (2017) [Blu-Ray]
BluRay | BDMV | MPEG-4 AVC Video / 21957 kbps / 1080i / 29,970 fps | 83 min + 24 min (bonus) | 20,4 Gb
Audio1: LPCM Audio / 2.0 / 24-bit | Audio2: DTS-HD MA / 5.0 / 48 kHz / 3664 kbps / 24-bit

BluRay-rip | AVC | MKV 1920x1080 / 9322 kbps / 29,97 fps | 83 min + 24 min (bonus) | 8,27 Gb
Audio: DTS / 5ch / 48.0 KHz / 24 bits
Classical | EuroArts

Seiji Ozawa is not only a world-famous Japanese conductor, but also a founder and director of the Saito Kinen Festival Matsumoto, home of the Saito Kinen Orchestra, which in 2015 was renamed the Seiji Ozawa Matsumoto Festival (OMF). In this all-Beethoven program, Ozawa conducts the popular Beethoven Symphonies Nos. 2 & 7, performed with his fellow colleagues of the Saito Kinen Orchestra.

Cast:
Martha Argerich, piano
Lydia Teuscher, soprano
Rie Miyake, soprano
Nathalie Stutzmann, alto
Kei Fukui, tenor
Jean-Paul Fouchécourt, tenor
Matthias Goerne, baritone
OMF Chorus
Saito Kinen Orchestra
Conductor - Seiji Ozawa

Track List:
01. Opening
Symphony No. 2 in D major, Op. 36
02. I. Adagio molto - Allegro con brio
03. II. Larghetto
04. III. Scherzo (Allegro)
05. Allegro molto
06. Applause
07. Opening
Symphony No. 7 in A major, Op. 92
08. I. Poco sostenuto - Vivace
09. II. Allegretto
10. III. Presto - Assai meno presto
11. IV. Allegro con brio
12. Applause & Credits
Bonus:
Fantasia in C minor, Op. 80 "Choral Fantasy"


Disc Title: MATSUMOTO FESTIVAL
Disc Size: 21 983 358 767 bytes
Protection: AACS
BD-Java: No
Playlist: 00000.MPLS
Size: 18 373 134 336 bytes
Length: 1:23:01.443
Total Bitrate: 29,51 Mbps
Video: MPEG-4 AVC Video / 21957 kbps / 1080i / 29,970 fps / 16:9 / High Profile 4.1
Audio: Undetermined / LPCM Audio / 2.0 / 48 kHz / 2304 kbps / 24-bit
Audio: Undetermined / DTS-HD Master Audio / 5.0 / 48 kHz / 3664 kbps / 24-bit (DTS Core: 5.0 / 48 kHz / 1509 kbps / 24-bit)


General
Unique ID : 229337099811175954542622812555882411533 (0xAC88B802865F5FA380438AE90FFE360D)
Complete name : C:\Matsumoto_Festival_01.mkv
Format : Matroska
Format version : Version 2
File size : 6.29 GiB
Duration : 1h 22mn
Overall bit rate : 10.9 Mbps
Movie name : Matsumoto_Festival_01
Encoded date : UTC 2018-08-02 09:08:18
Writing application : DVDFab 9.1.6.8
Writing library : libebml v0.7.8 + libmatroska v0.8.1

Video
ID : 1
Format : AVC
Format/Info : Advanced Video Codec
Format profile : High@L4.1
Format settings, CABAC : Yes
Format settings, ReFrames : 2 frames
Format settings, GOP : M=3, N=24
Codec ID : V_MPEG4/ISO/AVC
Duration : 1h 22mn
Bit rate : 9 322 Kbps
Width : 1 920 pixels
Height : 1 080 pixels
Display aspect ratio : 16:9
Frame rate mode : Constant
Frame rate : 29.970 fps
Color space : YUV
Chroma subsampling : 4:2:0
Bit depth : 8 bits
Scan type : Progressive
Bits/(Pixel*Frame) : 0.150
Stream size : 5.29 GiB (84%)
Writing library : x264 core 142
Encoding settings : cabac=1 / ref=1 / deblock=1:-1:-1 / analyse=0x3:0 / me=hex / subme=5 / psy=0 / mixed_ref=0 / me_range=16 / chroma_me=1 / trellis=0 / 8x8dct=1 / cqm=0 / deadzone=21,11 / fast_pskip=1 / chroma_qp_offset=0 / threads=8 / lookahead_threads=2 / sliced_threads=0 / nr=0 / decimate=1 / interlaced=0 / bluray_compat=0 / constrained_intra=0 / bframes=2 / b_pyramid=0 / b_adapt=1 / b_bias=0 / direct=1 / weightb=1 / open_gop=0 / weightp=0 / keyint=24 / keyint_min=13 / scenecut=40 / intra_refresh=0 / rc=abr / mbtree=0 / bitrate=9322 / ratetol=1.0 / qcomp=0.60 / qpmin=0 / qpmax=69 / qpstep=4 / ip_ratio=1.40 / pb_ratio=1.30 / aq=1:1.00
Default : Yes
Forced : No
Color primaries : BT.709
Transfer characteristics : BT.709
Matrix coefficients : BT.709
Color range : Limited

Audio
ID : 2
Format : DTS
Format/Info : Digital Theater Systems
Mode : 16
Format settings, Endianness : Big
Codec ID : A_DTS
Duration : 1h 22mn
Bit rate mode : Constant
Bit rate : 1 509 Kbps
Channel(s) : 5 channels
Channel positions : Front: L C R, Side: L R
Sampling rate : 48.0 KHz
Bit depth : 24 bits
Compression mode : Lossy
Stream size : 895 MiB (14%)
Default : Yes
Forced : No

Menu
00:00:00.000 : en:Chapter 01
00:01:45.038 : en:Chapter 02
00:15:14.480 : en:Chapter 03
00:27:02.921 : en:Chapter 04
00:31:07.732 : en:Chapter 05
00:37:40.825 : en:Chapter 06
00:39:19.290 : en:Chapter 07
00:40:45.643 : en:Chapter 08
00:56:14.671 : en:Chapter 09
01:05:25.354 : en:Chapter 10
01:12:55.104 : en:Chapter 11
01:20:07.636 : en:Chapter 12

All screenshots taken from BDRip

Seiji Ozawa, Saito Kinen Orchestra - Beethoven: Symphonies Nos. 2 & 7, Choral Fantasy (2017) [Blu-Ray]