Subcategories
Tags
Language
Tags

Serrat - Nadie Es Perfecto (1994)

Posted By: popsakov
Serrat - Nadie Es Perfecto (1994)

Serrat - Nadie Es Perfecto (1994)
EAC Rip | FLAC (Img) + Cue + Log ~ 336 Mb | MP3 CBR320 ~ 134 Mb
Full Scans | 00:49:38 | RAR 5% Recovery
Latin Pop, Vocal | BMG Ariola #74321 224452

Joan Manuel Serrat i Teresa is a Spanish musician, singer-songwriter, recording artist, and performer. He is considered one of the most important figures of modern, popular music in both the Spanish and Catalan languages. Serrat's lyrical style has been influenced by other poets such as Mario Benedetti, Antonio Machado, Miguel Hernández, Rafael Alberti, Federico García Lorca, Pablo Neruda, and León Felipe. He has also recorded songs by Violeta Parra and Víctor Jara. Serrat was one of the pioneers of what is known in Catalan as "Nova Cançó". Joan Manuel Serrat is also known by the names "El noi del Poble-sec" and "El Nano". In 1970, he represented Spain in the IV Festival Internacional da Canção in Rio with Penélope, where he won the Lyrics, Music and Performance awards.

***************

Serrat - Nadie Es Perfecto (1994)

Serrat - Nadie Es Perfecto (1994)

Track List:

01. Niсo silvestre [5:05]
02. Te guste o no [3:01]
03. La abuelita de Kundera [5:01]
04. Benito [6:20]
05. Entre un hola y un adiуs [4:53]
06. Mensajes de amor de curso legal [3:53]
07. La gente va muy bien [3:58]
08. Por dignidad [3:18]
09. Historia de vampiros [5:52]
10. Desamor [5:03]
11. Bendita mъsica [3:14]

Exact Audio Copy V1.3 from 2. September 2016

EAC extraction logfile from 24. January 2017, 0:24

Joan Manuel Serrat / Nadie es perfecto

Used drive : hp DVD A DS8A8SH Adapter: 1 ID: 0

Read mode : Secure
Utilize accurate stream : Yes
Defeat audio cache : Yes
Make use of C2 pointers : No

Read offset correction : 6
Overread into Lead-In and Lead-Out : No
Fill up missing offset samples with silence : Yes
Delete leading and trailing silent blocks : No
Null samples used in CRC calculations : Yes
Used interface : Native Win32 interface for Win NT & 2000

Used output format : Internal WAV Routines
Sample format : 44.100 Hz; 16 Bit; Stereo


TOC of the extracted CD

Track | Start | Length | Start sector | End sector
––––––––––––––––––––––––––––-
1 | 0:00.32 | 5:05.13 | 32 | 22919
2 | 5:05.45 | 3:00.67 | 22920 | 36486
3 | 8:06.37 | 5:00.65 | 36487 | 59051
4 | 13:07.27 | 6:19.40 | 59052 | 87516
5 | 19:26.67 | 4:53.00 | 87517 | 109491
6 | 24:19.67 | 3:52.65 | 109492 | 126956
7 | 28:12.57 | 3:57.60 | 126957 | 144791
8 | 32:10.42 | 3:18.30 | 144792 | 159671
9 | 35:28.72 | 5:52.35 | 159672 | 186106
10 | 41:21.32 | 5:02.73 | 186107 | 208829
11 | 46:24.30 | 3:14.25 | 208830 | 223404


Range status and errors

Selected range

Filename E:\Música\SERRAT\1994 Nadie es perfecto\Joan Manuel Serrat - Nadie es perfecto.wav

Peak level 97.2 %
Extraction speed 1.8 X
Range quality 99.9 %
Test CRC D3A5622C
Copy CRC D3A5622C
Copy OK

No errors occurred


AccurateRip summary

Track 1 accurately ripped (confidence 2) [A8D9CB23] (AR v1)
Track 2 accurately ripped (confidence 2) [DE85B95F] (AR v1)
Track 3 accurately ripped (confidence 2) [47052B2B] (AR v1)
Track 4 accurately ripped (confidence 2) [05A4DC35] (AR v1)
Track 5 accurately ripped (confidence 2) [BAF7B23B] (AR v1)
Track 6 accurately ripped (confidence 2) [B32DD0CE] (AR v1)
Track 7 accurately ripped (confidence 2) [19BBE937] (AR v1)
Track 8 accurately ripped (confidence 2) [9F8DDD49] (AR v1)
Track 9 accurately ripped (confidence 2) [CFE784C1] (AR v1)
Track 10 accurately ripped (confidence 2) [469AED69] (AR v1)
Track 11 accurately ripped (confidence 2) [1276FD93] (AR v1)

All tracks accurately ripped

End of status report

–– CUETools DB Plugin V2.1.6

[CTDB TOCID: 21a1QJnDxlSkIzAB_bUUrCknd3Y-] found
Submit result: 21a1QJnDxlSkIzAB_bUUrCknd3Y- has been confirmed
Track | CTDB Status
1 | (4/5) Accurately ripped
2 | (4/5) Accurately ripped
3 | (4/5) Accurately ripped
4 | (4/5) Accurately ripped
5 | (4/5) Accurately ripped
6 | (4/5) Accurately ripped
7 | (4/5) Accurately ripped
8 | (4/5) Accurately ripped
9 | (4/5) Accurately ripped
10 | (4/5) Accurately ripped
11 | (4/5) Accurately ripped

==== Log checksum C3E515EC48682E1FA33D2BEB75B419C154BC790D03C579F7F9A72396EDB04EAF ====

Serrat - Nadie Es Perfecto (1994)


All thanks go to the original ripper(s) …

>>> My Blog <<<

DOWNLOAD: