Subcategories

Sex Pistols - Never Mind The Bollocks, Here's The Sex Pistols (1977) {1995, Japanese Reissue}

Posted By: popsakov
Sex Pistols - Never Mind The Bollocks, Here's The Sex Pistols (1977) {1995, Japanese Reissue}

Sex Pistols - Never Mind The Bollocks, Here's The Sex Pistols (1977) {1995, Japanese Reissue}
EAC Rip | FLAC (Img) + Cue + Log ~ 325 Mb | MP3 CBR320 ~ 118 Mb
Scans Included (JPG, 600 dpi) | RAR 5% Recovery
Punk Rock | Virgin / Toshiba EMI Ltd. #VJCP-3215

The phenomenally successful "Never Mind the Bollocks, Here's the Sex Pistols", the only studio album by the English punk rock group Sex Pistols., released on 28 October 1977 by Virgin Records. At the time of its release, the band was already extremely controversial, having sworn on live TV, been fired from two record labels, and been banned from playing live in most parts of England. The album's title added to that controversy, with some people finding the word "bollocks" offensive. Many record stores refused to carry the album and some record charts refused to list the album, showing just a blank space instead.
~ Wiki

While mostly accurate, dismissing Never Mind the Bollocks as merely a series of loud, ragged midtempo rockers with a harsh, grating vocalist and not much melody would be a terrible error. Already anthemic songs are rendered positively transcendent by Johnny Rotten's rabid, foaming delivery. His bitterly sarcastic attacks on pretentious affectation and the very foundations of British society were all carried out in the most confrontational, impolite manner possible. Most imitators of the Pistols' angry nihilism missed the point: underneath the shock tactics and theatrical negativity were social critiques carefully designed for maximum impact. Never Mind the Bollocks perfectly articulated the frustration, rage, and dissatisfaction of the British working class with the establishment, a spirit quick to translate itself to strictly rock & roll terms. The Pistols paved the way for countless other bands to make similarly rebellious statements, but arguably none were as daring or effective. It's easy to see how the band's roaring energy, overwhelmingly snotty attitude, and Rotten's furious ranting sparked a musical revolution, and those qualities haven't diminished one bit over time. Never Mind the Bollocks is simply one of the greatest, most inspiring rock records of all time.
~ Steve Huey, All Music

***************

Sex Pistols - Never Mind The Bollocks, Here's The Sex Pistols (1977) {1995, Japanese Reissue}

Sex Pistols - Never Mind The Bollocks, Here's The Sex Pistols (1977) {1995, Japanese Reissue}

Track List:

01. Holidays In The Sun [3:22]
02. Bodies [3:03]
03. No Feelings [2:51]
04. Liar [2:42]
05. God Save The Queen [3:19]
06. Problems [4:12]
07. Seventeen [2:03]
08. Anarchy In The U.K. [3:32]
09. Submission [4:13]
10. Pretty Vacant [3:17]
11. New York [3:05]
12. E.M.I. [3:11]

Personnel:
Johnny Rotten - lead vocals
Steve Jones - guitar, bass guitar, backing vocals
Sid Vicious - bass guitar on "Bodies"
Glen Matlock - bass guitar on "Anarchy in the UK"
Paul Cook - drums

Exact Audio Copy V1.3 from 2. September 2016

EAC extraction logfile from 17. March 2018, 17:59

Sex Pistols / Never Mind The Bollocks, Here's The Sex Pistols

Used drive : TSSTcorpCDDVDW TS-L633B Adapter: 1 ID: 0

Read mode : Secure
Utilize accurate stream : Yes
Defeat audio cache : Yes
Make use of C2 pointers : No

Read offset correction : 6
Overread into Lead-In and Lead-Out : No
Fill up missing offset samples with silence : Yes
Delete leading and trailing silent blocks : No
Null samples used in CRC calculations : Yes
Used interface : Native Win32 interface for Win NT & 2000

Used output format : Internal WAV Routines
Sample format : 44.100 Hz; 16 Bit; Stereo


TOC of the extracted CD

Track | Start | Length | Start sector | End sector
––––––––––––––––––––––––––––-
1 | 0:00.00 | 3:22.30 | 0 | 15179
2 | 3:22.30 | 3:03.22 | 15180 | 28926
3 | 6:25.52 | 2:50.70 | 28927 | 41746
4 | 9:16.47 | 2:42.10 | 41747 | 53906
5 | 11:58.57 | 3:19.28 | 53907 | 68859
6 | 15:18.10 | 4:12.17 | 68860 | 87776
7 | 19:30.27 | 2:02.58 | 87777 | 96984
8 | 21:33.10 | 3:32.25 | 96985 | 112909
9 | 25:05.35 | 4:12.57 | 112910 | 131866
10 | 29:18.17 | 3:17.18 | 131867 | 146659
11 | 32:35.35 | 3:05.17 | 146660 | 160551
12 | 35:40.52 | 3:11.08 | 160552 | 174884


Range status and errors

Selected range

Filename F:\Alexharvey\Sex Pistols - Never Mind The Bollocks, Here's The Sex Pistols.wav

Peak level 100.0 %
Extraction speed 2.4 X
Range quality 100.0 %
Test CRC BD65F7F4
Copy CRC BD65F7F4
Copy OK

No errors occurred


AccurateRip summary

Track 1 accurately ripped (confidence 4) [E72A1524] (AR v2)
Track 2 accurately ripped (confidence 4) [68F063D6] (AR v2)
Track 3 accurately ripped (confidence 4) [D2562086] (AR v2)
Track 4 accurately ripped (confidence 4) [E2A5C6ED] (AR v2)
Track 5 accurately ripped (confidence 4) [3EDF65D2] (AR v2)
Track 6 accurately ripped (confidence 4) [B4CACE55] (AR v2)
Track 7 accurately ripped (confidence 4) [D6DA5DD4] (AR v2)
Track 8 accurately ripped (confidence 4) [D751D365] (AR v2)
Track 9 accurately ripped (confidence 4) [D535BE49] (AR v2)
Track 10 accurately ripped (confidence 4) [ED3C4312] (AR v2)
Track 11 accurately ripped (confidence 4) [0FD30E06] (AR v2)
Track 12 accurately ripped (confidence 4) [DC284965] (AR v2)

All tracks accurately ripped

End of status report

–– CUETools DB Plugin V2.1.6

[CTDB TOCID: yc4lfmsvne817LFcsR2rXCx3HfA-] found
Submit result: yc4lfmsvne817LFcsR2rXCx3HfA- has been confirmed
Track | CTDB Status
1 | (114/117) Accurately ripped
2 | (116/117) Accurately ripped
3 | (115/117) Accurately ripped
4 | (116/117) Accurately ripped
5 | (115/117) Accurately ripped
6 | (115/117) Accurately ripped
7 | (115/117) Accurately ripped
8 | (117/117) Accurately ripped
9 | (116/117) Accurately ripped
10 | (117/117) Accurately ripped
11 | (115/117) Accurately ripped
12 | (104/117) Accurately ripped, or (2/117) differs in 2364 samples @03:10:66-03:10:68


==== Log checksum 05E2FF833F84804DB546F8DE1E9E6F7E650F24A4E6D5196CAA7F9A20B9FA0B32 ====

foobar2000 1.3.16 / Dynamic Range Meter 1.1.1
log date: 2018-03-18 02:25:18

––––––––––––––––––––––––––––––––––––––––
Analyzed: Sex Pistols / Never Mind The Bollocks, Here's The Sex Pistols
––––––––––––––––––––––––––––––––––––––––

DR Peak RMS Duration Track
––––––––––––––––––––––––––––––––––––––––
DR12 0.00 dB -14.10 dB 3:22 01-Holidays In The Sun
DR12 0.00 dB -13.45 dB 3:03 02-Bodies
DR13 0.00 dB -14.60 dB 2:51 03-No Feelings
DR13 0.00 dB -13.82 dB 2:42 04-Liar
DR13 0.00 dB -13.67 dB 3:19 05-God Save The Queen
DR11 -0.86 dB -13.49 dB 4:12 06-Problems
DR13 0.00 dB -15.14 dB 2:03 07-Seventeen
DR13 0.00 dB -13.68 dB 3:32 08-Anarchy In The U.K.
DR14 0.00 dB -16.10 dB 4:13 09-Submission
DR14 0.00 dB -14.84 dB 3:17 10-Pretty Vacant
DR13 0.00 dB -14.52 dB 3:05 11-New York
DR13 0.00 dB -14.34 dB 3:11 12-E.M.I.
––––––––––––––––––––––––––––––––––––––––

Number of tracks: 12
Official DR value: DR13

Samplerate: 44100 Hz
Channels: 2
Bits per sample: 16
Bitrate: 1027 kbps
Codec: FLAC
================================================================================

[CUETools log; Date: 18.03.2018 2:24:43; Version: 2.1.6]
[CTDB TOCID: yc4lfmsvne817LFcsR2rXCx3HfA-] found.
Track | CTDB Status
1 | (115/118) Accurately ripped
2 | (117/118) Accurately ripped
3 | (116/118) Accurately ripped
4 | (117/118) Accurately ripped
5 | (116/118) Accurately ripped
6 | (116/118) Accurately ripped
7 | (116/118) Accurately ripped
8 | (118/118) Accurately ripped
9 | (117/118) Accurately ripped
10 | (118/118) Accurately ripped
11 | (116/118) Accurately ripped
12 | (105/118) Accurately ripped, or (2/118) differs in 2364 samples @03:10:66-03:10:68
[AccurateRip ID: 00111801-00a04cb1-96091b0c] found.
Track [ CRC | V2 ] Status
01 [f660a1f3|e72a1524] (00+04/35) Accurately ripped
02 [4b0383d6|68f063d6] (00+04/31) Accurately ripped
03 [ca4c75ff|d2562086] (00+04/31) Accurately ripped
04 [05d0c9a6|e2a5c6ed] (00+04/31) Accurately ripped
05 [5505984d|3edf65d2] (00+04/33) Accurately ripped
06 [0c25ab1d|b4cace55] (00+04/29) Accurately ripped
07 [5bcd6696|d6da5dd4] (00+04/31) Accurately ripped
08 [636147bf|d751d365] (00+04/33) Accurately ripped
09 [470ed008|d535be49] (00+04/31) Accurately ripped
10 [ba1858e2|ed3c4312] (00+04/33) Accurately ripped
11 [3780442e|0fd30e06] (00+04/31) Accurately ripped
12 [7f3475b6|dc284965] (00+04/32) Accurately ripped
Offsetted by -216:
01 [5fbfdfb5] (03/35) Accurately ripped
02 [4f0c99a7] (03/31) Accurately ripped
03 [333ac8cf] (03/31) Accurately ripped
04 [2e7bd141] (03/31) Accurately ripped
05 [9411b435] (03/33) Accurately ripped
06 [80a616ee] (03/29) Accurately ripped
07 [4e5b3bd4] (03/31) Accurately ripped
08 [5f17c396] (03/33) Accurately ripped
09 [3be96bf7] (03/31) Accurately ripped
10 [863466f6] (03/33) Accurately ripped
11 [7698c07e] (03/31) Accurately ripped
12 [3a612643] (03/32) Accurately ripped
Offsetted by 90:
01 [5a99c662] (05/35) Accurately ripped
02 [7f597bd2] (05/31) Accurately ripped
03 [7d044791] (05/31) Accurately ripped
04 [1b56d87a] (05/31) Accurately ripped
05 [b5379320] (05/33) Accurately ripped
06 [5f8bb9d4] (05/29) Accurately ripped
07 [a1737d55] (05/31) Accurately ripped
08 [26b0e21d] (05/33) Accurately ripped
09 [1a1cab4e] (05/31) Accurately ripped
10 [3f3e1635] (05/33) Accurately ripped
11 [7df1d433] (05/31) Accurately ripped
12 [79003eeb] (05/32) Accurately ripped
Offsetted by 103:
01 [744ba196] (02/35) Accurately ripped
02 [95f46442] (02/31) Accurately ripped
03 [f49a1b89] (02/31) Accurately ripped
04 [66e692a2] (02/31) Accurately ripped
05 [03cd2f28] (02/33) Accurately ripped
06 [38055f5d] (02/29) Accurately ripped
07 [cd17bfe5] (02/31) Accurately ripped
08 [ef7ee84a] (02/33) Accurately ripped
09 [1ff28c84] (02/31) Accurately ripped
10 [060c3c75] (02/33) Accurately ripped
11 [b80f110a] (02/31) Accurately ripped
12 [3f59b242] (02/32) Accurately ripped
Offsetted by -1643:
01 [a829ab4f] (02/35) Accurately ripped
02 [160bc498] (00/31) No match (V2 was not tested)
03 [3ad36d27] (00/31) No match (V2 was not tested)
04 [f648d8dd] (00/31) No match (V2 was not tested)
05 [cfabec82] (02/33) Accurately ripped
06 [bb568b91] (00/29) No match (V2 was not tested)
07 [8653f997] (00/31) No match (V2 was not tested)
08 [c580914a] (02/33) Accurately ripped
09 [27834845] (00/31) No match (V2 was not tested)
10 [4dba81b7] (02/33) Accurately ripped
11 [0635d23e] (00/31) No match (V2 was not tested)
12 [d4fd5d97] (00/32) No match (V2 was not tested)
Offsetted by -218:
01 [d0828864] (00/35) No match (V2 was not tested)
02 [ba31ee8d] (00/31) No match (V2 was not tested)
03 [5154ed46] (00/31) No match (V2 was not tested)
04 [27da9387] (00/31) No match (V2 was not tested)
05 [dd182466] (00/33) No match (V2 was not tested)
06 [4fcfddb4] (00/29) No match (V2 was not tested)
07 [5ea4a520] (00/31) No match (V2 was not tested)
08 [06735b04] (00/33) No match (V2 was not tested)
09 [5050af35] (00/31) No match (V2 was not tested)
10 [0b375386] (00/33) No match (V2 was not tested)
11 [35645756] (00/31) No match (V2 was not tested)
12 [4366eac0] (00/32) No match (V2 was not tested)
Offsetted by -158:
01 [804eeb67] (00/35) No match (V2 was not tested)
02 [ce9add41] (00/31) No match (V2 was not tested)
03 [7a253624] (00/31) No match (V2 was not tested)
04 [4bdf7bd5] (00/31) No match (V2 was not tested)
05 [e6ab59ee] (00/33) No match (V2 was not tested)
06 [28dd05ca] (00/29) No match (V2 was not tested)
07 [ad27b020] (00/31) No match (V2 was not tested)
08 [13c7143c] (00/33) No match (V2 was not tested)
09 [1b6a241d] (00/31) No match (V2 was not tested)
10 [03fcf475] (00/33) No match (V2 was not tested)
11 [c2ce69cf] (00/31) No match (V2 was not tested)
12 [c3d76f54] (00/32) No match (V2 was not tested)
Offsetted by -124:
01 [0ff6f635] (00/35) No match (V2 was not tested)
02 [1f64bdfe] (00/31) No match (V2 was not tested)
03 [f13024a7] (00/31) No match (V2 was not tested)
04 [a32fecf6] (00/31) No match (V2 was not tested)
05 [9d60c790] (00/33) No match (V2 was not tested)
06 [85c2bd86] (00/29) No match (V2 was not tested)
07 [321f7791] (00/31) No match (V2 was not tested)
08 [7d65b968] (00/33) No match (V2 was not tested)
09 [f33fabd7] (00/31) No match (V2 was not tested)
10 [734a11a9] (00/33) No match (V2 was not tested)
11 [5d9a33c1] (00/31) No match (V2 was not tested)
12 [4595d2dc] (00/32) No match (V2 was not tested)
Offsetted by 12:
01 [9781c5ac] (00/35) No match (V2 was not tested)
02 [959a9b8d] (00/31) No match (V2 was not tested)
03 [3eeddd5a] (00/31) No match (V2 was not tested)
04 [c90cbafc] (00/31) No match (V2 was not tested)
05 [776ea52c] (00/33) No match (V2 was not tested)
06 [621ba860] (00/29) No match (V2 was not tested)
07 [36ef5309] (00/31) No match (V2 was not tested)
08 [ff18b949] (00/33) No match (V2 was not tested)
09 [da4bfcad] (00/31) No match (V2 was not tested)
10 [9e0200bf] (00/33) No match (V2 was not tested)
11 [f54998c7] (00/31) No match (V2 was not tested)
12 [bbab4c39] (00/32) No match (V2 was not tested)
Offsetted by 162:
01 [0cd8e15e] (02/35) Accurately ripped
02 [7ff8f1b1] (00/31) No match (V2 was not tested)
03 [136d4853] (00/31) No match (V2 was not tested)
04 [d97871de] (00/31) No match (V2 was not tested)
05 [f1d302b3] (00/33) No match (V2 was not tested)
06 [be7aa9c9] (00/29) No match (V2 was not tested)
07 [cb1771e9] (00/31) No match (V2 was not tested)
08 [2bcacd6e] (00/33) No match (V2 was not tested)
09 [5bd52b30] (00/31) No match (V2 was not tested)
10 [46e46180] (00/33) No match (V2 was not tested)
11 [a393fe8d] (00/31) No match (V2 was not tested)
12 [40a07dea] (02/32) Accurately ripped

Track Peak [ CRC32 ] [W/O NULL] [ LOG ]
– 100,0 [BD65F7F4] [44148271] CRC32
01 100,0 [4041B241] [053C2214]
02 100,0 [92614793] [89D22079]
03 99,9 [C5EC5FD6] [B221E815]
04 100,0 [47AC1445] [FBEC84CD]
05 100,0 [2DBFD05D] [50CCBE61]
06 90,6 [FBA67508] [15C93595]
07 100,0 [D868444A] [EEADA206]
08 100,0 [5BBE1E4A] [825B76D4]
09 100,0 [99FFA177] [4B191383]
10 100,0 [BF691087] [92C078DE]
11 100,0 [F7993ACC] [9165BB57]
12 100,0 [0D8BC93B] [F08B6BCA]

Microbial Toxins in Dairy Products

Attention! This CD is recorded with PRE-EMPHASIS.

All thanks go to Alexharvey

>>> My Blog <<<

Download from icerbox.com: