Subcategories

Shakura S'Aida - Time ... (2012)

Posted By: popsakov
Shakura S'Aida - Time ... (2012)

Shakura S'Aida - Time … (2012)
2CD | EAC Rip | FLAC (Img) + Cue + Log ~ 445 Mb | MP3 CBR320 ~ 163 Mb
Full Scans (JPG, 600 dpi) ~ 54 Mb | RAR 5% Recovery
Blues, Neo Soul, Rhythm & Blues, Piano Blues | Electro-Fi Records #Electro-Fi 3429

Blues singer Shakura S'Aida (pronounced "Shack-oora Sigh-ee-da") was born in Brooklyn and raised in Switzerland before settling in Toronto. She first began singing professionally with a Toronto band called Mystique, after which she worked with the world music band Kaleefah. Simultaneously, she pursued a legitimate stage career, appearing in Canadian productions of such shows as Ain't Misbehavin', and acted on television and in films. As a singer, she provided backup vocals for Patti LaBelle, performed in a Ray Charles tribute band, and appeared on albums by Bill King and Saturday Nite Fish Fry. Her own debut solo album, Blueprint, released by UMI on February 19, 2008, was a collection of blues songs of the 1940s and ‘50s. Two years later, the German label Ruf Records released her second album, Brown Sugar, which consisted largely of her own original compositions, co-written with her guitarist, Donna Grantis. Time… is a 2 CD set, Disc 1 'Time To Rock My Soul' and Disc 2 'Time For The Blues' and features special guests Kenny Blues Boss Wayne, Donna Grantis, Scott Cable, and Harrison Kennedy. Shakura S'Aida is proud to sing the blues,the time is Shakura's and the time is right.

***************

Shakura S'Aida - Time ... (2012)

Track List CD1 - Time To Rock My Soul…:

01. (Dont Try to Lay No Boogie Woogie on the) Queen of Rock and Soul [3:44]
02. Time [4:10]
03. Bring Me Back [3:23]
04. Your Love Always Got Me By [4:13]
05. My Dreamer Man [3:41]
06. Between Us [4:45]
07. Devil Only Knows My First Name [4:36]
08. Dont Tell Mama [3:49]

Exact Audio Copy V1.3 from 2. September 2016

Отчёт EAC об извлечении, выполненном 25. января 2018, 13:48

Shakura S'Aida / Time (disc 1)

Дисковод: HL-DT-STDVDRAM GH24NSD0 Adapter: 1 ID: 0

Режим чтения : Достоверность
Использование точного потока : Да
Отключение кэша аудио : Да
Использование указателей C2 : Нет

Коррекция смещения при чтении : 6
Способность читать области Lead-in и Lead-out : Нет
Заполнение пропущенных сэмплов тишиной : Да
Удаление блоков с тишиной в начале и конце : Нет
При вычислениях CRC использовались нулевые сэмплы : Да
Интерфейс : Встроенный Win32-интерфейс для Win NT/2000

Выходной формат : Пользовательский кодировщик
Выбранный битрейт : 128 kBit/s
Качество : Высокий
Добавление ID3-тега : Нет
Утилита сжатия : C:\Program Files (x86)\Exact Audio Copy\Flac\flac.exe
Дополнительные параметры : -V -8 -T "Date=%year%" -T "Genre=%genre%" %source%


TOC извлечённого CD

Трек | Старт | Длительность | Начальный сектор | Конечный сектор
––––––––––––––––––––––––––––––––––-
1 | 0:00.00 | 3:43.52 | 0 | 16776
2 | 3:43.52 | 4:10.30 | 16777 | 35556
3 | 7:54.07 | 3:23.12 | 35557 | 50793
4 | 11:17.19 | 4:13.10 | 50794 | 69778
5 | 15:30.29 | 3:40.47 | 69779 | 86325
6 | 19:11.01 | 4:45.32 | 86326 | 107732
7 | 23:56.33 | 4:36.01 | 107733 | 128433
8 | 28:32.34 | 3:49.36 | 128434 | 145644


Характеристики диапазона извлечения и сообщения об ошибках

Выбранный диапазон

Имя файла C:\Users\khokh\OneDrive\Рабочий стол\Shakura S'Aida - Time (disc 1).wav

Пиковый уровень 97.7 %
Скорость извлечения 1.6 X
Качество диапазона 100.0 %
CRC теста 9DA17FD6
CRC копии 9DA17FD6
Копирование… OK

Ошибок не произошло


AccurateRip: сводка

Трек 1 : извлечено точно (доверие 8) [5AE6FA31] (AR v2)
Трек 2 : извлечено точно (доверие 8) [EC90125C] (AR v2)
Трек 3 : извлечено точно (доверие 7) [7BBCE4AA] (AR v2)
Трек 4 : извлечено точно (доверие 8) [46C5CDA7] (AR v2)
Трек 5 : извлечено точно (доверие 8) [241A2474] (AR v2)
Трек 6 : извлечено точно (доверие 8) [D8571C2D] (AR v2)
Трек 7 : извлечено точно (доверие 7) [54118475] (AR v2)
Трек 8 : извлечено точно (доверие 8) [E4CA9C0D] (AR v2)

Все треки извлечены точно

Конец отчёта

==== Контрольная сумма отчёта A52DA0325EB55F24D18FB92697E60A1DFDDB01A8C04DAC8799EB0206D4AD0F16 ====

foobar2000 1.3.16 / Dynamic Range Meter 1.1.1
log date: 2018-01-27 23:45:16

––––––––––––––––––––––––––––––––––––––––
Analyzed: Shakura S'Aida / Time (disc 1)
––––––––––––––––––––––––––––––––––––––––

DR Peak RMS Duration Track
––––––––––––––––––––––––––––––––––––––––
DR6 -0.20 dB -7.85 dB 3:44 01-(Dont Try to Lay No Boogie Woogie on the) Queen of Rock and Soul
DR7 -0.20 dB -8.01 dB 4:10 02-Time
DR7 -0.20 dB -8.41 dB 3:23 03-Bring Me Back
DR7 -0.20 dB -8.93 dB 4:13 04-Your Love Always Got Me By
DR6 -0.20 dB -8.17 dB 3:41 05-My Dreamer Man
DR9 -0.20 dB -11.80 dB 4:45 06-Between Us
DR7 -0.20 dB -7.88 dB 4:36 07-Devil Only Knows My First Name
DR8 -0.20 dB -10.25 dB 3:49 08-Dont Tell Mama
––––––––––––––––––––––––––––––––––––––––

Number of tracks: 8
Official DR value: DR7

Samplerate: 44100 Hz
Channels: 2
Bits per sample: 16
Bitrate: 919 kbps
Codec: FLAC
================================================================================

[CUETools log; Date: 27.01.2018 23:45:22; Version: 2.1.5]
[CTDB TOCID: GY0iYuzYdPcfr14qTA.TYKr35Ls-] found.
Track | CTDB Status
1 | (15/15) Accurately ripped
2 | (14/15) Accurately ripped
3 | (15/15) Accurately ripped
4 | (14/15) Accurately ripped
5 | (14/15) Accurately ripped
6 | (14/15) Accurately ripped
7 | (13/15) Accurately ripped
8 | (14/15) Accurately ripped
[AccurateRip ID: 0009c815-0041a745-67079508] found.
Track [ CRC | V2 ] Status
01 [adf8aba2|5ae6fa31] (03+08/11) Accurately ripped
02 [1b80c469|ec90125c] (03+08/11) Accurately ripped
03 [ea6608da|7bbce4aa] (03+07/10) Accurately ripped
04 [20f7290c|46c5cda7] (03+08/11) Accurately ripped
05 [5d872979|241a2474] (02+08/10) Accurately ripped
06 [2161fff5|d8571c2d] (02+08/10) Accurately ripped
07 [059dee9e|54118475] (02+07/09) Accurately ripped
08 [74606461|e4ca9c0d] (02+08/10) Accurately ripped

Track Peak [ CRC32 ] [W/O NULL] [ LOG ]
– 97,7 [9DA17FD6] [283AD7E3] CRC32
01 97,7 [EBFFD5A7] [72D66DF9]
02 97,7 [CF345699] [1CE7F77C]
03 97,7 [823A675A] [33857DE0]
04 97,7 [9AB8DCB9] [63198A3C]
05 97,7 [8310FB94] [8E004019]
06 97,7 [B5254C5F] [88A7CFA7]
07 97,7 [82F6C015] [9FABE912]
08 97,7 [FB991E1D] [41A82FD1]

Track List CD2 - Time… For The Blues…:

01. Ya Ya [4:05]
02. Geechee Woman [4:38]
03. Bad Girl [2:59]
04. Tell Me Baby [4:01]
05. That Ain't Right [5:45]
06. Tell Me More, More and Then Some [2:56]
07. Blues Dancing [5:44]
08. Halfway Blues [5:31]

Exact Audio Copy V1.3 from 2. September 2016

Отчёт EAC об извлечении, выполненном 25. января 2018, 15:14

Shakura S'Aida / Time… Disc 2

Дисковод: HL-DT-STDVDRAM GH24NSD0 Adapter: 1 ID: 0

Режим чтения : Достоверность
Использование точного потока : Да
Отключение кэша аудио : Да
Использование указателей C2 : Нет

Коррекция смещения при чтении : 6
Способность читать области Lead-in и Lead-out : Нет
Заполнение пропущенных сэмплов тишиной : Да
Удаление блоков с тишиной в начале и конце : Нет
При вычислениях CRC использовались нулевые сэмплы : Да
Интерфейс : Встроенный Win32-интерфейс для Win NT/2000

Выходной формат : Пользовательский кодировщик
Выбранный битрейт : 128 kBit/s
Качество : Высокий
Добавление ID3-тега : Нет
Утилита сжатия : C:\Program Files (x86)\Exact Audio Copy\Flac\flac.exe
Дополнительные параметры : -V -8 -T "Date=%year%" -T "Genre=%genre%" %source%


TOC извлечённого CD

Трек | Старт | Длительность | Начальный сектор | Конечный сектор
––––––––––––––––––––––––––––––––––-
1 | 0:00.00 | 4:04.60 | 0 | 18359
2 | 4:04.60 | 4:37.57 | 18360 | 39191
3 | 8:42.42 | 2:59.28 | 39192 | 52644
4 | 11:41.70 | 4:01.31 | 52645 | 70750
5 | 15:43.26 | 5:44.53 | 70751 | 96603
6 | 21:28.04 | 2:56.12 | 96604 | 109815
7 | 24:24.16 | 5:44.23 | 109816 | 135638
8 | 30:08.39 | 5:30.57 | 135639 | 160445


Характеристики диапазона извлечения и сообщения об ошибках

Выбранный диапазон

Имя файла C:\Users\khokh\OneDrive\Рабочий стол\Shakura S'Aida - Time… Disc 2.wav

Пиковый уровень 97.7 %
Скорость извлечения 2.7 X
Качество диапазона 100.0 %
CRC теста FAB06522
CRC копии FAB06522
Копирование… OK

Ошибок не произошло


AccurateRip: сводка

Трек 1 : извлечено точно (доверие 8) [58B51EA1] (AR v2)
Трек 2 : извлечено точно (доверие 8) [4D1E4D37] (AR v2)
Трек 3 : извлечено точно (доверие 8) [0645F15B] (AR v2)
Трек 4 : извлечено точно (доверие 8) [D7CD18F3] (AR v2)
Трек 5 : извлечено точно (доверие 8) [5E518F9D] (AR v2)
Трек 6 : извлечено точно (доверие 8) [BB7F742D] (AR v2)
Трек 7 : извлечено точно (доверие 8) [04BA31D1] (AR v2)
Трек 8 : извлечено точно (доверие 8) [941BCB0D] (AR v2)

Все треки извлечены точно

Конец отчёта

==== Контрольная сумма отчёта EF6AEB6963DF62313DA067B192E6CC6560AB472BDA9675254C70BF8D766569FE ====

foobar2000 1.3.16 / Dynamic Range Meter 1.1.1
log date: 2018-01-27 23:46:17

––––––––––––––––––––––––––––––––––––––––
Analyzed: Shakura S'Aida / Time… Disc 2
––––––––––––––––––––––––––––––––––––––––

DR Peak RMS Duration Track
––––––––––––––––––––––––––––––––––––––––
DR7 -0.20 dB -9.62 dB 4:05 01-Ya Ya
DR7 -0.20 dB -9.33 dB 4:38 02-Geechee Woman
DR7 -0.20 dB -8.18 dB 2:59 03-Bad Girl
DR8 -0.20 dB -10.01 dB 4:01 04-Tell Me Baby
DR8 -0.20 dB -10.29 dB 5:45 05-That Ain't Right
DR11 -0.20 dB -13.80 dB 2:56 06-Tell Me More, More and Then Some
DR7 -0.20 dB -8.98 dB 5:44 07-Blues Dancing
DR10 -0.20 dB -12.70 dB 5:31 08-Halfway Blues
––––––––––––––––––––––––––––––––––––––––

Number of tracks: 8
Official DR value: DR8

Samplerate: 44100 Hz
Channels: 2
Bits per sample: 16
Bitrate: 826 kbps
Codec: FLAC
================================================================================

[CUETools log; Date: 27.01.2018 23:46:06; Version: 2.1.5]
[CTDB TOCID: W2a3wARJ6zDsNfJ.IvSEm20XzO4-] found.
Track | CTDB Status
1 | (14/14) Accurately ripped
2 | (11/14) Accurately ripped
3 | (14/14) Accurately ripped
4 | (13/14) Accurately ripped
5 | (14/14) Accurately ripped
6 | (14/14) Accurately ripped
7 | (12/14) Accurately ripped
8 | (14/14) Accurately ripped
[AccurateRip ID: 000a6dbd-0046217e-5c085b08] found.
Track [ CRC | V2 ] Status
01 [bcd2b2b4|58b51ea1] (03+08/11) Accurately ripped
02 [db131c75|4d1e4d37] (02+08/10) Accurately ripped
03 [1b10a5f8|0645f15b] (02+08/10) Accurately ripped
04 [830055eb|d7cd18f3] (02+08/10) Accurately ripped
05 [25471f33|5e518f9d] (02+08/10) Accurately ripped
06 [1a444ccc|bb7f742d] (02+08/10) Accurately ripped
07 [503558aa|04ba31d1] (02+08/10) Accurately ripped
08 [c0a970de|941bcb0d] (02+08/10) Accurately ripped

Track Peak [ CRC32 ] [W/O NULL] [ LOG ]
– 97,7 [FAB06522] [EBD8C56F] CRC32
01 97,7 [7F1ADB2F] [40BF8A66]
02 97,7 [048B85F9] [BE8AAD8C]
03 97,7 [4F3FCC78] [95FA6AA3]
04 97,7 [EC9465EA] [687C44B0]
05 97,7 [1F6B19AA] [4B295B73]
06 97,7 [C84CFDD7] [5143DBA1]
07 97,7 [1282F1B4] [66FE51D1]
08 97,7 [B67A40A9] [C81D32D9]

Shakura S'Aida - Time ... (2012)

See also:
Shakura S'Aida - Brown Sugar (2010)

All thanks go to Angel Station

>>> My Blog <<<

Download from icerbox.com: