Subcategories

Shawn Mendes - MTV Unplugged (2017)

Posted By: SERTiL
Shawn Mendes - MTV Unplugged (2017)

Shawn Mendes - MTV Unplugged
EAC Rip | FLAC (tracks)+cue, log, m3u, front cover | 44:58 min | 251 MB
Label: Island Records ‎– 00602567089292 | Tracks: 11 | Rls.date: 2017
Pop, Acoustic

Shawn Mendes brings his fans a live MTV Unplugged performance of hit tracks from his previous albums, Illuminate and Handwritten, on 11/3 via Island Records. The intimate performance took place in Downtown Los Angeles at The Theatre at Ace Hotel & aired on September 8th nationwide. Mendes’ Unplugged performance was the premiere to MTV’s ‘90s revival of the concert series. He will continue his Illuminate World Tour in Australia & New Zealand in November.

Tracklist:
01. There's Nothing Holdin' Me Back (MTV Unplugged) 03:30
02. Ruin (MTV Unplugged) 06:21
03. Stitches (MTV Unplugged) 04:23
04. Three Empty Words (MTV Unplugged) 04:19
05. Patience (MTV Unplugged) 03:13
06. Bad Reputation (MTV Unplugged) 05:11
07. Don't Be A Fool (MTV Unplugged) 05:37
08. Roses (MTV Unplugged) 04:14
09. Mercy (MTV Unplugged) 03:48
10. Never Be Alone (MTV Unplugged) 04:49
11. Use Somebody/Treat You Better (MTV Unplugged) 05:16

Exact Audio Copy V1.3 from 2. September 2016

EAC extraction logfile from 25. November 2017, 12:59

Shawn Mendes / MTV Unplugged

Used drive : ATAPI DVD A DH16AAL Adapter: 1 ID: 0

Read mode : Secure
Utilize accurate stream : Yes
Defeat audio cache : Yes
Make use of C2 pointers : No

Read offset correction : 6
Overread into Lead-In and Lead-Out : No
Fill up missing offset samples with silence : Yes
Delete leading and trailing silent blocks : No
Null samples used in CRC calculations : Yes
Used interface : Native Win32 interface for Win NT & 2000
Gap handling : Appended to previous track

Used output format : User Defined Encoder
Selected bitrate : 1024 kBit/s
Quality : High
Add ID3 tag : No
Command line compressor : C:\Program Files (x86)\Exact Audio Copy\Flac\flac.exe
Additional command line options : -8 -e -p -V -T "ARTIST=%artist%" -T "TITLE=%title%" -T "ALBUM=%albumtitle%" -T "DATE=%year%" -T "TRACKNUMBER=%tracknr%" -T "GENRE=%genre%" -T "PERFORMER=%albuminterpret%" -T "COMPOSER=%composer%" %haslyrics%–tag-from-file=LYRICS="%lyricsfile%"%haslyrics% -T "ALBUMARTIST=%albumartist%" -T "DISCNUMBER=%cdnumber%" -T "TOTALDISCS=%totalcds%" -T "TOTALTRACKS=%numtracks%" -T "COMMENT=%comment%" %source% -o %dest%


TOC of the extracted CD

Track | Start | Length | Start sector | End sector
––––––––––––––––––––––––––––-
1 | 0:00.00 | 3:30.05 | 0 | 15754
2 | 3:30.05 | 6:21.28 | 15755 | 44357
3 | 9:51.33 | 4:23.69 | 44358 | 64151
4 | 14:15.27 | 4:19.28 | 64152 | 83604
5 | 18:34.55 | 3:13.59 | 83605 | 98138
6 | 21:48.39 | 5:11.10 | 98139 | 121473
7 | 26:59.49 | 5:37.63 | 121474 | 146811
8 | 32:37.37 | 4:14.16 | 146812 | 165877
9 | 36:51.53 | 3:48.24 | 165878 | 183001
10 | 40:40.02 | 4:49.24 | 183002 | 204700
11 | 45:29.26 | 5:16.33 | 204701 | 228433


Track 1

Filename C:\Zelou\EAC Rips\Shawn Mendes - MTV unplugged (2017) [FLAC] {B002761602}\01 - There's Nothing Holdin' Me Back (MTV unplugged).wav

Pre-gap length 0:00:02.00

Peak level 100.0 %
Extraction speed 1.7 X
Track quality 100.0 %
Test CRC 0D1ABC4F
Copy CRC 0D1ABC4F
Track not present in AccurateRip database
Copy OK

Track 2

Filename C:\Zelou\EAC Rips\Shawn Mendes - MTV unplugged (2017) [FLAC] {B002761602}\02 - Ruin (MTV unplugged).wav

Peak level 100.0 %
Extraction speed 2.1 X
Track quality 100.0 %
Test CRC 55CC0774
Copy CRC 55CC0774
Track not present in AccurateRip database
Copy OK

Track 3

Filename C:\Zelou\EAC Rips\Shawn Mendes - MTV unplugged (2017) [FLAC] {B002761602}\03 - Stitches (MTV unplugged).wav

Peak level 99.7 %
Extraction speed 1.7 X
Track quality 99.9 %
Test CRC 500D5DA5
Copy CRC 500D5DA5
Track not present in AccurateRip database
Copy OK

Track 4

Filename C:\Zelou\EAC Rips\Shawn Mendes - MTV unplugged (2017) [FLAC] {B002761602}\04 - Three Empty Words (MTV unplugged).wav

Peak level 100.0 %
Extraction speed 2.4 X
Track quality 100.0 %
Test CRC C26D150F
Copy CRC C26D150F
Track not present in AccurateRip database
Copy OK

Track 5

Filename C:\Zelou\EAC Rips\Shawn Mendes - MTV unplugged (2017) [FLAC] {B002761602}\05 - Patience (MTV unplugged).wav

Peak level 100.0 %
Extraction speed 2.5 X
Track quality 100.0 %
Test CRC 5BDA0441
Copy CRC 5BDA0441
Track not present in AccurateRip database
Copy OK

Track 6

Filename C:\Zelou\EAC Rips\Shawn Mendes - MTV unplugged (2017) [FLAC] {B002761602}\06 - Bad Reputation (MTV unplugged).wav

Peak level 100.0 %
Extraction speed 2.8 X
Track quality 100.0 %
Test CRC 66E058A7
Copy CRC 66E058A7
Track not present in AccurateRip database
Copy OK

Track 7

Filename C:\Zelou\EAC Rips\Shawn Mendes - MTV unplugged (2017) [FLAC] {B002761602}\07 - Don't Be A Fool (MTV unplugged).wav

Peak level 100.0 %
Extraction speed 3.0 X
Track quality 100.0 %
Test CRC 3A689214
Copy CRC 3A689214
Track not present in AccurateRip database
Copy OK

Track 8

Filename C:\Zelou\EAC Rips\Shawn Mendes - MTV unplugged (2017) [FLAC] {B002761602}\08 - Roses (MTV unplugged).wav

Peak level 99.4 %
Extraction speed 3.1 X
Track quality 100.0 %
Test CRC 7B265564
Copy CRC 7B265564
Track not present in AccurateRip database
Copy OK

Track 9

Filename C:\Zelou\EAC Rips\Shawn Mendes - MTV unplugged (2017) [FLAC] {B002761602}\09 - Mercy (MTV unplugged).wav

Peak level 100.0 %
Extraction speed 3.2 X
Track quality 100.0 %
Test CRC 464A1A2C
Copy CRC 464A1A2C
Track not present in AccurateRip database
Copy OK

Track 10

Filename C:\Zelou\EAC Rips\Shawn Mendes - MTV unplugged (2017) [FLAC] {B002761602}\10 - Never Be Alone (MTV unplugged).wav

Peak level 99.3 %
Extraction speed 3.4 X
Track quality 100.0 %
Test CRC EA787345
Copy CRC EA787345
Track not present in AccurateRip database
Copy OK

Track 11

Filename C:\Zelou\EAC Rips\Shawn Mendes - MTV unplugged (2017) [FLAC] {B002761602}\11 - Treat You Better (MTV unplugged).wav

Peak level 100.0 %
Extraction speed 3.6 X
Track quality 100.0 %
Test CRC 0B5E9A93
Copy CRC 0B5E9A93
Track not present in AccurateRip database
Copy OK


None of the tracks are present in the AccurateRip database

No errors occurred

End of status report

–– CUETools DB Plugin V2.1.6

[CTDB TOCID: Lszif3gtsgDxy3TS6INMGI1u1MM-] found
Submit result: Lszif3gtsgDxy3TS6INMGI1u1MM- has been confirmed
Track | CTDB Status
1 | (2/2) Accurately ripped
2 | (2/2) Accurately ripped
3 | (2/2) Accurately ripped
4 | (2/2) Accurately ripped
5 | (2/2) Accurately ripped
6 | (2/2) Accurately ripped
7 | (2/2) Accurately ripped
8 | (2/2) Accurately ripped
9 | (2/2) Accurately ripped
10 | (2/2) Accurately ripped
11 | (2/2) Accurately ripped


==== Log checksum 83322CE0DF6E73B8A35343806A29CFB453DAA5CD9831C5C7280E0328EABA2E26 ====


Thanks to the Original customer.