Subcategories

Sherbet - Life Is For Living (1975) {1999, Reissue}

Posted By: popsakov
Sherbet - Life Is For Living (1975) {1999, Reissue}

Sherbet - Life Is For Living (1975) {1999, Reissue}
EAC Rip | FLAC (Img) + Cue + Log ~ 274 Mb | MP3 CBR320 ~ 110 Mb
Full Scans | RAR 5% Recovery
Rock | Festival Records #D20031

Sherbet were Australia's most popular pop group of the 70s with 20 consecutive hit records and 17 album, accounting for 10 platinum and 14 gold disc awards. In 1969 the Sydney entertainment scene was almost totally geared towards satisfying the money-rich comfort-starved American Vietnam troops who came for official Rest And Recreation. Sydney's nightclubs gave them what they wanted - r&b, soul, funk, good-time rock - and these influences spilled over into the pop group Sherbet, formed without singer Daryl Braithwaite, but completed by his falsetto-capable vocals. They were the archetypical 70s girl fodder pop band - groomed hair, colorful satin stage outfits.

In July 1976 the group's eighth national top ten hit "Howzat" became their first number one, ending Abba's record breaking fourteen week at the top with "Fernando." Sherbet's album of the same name as the hit also made number one, also replacing Abba. The "Howzat" single was released in England where it made Top 10, was a hit in several countries in Europe and South East Asia, and also received extensive airplay across America. Sherbet now set their sights on conquering the rest of the world. In June 1978 they recorded their seventh studio album in Los Angeles. At the insistence of RSO Records Sherbet changed their name to Highway. They wanted to be seen as serious about their music and Sherbet was considered too frivolous and poppy a name. In Australia they only released one single as Highway, preferring to shorted their name to The Sherbs.

Trying to balance between winning America and keeping their Australian following happy the band lost its momentum, and in late 1983 they announced they were splitting up. At the height of their popularity singer Daryl Braithwaite had released several successful solo singles. Taking some time off to put the Sherbet years behind him, Braithwaite relaunched his solo career in 1988, with eight more hit singles and two big selling albums, Edge and Rise. Sherbet's main songwriter Garth Porter has become one of the cornerstones of the contemporary Australian country music scene, in particular as producer and occasional songwriting partner for Australia's "Garth Brooks", Lee Kernaghan.

~ Ed Nimmervoll, All Music

***************

Sherbet - Life Is For Living (1975) {1999, Reissue}

Sherbet - Life Is For Living (1975) {1999, Reissue}

Track List:

01. Arrival [01:57]
02. Survival [02:04]
03. Live [03:29]
04. I Wanna' Live [04:13]
05. Only One You [03:47]
06. Matter Of Time [03:01]
07. Just Being You [03:50]
08. Bluesong [02:47]
09. I've Been In It Too Long [02:56]
10. Where Do We Go? [04:16]
11. Survival (Reprise) [04:33]

Exact Audio Copy V1.0 beta 3 from 29. August 2011

EAC extraction logfile from 26. April 2015, 19:15

Sherbet / Life … Is For Living

Used drive : SlimtypeDVD A DS8A5SH Adapter: 0 ID: 0

Read mode : Secure
Utilize accurate stream : Yes
Defeat audio cache : Yes
Make use of C2 pointers : No

Read offset correction : 6
Overread into Lead-In and Lead-Out : No
Fill up missing offset samples with silence : Yes
Delete leading and trailing silent blocks : No
Null samples used in CRC calculations : Yes
Used interface : Installed external ASPI interface

Used output format : User Defined Encoder
Selected bitrate : 320 kBit/s
Quality : High
Add ID3 tag : No
Command line compressor : C:\Program Files (x86)\Exact Audio Copy\Flac\flac.exe
Additional command line options : -V -8 -T "Date=%year%" -T "Genre=%genre%" %source%


TOC of the extracted CD

Track | Start | Length | Start sector | End sector
––––––––––––––––––––––––––––-
1 | 0:00.00 | 1:56.67 | 0 | 8766
2 | 1:56.67 | 2:03.33 | 8767 | 18024
3 | 4:00.25 | 3:28.42 | 18025 | 33666
4 | 7:28.67 | 4:12.60 | 33667 | 52626
5 | 11:41.52 | 3:46.53 | 52627 | 69629
6 | 15:28.30 | 3:00.07 | 69630 | 83136
7 | 18:28.37 | 3:50.00 | 83137 | 100386
8 | 22:18.37 | 2:46.23 | 100387 | 112859
9 | 25:04.60 | 2:55.30 | 112860 | 126014
10 | 28:00.15 | 4:15.35 | 126015 | 145174
11 | 32:15.50 | 4:32.30 | 145175 | 165604


Range status and errors

Selected range

Filename D:\My Music\Sherbet - 1975 Life Is For Living\Sherbet - Life … Is For Living.wav

Peak level 100.0 %
Extraction speed 1.7 X
Range quality 100.0 %
Test CRC 9B7BD8A5
Copy CRC 9B7BD8A5
Copy OK

No errors occurred


AccurateRip summary

Track 1 accurately ripped (confidence 2) [0B07B8F5] (AR v1)
Track 2 accurately ripped (confidence 2) [456A3BE2] (AR v1)
Track 3 accurately ripped (confidence 2) [463D1517] (AR v1)
Track 4 accurately ripped (confidence 2) [903D6470] (AR v1)
Track 5 accurately ripped (confidence 2) [46040E52] (AR v1)
Track 6 accurately ripped (confidence 2) [5A148268] (AR v1)
Track 7 accurately ripped (confidence 2) [E70EC1B5] (AR v1)
Track 8 accurately ripped (confidence 2) [1B308A07] (AR v1)
Track 9 accurately ripped (confidence 2) [88EBA903] (AR v1)
Track 10 accurately ripped (confidence 2) [ACD0205F] (AR v1)
Track 11 accurately ripped (confidence 2) [40E04BCB] (AR v1)

All tracks accurately ripped

End of status report

==== Log checksum DC1F79E599649A38BA6459B4604A3EFFEBD3EE3A15C96588B8C364D0F7077682 ====

Sherbet - Life Is For Living (1975) {1999, Reissue}


All thanks go to kolushew

>>> "Sherbet" in my Blog <<<

DOWNLOAD: